osu file format v14

[General]
AudioFilename: -_.mp3
AudioLeadIn: 0
PreviewTime: 72250
Countdown: 0
SampleSet: Normal
StackLeniency: 0.3
Mode: 0
LetterboxInBreaks: 0
WidescreenStoryboard: 0

[Editor]
DistanceSpacing: 0.9
BeatDivisor: 2
GridSize: 4
TimelineZoom: 1

[Metadata]
Title:Shinde Shimau towa Nasakenai!
TitleUnicode:しんでしまうとはなさけない!
Artist:yuikonnu & ayaponzu*
ArtistUnicode:ゆいこんぬ&あやぽんず*
Creator:Frey
Version:Normal
Source:
Tags:Shindeshimautowa Nasakenai! じーざすP JesusP Death Should Not Have Taken Thee! ワンダフル☆オポチュニティ! WONDERFUL★OPPORTUNITY! Vocaloid c89 comiket 89 chocolate pop* DreaM117er m117 Testo
BeatmapID:1653016
BeatmapSetID:710207

[Difficulty]
HPDrainRate:3
CircleSize:3
OverallDifficulty:4
ApproachRate:4
SliderMultiplier:1.1
SliderTickRate:1

[Events]
//Background and Video events
0,0,"40537422_p0.jpg",0,0
//Break Periods
2,11760,21274
2,94518,95757
2,119146,128861
//Storyboard Layer 0 (Background)
//Storyboard Layer 1 (Fail)
//Storyboard Layer 2 (Pass)
//Storyboard Layer 3 (Foreground)
//Storyboard Sound Samples

[TimingPoints]
526,344.827586206897,4,2,0,70,1,0
11560,-100,4,1,1,60,0,0
33629,-100,4,3,1,65,0,0
44663,-100,4,1,1,60,0,0
66732,-100,4,1,1,55,0,0
71905,-100,4,1,1,50,0,0
72250,-100,4,1,1,65,0,1
94319,-100,4,1,1,40,0,0
97077,-133.333333333333,4,2,0,70,0,0
119146,-100,4,1,1,60,0,0
141215,-100,4,3,1,65,0,0
152250,-100,4,1,1,55,0,0
153284,-100,4,1,1,60,0,0
153629,-100,4,1,1,55,0,0
154663,-100,4,1,1,60,0,0
155008,-100,4,1,1,55,0,0
156043,-100,4,1,1,60,0,0
156388,-100,4,1,1,55,0,0
158801,-100,4,1,1,60,0,0
159146,-100,4,1,1,55,0,0
160181,-100,4,1,1,60,0,0
160526,-100,4,1,1,55,0,0
161560,-100,4,1,1,60,0,0
196388,-100,4,1,1,55,0,0
201560,-100,4,1,1,50,0,0
201905,-100,4,1,1,60,0,0
203629,-100,4,1,1,50,0,0
203974,-100,4,1,1,60,0,0
204663,-100,4,1,1,65,0,1
223974,-100,4,1,1,68,0,1
246043,-100,4,1,1,10,0,0

[Colours]
Combo1 : 255,255,64
Combo2 : 255,21,138
Combo3 : 0,128,192

[HitObjects]
16,64,526,6,0,P|60:108|172:92,1,165,0|0,0:0|0:0,0:0:0:0:
196,76,1215,1,0,0:0:0:0:
292,96,1560,1,2,0:0:0:0:
312,192,1905,2,0,P|298:252|292:304,1,110,0|2,0:0|0:0,0:0:0:0:
368,364,2594,2,0,P|432:352|460:312,1,110,0|2,0:0|0:0,0:0:0:0:
480,272,3112,1,0,0:0:0:0:
480,224,3284,6,0,P|473:169|460:116,1,110,0|2,0:0|0:0,0:0:0:0:
392,44,3974,1,0,0:0:0:0:
296,60,4319,1,2,0:0:0:0:
252,148,4663,2,0,P|160:152|96:64,1,165,0|0,0:0|0:0,0:0:0:0:
100,56,5353,1,0,0:0:0:0:
192,20,5698,1,2,0:0:0:0:
284,60,6043,6,0,P|284:148|304:228,1,165
328,264,6732,1,0,0:0:0:0:
424,296,7077,1,2,0:0:0:0:
488,220,7422,2,0,P|508:164|504:104,1,110,0|2,0:0|0:0,0:0:0:0:
452,32,8112,2,0,L|328:48,1,110,0|2,0:0|0:0,0:0:0:0:
308,80,8629,1,0,0:0:0:0:
272,112,8801,6,0,L|108:91,1,165,0|0,0:0|0:0,0:0:0:0:
60,88,9491,2,0,L|76:224,1,110,0|2,0:0|0:0,0:0:0:0:
116,284,10181,2,0,P|160:296|220:352,2,110,0|2|0,0:0|0:0|0:0,0:0:0:0:
16,276,11215,1,2,0:0:0:0:
72,197,11560,5,4,0:0:0:0:
416,348,22594,6,0,L|428:208,1,110,2|8,0:0|0:0,0:0:0:0:
428,188,23112,1,2,0:0:0:0:
256,12,23974,2,0,L|128:24,1,110,2|8,0:0|0:0,0:0:0:0:
96,28,24491,1,2,0:2:0:0:
4,260,25353,6,0,P|88:268|120:296,1,110,2|8,0:0|0:0,0:0:0:0:
132,324,25870,1,2,0:2:0:0:
380,324,26732,2,0,L|404:196,1,110,8|8,0:0|0:0,0:0:0:0:
420,120,27422,1,8,0:0:0:0:
325,100,27767,1,12,0:0:0:0:
304,196,28112,6,0,P|256:224|176:216,1,110,2|8,0:0|0:0,0:0:0:0:
156,212,28629,1,2,0:0:0:0:
352,52,29491,2,0,P|406:60|460:66,1,110,2|8,0:0|0:0,0:0:0:0:
512,72,30008,1,2,0:0:0:0:
304,196,30870,6,0,P|249:190|195:182,1,110,2|8,0:0|0:0,0:0:0:0:
147,170,31387,1,2,0:0:0:0:
308,360,32250,2,0,P|363:366|417:374,1,110,8|8,0:0|0:0,0:0:0:0:
476,296,32939,1,8,0:0:0:0:
384,256,33284,1,12,0:0:0:0:
444,180,33629,6,0,P|455:80|465:32,1,110,6|8,1:0|1:0,0:0:0:0:
464,20,34146,2,0,P|380:36|308:0,1,165,2|8,1:0|1:0,0:0:0:0:
224,52,35008,2,0,L|88:32,1,110,2|8,1:0|1:0,0:0:0:0:
68,56,35526,2,0,P|28:116|44:204,1,165,2|8,1:0|1:0,0:0:0:0:
128,256,36388,6,0,P|200:220|216:168,1,110,2|8,1:0|1:0,0:0:0:0:
208,148,36905,2,0,L|404:120,1,165,2|8,1:0|1:0,0:0:0:0:
448,64,37767,1,2,1:0:0:0:
464,160,38112,1,8,1:0:0:0:
388,224,38457,2,0,P|344:264|324:312,1,110,0|8,0:0|1:0,0:0:0:0:
236,356,39146,6,0,L|216:220,1,110,2|8,1:0|1:0,0:0:0:0:
212,200,39663,2,0,P|132:180|68:228,1,165,2|8,1:0|1:0,0:0:0:0:
0,152,40526,2,0,L|16:32,1,110,2|8,1:0|1:0,0:0:0:0:
56,16,41043,2,0,B|140:8|132:52|224:40,1,165,2|8,1:0|1:0,0:0:0:0:
312,16,41905,6,0,P|336:72|320:148,1,110,2|8,1:0|1:0,0:0:0:0:
304,160,42422,2,0,P|288:232|344:296,1,165,2|8,1:0|1:0,0:0:0:0:
444,312,43284,1,0,0:0:0:0:
512,240,43629,2,0,L|520:104,2,110,2|2|2,0:2|0:2|0:2,0:0:0:0:
444,312,44663,6,0,P|400:272|328:264,1,110,6|8,0:0|0:0,0:0:0:0:
256,284,45353,2,0,P|208:320|188:389,1,110,2|8,0:0|0:0,0:0:0:0:
96,336,46043,2,0,P|84:268|80:212,1,110,2|8,0:0|0:0,0:0:0:0:
152,160,46732,1,2,0:0:0:0:
248,184,47077,1,8,0:0:0:0:
256,284,47422,5,2,0:0:0:0:
352,308,47767,2,0,L|360:248,1,55,8|0,0:0|0:0,0:0:0:0:
368,204,48112,2,0,P|425:195|488:180,1,110,2|8,0:0|0:0,0:0:0:0:
456,88,48801,2,0,P|399:97|336:112,1,110,2|8,0:0|0:0,0:0:0:0:
300,124,49319,1,0,0:0:0:0:
268,160,49491,2,0,P|208:136|184:80,1,110,2|8,0:0|0:0,0:0:0:0:
240,16,50181,5,6,0:0:0:0:
140,11,50526,2,0,P|99:48|86:100,1,110,8|2,0:0|0:0,0:0:0:0:
104,200,51215,2,0,L|120:288,1,55,8|0,0:0|0:0,0:0:0:0:
124,304,51560,2,0,P|177:309|240:320,1,110,2|8,0:0|0:0,0:0:0:0:
332,336,52250,1,2,0:0:0:0:
412,276,52594,1,8,0:0:0:0:
392,180,52939,6,0,P|316:164|288:124,1,110,2|8,0:0|0:0,0:0:0:0:
288,92,53457,1,0,0:0:0:0:
280,44,53629,2,0,P|334:38|388:29,1,110,2|8,0:0|0:0,0:0:0:0:
480,68,54319,1,0,0:0:0:0:
496,164,54663,2,0,L|512:276,1,110,8|2,0:0|0:0,0:0:0:0:
412,292,55353,2,0,L|401:212,1,55,2|8,0:0|0:0,0:0:0:0:
396,188,55698,6,0,P|341:182|287:173,1,110,6|8,0:0|0:0,0:0:0:0:
212,108,56388,2,0,P|206:163|197:217,1,110,2|8,0:0|0:0,0:0:0:0:
104,252,57077,2,0,P|120:332|124:376,1,110,2|8,0:0|0:0,0:0:0:0:
24,376,57767,1,2,0:0:0:0:
8,280,58111,1,8,0:0:0:0:
104,252,58457,5,2,0:0:0:0:
156,164,58801,2,0,L|232:184,1,55,8|0,0:0|0:0,0:0:0:0:
256,192,59146,2,0,P|304:168|364:172,1,110,2|8,0:0|0:0,0:0:0:0:
439,232,59836,2,0,P|463:183|453:129,1,110,2|8,0:0|0:0,0:0:0:0:
432,84,60353,1,0,0:0:0:0:
396,48,60526,2,0,L|268:32,1,110,2|8,0:0|0:0,0:0:0:0:
188,24,61215,5,2,0:0:0:0:
112,88,61560,2,0,P|124:188|128:244,1,110,8|2,0:0|0:0,0:0:0:0:
136,296,62250,2,0,L|216:288,1,55,8|0,0:0|0:0,0:0:0:0:
240,280,62594,2,0,P|228:180|224:124,1,110,2|8,0:0|0:0,0:0:0:0:
268,80,63284,1,2,0:0:0:0:
368,68,63629,1,8,0:0:0:0:
429,143,63974,6,0,P|462:101|463:46,2,110,2|8|2,0:0|0:0|0:0,0:0:0:0:
356,208,65008,2,0,L|344:284,1,55,8|0,0:0|0:0,0:0:0:0:
340,312,65353,2,0,L|204:332,1,110,2|2,0:0|0:0,0:0:0:0:
132,340,66043,2,0,L|148:231,1,110,2|8,0:0|0:0,0:0:0:0:
204,148,66732,6,0,P|128:100|124:24,2,165,8|2|8,0:0|0:0|0:0,0:0:0:0:
308,148,68112,2,0,P|384:100|388:24,2,165,8|2|8,0:0|0:0|0:0,0:0:0:0:
308,248,69491,6,0,B|389:247|384:280|476:280,2,165,8|2|8,0:0|0:0|0:0,0:0:0:0:
204,248,70870,2,0,B|122:247|128:280|36:280,2,165,8|2|0,0:0|0:0|3:0,0:0:0:0:
256,160,72250,6,0,B|264:104|248:104|256:48,1,110,6|8,0:0|0:0,0:0:0:0:
348,16,72939,1,2,0:0:0:0:
420,88,73284,2,0,P|400:144|400:168,1,55,8|0,0:0|0:0,0:0:0:0:
388,188,73629,2,0,L|504:176,1,110,2|8,0:0|0:0,0:0:0:0:
480,276,74319,2,0,L|370:287,1,110,2|8,0:0|0:0,0:0:0:0:
296,352,75008,6,0,P|248:328|192:332,1,110,2|8,0:0|0:0,0:0:0:0:
108,384,75698,1,2,0:0:0:0:
55,299,76043,2,0,L|64:208,1,55,8|0,0:0|0:0,0:0:0:0:
64,196,76388,2,0,P|113:185|180:168,1,110,2|8,0:0|0:0,0:0:0:0:
256,116,77077,2,0,P|266:165|284:232,1,110,2|8,0:0|0:0,0:0:0:0:
364,280,77767,6,0,P|432:268|468:224,1,110,6|8,0:0|0:0,0:0:0:0:
480,144,78457,1,2,0:0:0:0:
412,72,78801,2,0,P|376:64|344:52,1,55,8|0,0:0|0:0,0:0:0:0:
312,44,79146,2,0,P|284:92|288:148,1,110,2|8,0:0|0:0,0:0:0:0:
356,224,79836,2,0,P|358:278|330:324,1,110,2|8,0:0|0:0,0:0:0:0:
240,364,80526,6,0,P|187:367|112:376,1,110,2|8,0:0|0:0,0:0:0:0:
48,316,81215,2,0,P|44:263|36:188,1,110,2|8,0:0|0:0,0:0:0:0:
32,156,81732,1,0,0:0:0:0:
28,108,81905,2,0,P|100:104|152:88,1,110,2|8,0:0|0:0,0:0:0:0:
184,180,82594,2,0,P|252:188|328:204,1,110,0|8,0:0|0:0,0:0:0:0:
340,208,83112,1,8,0:0:0:0:
388,220,83284,6,0,P|416:156|404:108,1,110,6|8,0:0|0:0,0:0:0:0:
348,40,83974,1,2,0:0:0:0:
252,24,84319,2,0,L|240:92,1,55,8|0,0:0|0:0,0:0:0:0:
232,128,84663,2,0,P|166:134|96:148,1,110,2|8,0:0|0:0,0:0:0:0:
28,108,85353,1,2,0:0:0:0:
44,208,85698,1,8,0:0:0:0:
139,242,86043,6,0,P|193:233|248:228,1,110,2|8,0:0|0:0,0:0:0:0:
324,292,86732,1,2,0:0:0:0:
344,196,87077,2,0,P|364:213|390:223,1,55,8|0,0:0|0:0,0:0:0:0:
440,228,87422,2,0,P|480:180|480:120,1,110,2|8,0:0|0:0,0:0:0:0:
432,48,88112,1,2,0:0:0:0:
336,64,88457,1,8,0:0:0:0:
308,160,88801,6,0,P|245:151|168:144,1,110,6|8,0:0|0:0,0:0:0:0:
120,88,89491,1,2,0:0:0:0:
24,112,89836,2,0,L|44:192,1,55,8|0,0:0|0:0,0:0:0:0:
52,212,90181,2,0,P|104:232|160:224,1,110,2|8,0:0|0:0,0:0:0:0:
224,300,90870,2,0,P|275:280|331:288,1,110,2|8,0:0|0:0,0:0:0:0:
400,356,91560,5,8,0:0:0:0:
476,296,91905,2,0,L|460:216,1,55,8|2,0:0|0:0,0:0:0:0:
456,192,92250,1,8,0:0:0:0:
360,176,92594,2,0,L|280:192,1,55,8|2,0:0|0:0,0:0:0:0:
256,200,92939,2,0,P|203:109|255:17,2,220,2|4|2,0:0|0:0|0:0,0:0:0:0:
196,140,97077,6,0,P|128:96|36:100,2,165.000006294251,0|2|0,0:0|0:0|0:0,0:0:0:0:
256,276,99146,1,2,0:0:0:0:
316,140,99836,2,0,P|384:96|476:100,2,165.000006294251,0|2|0,0:0|0:0|0:0,0:0:0:0:
256,276,101905,1,2,0:0:0:0:
120,336,102594,6,0,P|36:212|148:72,1,330.000012588501
256,152,104663,1,2,0:0:0:0:
387,78,105353,2,0,L|375:242,2,165.000006294251,0|2|0,0:0|0:0|0:0,0:0:0:0:
256,12,107422,1,2,0:0:0:0:
196,148,108112,6,0,L|24:164,2,165.000006294251,0|2|0,0:0|0:0|0:0,0:0:0:0:
304,248,110181,1,2,0:0:0:0:
196,348,110870,2,0,L|24:364,2,165.000006294251,0|2|0,0:0|0:0|0:0,0:0:0:0:
256,212,112939,1,2,0:0:0:0:
360,319,113629,6,0,P|415:174|302:68,2,330.000012588501,0|2|0,0:0|0:0|0:0,0:0:0:0:
216,360,117077,1,2,0:0:0:0:
176,216,117767,1,2,0:0:0:0:
448,160,130181,6,0,L|468:308,1,110,2|8,0:0|0:0,0:0:0:0:
472,320,130698,1,2,0:0:0:0:
228,356,131560,2,0,P|172:336|112:344,1,110,2|8,0:0|0:0,0:0:0:0:
88,304,132077,1,2,0:0:0:0:
24,64,132939,6,0,L|172:80,1,110,2|8,0:0|0:0,0:0:0:0:
184,84,133457,1,2,0:0:0:0:
328,300,134319,2,0,P|368:248|364:196,1,110,8|8,0:0|0:0,0:0:0:0:
292,140,135008,1,8,0:0:0:0:
208,192,135353,1,12,0:0:0:0:
228,288,135698,6,0,L|118:299,1,110,2|8,0:0|0:0,0:0:0:0:
68,304,136215,1,2,0:0:0:0:
132,64,137077,2,0,L|241:75,1,110,2|8,0:0|0:0,0:0:0:0:
292,80,137594,1,2,0:0:0:0:
468,256,138457,6,0,P|380:276|360:304,1,110,2|8,0:0|0:0,0:0:0:0:
352,336,138974,1,2,0:0:0:0:
124,240,139836,2,0,P|100:192|108:136,1,110,8|8,0:0|0:0,0:0:0:0:
140,44,140526,1,8,0:0:0:0:
236,32,140870,1,12,0:0:0:0:
296,112,141215,6,0,P|352:132|412:120,1,110,2|8,1:0|1:0,0:0:0:0:
444,100,141732,2,0,P|473:187|472:272,1,165,2|8,1:0|1:0,0:0:0:0:
428,348,142594,2,0,L|300:332,1,110,2|8,1:0|1:0,0:0:0:0:
300,288,143112,2,0,L|136:308,1,165,2|8,1:0|1:0,0:0:0:0:
48,352,143974,6,0,P|20:300|32:244,1,110,2|8,1:0|1:0,0:0:0:0:
71,228,144491,2,0,P|131:175|125:96,1,165,2|8,1:0|1:0,0:0:0:0:
36,136,145353,1,2,1:0:0:0:
44,36,145698,1,8,1:0:0:0:
140,4,146043,2,0,P|200:24|276:32,1,110,0|8,0:0|1:0,0:0:0:0:
300,116,146732,6,0,P|360:96|436:88,1,110,2|8,1:0|1:0,0:0:0:0:
432,44,147250,2,0,P|488:92|460:212,1,165,2|8,1:0|1:0,0:0:0:0:
416,248,148112,2,0,L|436:360,1,110,2|8,1:0|1:0,0:0:0:0:
388,372,148629,2,0,B|312:384|304:328|224:344,1,165,2|8,1:0|1:0,0:0:0:0:
132,372,149491,6,0,P|108:316|124:252,1,110,2|8,1:0|1:0,0:0:0:0:
140,224,150008,2,0,L|328:192,1,165,2|8,1:0|1:0,0:0:0:0:
368,124,150870,1,2,0:2:0:0:
280,76,151215,2,0,P|212:44|180:12,2,110,2|2|2,0:2|0:2|0:2,0:0:0:0:
368,124,152250,6,0,L|360:292,2,165,2|2|6,0:0|0:0|0:2,0:0:0:0:
284,176,153629,2,0,L|119:183,2,165,2|2|6,0:0|0:0|0:2,0:0:0:0:
280,76,155008,2,0,P|352:108|444:100,2,165,2|2|6,0:0|0:0|0:2,0:0:0:0:
208,8,156388,5,2,0:0:0:0:
112,24,156732,1,8,0:0:0:0:
64,112,157077,2,0,L|80:232,1,110,2|8,0:0|0:0,0:0:0:0:
168,260,157767,6,0,P|216:164|176:92,2,165,2|2|6,0:0|0:0|0:2,0:0:0:0:
76,292,159146,2,0,L|52:128,2,165,2|2|6,0:0|0:0|0:2,0:0:0:0:
152,356,160526,2,0,B|236:368|228:308|312:320,2,165,2|2|6,0:0|0:0|0:2,0:0:0:0:
168,260,161905,5,2,2:0:0:0:
88,200,162250,1,2,2:0:0:0:
176,160,162594,1,0,2:0:0:0:
344,260,163284,6,0,P|368:204|352:140,1,110,6|10,0:0|0:0,0:0:0:0:
295,76,163974,2,0,P|344:52|398:60,1,110,2|10,0:0|0:0,0:0:0:0:
484,104,164663,1,2,0:0:0:0:
504,200,165008,1,10,0:0:0:0:
408,168,165353,2,0,L|272:192,1,110,2|10,0:0|0:0,0:0:0:0:
212,232,166043,6,0,L|103:212,1,110,6|10,0:0|0:0,0:0:0:0:
56,128,166732,2,0,P|120:100|148:56,1,110,2|10,0:0|0:0,0:0:0:0:
232,28,167422,1,2,0:0:0:0:
224,128,167767,1,10,0:0:0:0:
312,172,168112,2,0,P|340:228|328:288,1,110,2|10,0:0|0:0,0:0:0:0:
267,347,168801,6,0,P|317:371|371:365,1,110,6|10,0:0|0:0,0:0:0:0:
460,324,169491,2,0,P|468:261|472:204,1,110,2|10,0:0|0:0,0:0:0:0:
476,116,170181,1,2,0:0:0:0:
376,108,170526,1,10,0:0:0:0:
320,188,170870,2,0,L|210:197,1,110,2|10,0:0|0:0,0:0:0:0:
124,151,171560,6,0,P|111:204|131:254,1,110,6|10,0:0|0:0,0:0:0:0:
200,324,172250,2,0,L|309:314,1,110,2|10,0:0|0:0,0:0:0:0:
400,356,172939,1,2,0:0:0:0:
424,260,173284,1,10,0:0:0:0:
352,192,173629,1,2,2:0:0:0:
448,164,173974,1,2,2:0:0:0:
376,96,174319,6,0,P|296:112|256:104,1,110,6|8,0:0|0:0,0:0:0:0:
188,52,175008,1,2,0:0:0:0:
96,88,175353,1,8,0:0:0:0:
84,188,175698,2,0,P|138:184|191:199,1,110,2|8,0:0|0:0,0:0:0:0:
256,276,176388,1,2,0:0:0:0:
256,376,176732,1,8,0:0:0:0:
344,328,177077,5,2,0:0:0:0:
400,244,177422,2,0,L|392:168,1,55,8|0,0:0|0:0,0:0:0:0:
388,140,177767,2,0,L|256:120,1,110,2|8,0:0|0:0,0:0:0:0:
192,76,178457,2,0,L|175:184,1,110,2|8,0:0|0:0,0:0:0:0:
140,220,178974,1,0,0:0:0:0:
104,252,179146,2,0,P|64:204|68:148,1,110,2|8,0:0|0:0,0:0:0:0:
96,64,179836,5,6,0:0:0:0:
192,76,180181,2,0,P|280:64|324:52,1,110,8|2,0:0|0:0,0:0:0:0:
388,16,180870,2,0,P|422:23|468:28,1,55,8|0,0:0|0:0,0:0:0:0:
476,60,181215,2,0,P|484:116|452:164,1,110,2|8,0:0|0:0,0:0:0:0:
376,220,181905,1,2,0:0:0:0:
392,316,182250,1,8,0:0:0:0:
296,332,182594,6,0,L|272:184,1,110,2|8,0:0|0:0,0:0:0:0:
272,172,183112,1,0,0:0:0:0:
264,123,183284,2,0,P|210:128|163:100,1,110,2|8,0:0|0:0,0:0:0:0:
232,32,183974,1,0,0:0:0:0:
328,4,184319,2,0,P|381:0|428:27,1,110,8|2,0:0|0:0,0:0:0:0:
468,120,185008,2,0,L|476:200,1,55,2|8,0:0|0:0,0:0:0:0:
448,216,185353,6,0,L|300:232,1,110,6|8,0:0|0:0,0:0:0:0:
259,293,186043,2,0,L|248:184,1,110,2|8,0:0|0:0,0:0:0:0:
169,248,186732,2,0,L|60:260,1,110,2|8,0:0|0:0,0:0:0:0:
12,172,187422,1,2,0:0:0:0:
24,72,187767,1,8,0:0:0:0:
104,132,188112,5,2,0:0:0:0:
116,32,188457,2,0,L|188:24,1,55,8|0,0:0|0:0,0:0:0:0:
212,56,188801,2,0,P|264:36|324:52,1,110,2|8,0:0|0:0,0:0:0:0:
388,116,189491,2,0,L|376:240,1,110,2|8,0:0|0:0,0:0:0:0:
420,252,190008,1,0,0:0:0:0:
464,276,190181,2,0,L|474:166,1,110,2|8,0:0|0:0,0:0:0:0:
480,68,190870,5,2,0:0:0:0:
388,116,191215,2,0,P|336:136|280:128,1,110,8|2,0:0|0:0,0:0:0:0:
188,104,191905,2,0,L|120:112,1,55,8|0,0:0|0:0,0:0:0:0:
84,96,192250,2,0,P|68:153|80:220,1,110,2|8,0:0|0:0,0:0:0:0:
108,296,192939,1,2,0:0:0:0:
208,284,193284,1,8,0:0:0:0:
287,223,193629,6,0,P|308:274|299:328,2,110,2|8|2,0:0|0:0|0:0,0:0:0:0:
204,172,194663,2,0,L|216:100,1,55,8|0,0:0|0:0,0:0:0:0:
224,68,195008,2,0,L|360:56,1,110,0|8,0:0|0:0,0:0:0:0:
424,104,195698,1,2,0:0:0:0:
404,204,196043,1,8,0:0:0:0:
307,232,196388,6,0,P|358:293|439:300,2,165,8|2|8,0:0|0:0|0:0,0:0:0:0:
204,232,197767,2,0,P|153:293|73:295,2,165,8|2|8,0:0|0:0|0:0,0:0:0:0:
204,132,199146,6,0,L|40:96,2,165,8|2|8,0:0|0:0|0:0,0:0:0:0:
308,132,200526,2,0,L|472:96,2,165,8|2|0,0:0|0:0|3:0,0:0:0:0:
256,220,201905,5,6,0:0:0:0:
256,24,202594,1,6,0:0:0:0:
88,128,203284,2,0,L|100:252,1,110,6|0,0:0|0:0,0:0:0:0:
172,304,203974,1,0,0:0:0:0:
256,252,204319,1,2,0:2:0:0:
256,152,204663,6,0,B|320:152|304:128|368:128,1,110,6|8,0:0|0:0,0:0:0:0:
452,84,205353,1,2,0:0:0:0:
444,184,205698,2,0,L|436:276,1,55,8|0,0:0|0:0,0:0:0:0:
436,288,206043,2,0,L|316:276,1,110,2|8,0:0|0:0,0:0:0:0:
252,340,206732,2,0,P|212:304|152:300,1,110,2|8,0:0|0:0,0:0:0:0:
64,324,207422,6,0,P|54:272|48:192,1,110,2|8,0:0|0:0,0:0:0:0:
40,112,208112,1,2,0:0:0:0:
140,100,208457,2,0,P|172:152|196:168,1,55,8|0,0:0|0:0,0:0:0:0:
208,176,208801,2,0,P|264:172|308:132,1,110,2|8,0:0|0:0,0:0:0:0:
332,44,209491,1,2,0:0:0:0:
428,28,209836,1,8,0:0:0:0:
484,112,210181,6,0,L|508:248,1,110,2|8,0:0|0:0,0:0:0:0:
444,300,210870,1,2,0:0:0:0:
344,288,211215,2,0,L|280:280,1,55,8|0,0:0|0:0,0:0:0:0:
264,240,211560,2,0,L|154:253,1,110,2|8,0:0|0:0,0:0:0:0:
80,188,212250,1,0,0:0:0:0:
28,272,212594,1,8,0:0:0:0:
102,337,212939,5,6,0:0:0:0:
154,252,213284,2,0,P|179:205|172:151,1,110,8|2,0:0|0:0,0:0:0:0:
116,64,213974,2,0,P|140:51|167:47,1,55,8|0,0:0|0:0,0:0:0:0:
216,64,214319,2,0,P|292:68|336:44,1,110,2|8,0:0|0:0,0:0:0:0:
404,112,215008,2,0,P|396:204|396:256,1,110,2|8,0:0|0:0,0:0:0:0:
492,244,215698,6,0,P|500:152|500:100,1,110,2|8,0:0|0:0,0:0:0:0:
468,40,216388,1,2,0:0:0:0:
372,24,216732,2,0,L|292:12,1,55,8|0,0:0|0:0,0:0:0:0:
268,28,217077,2,0,P|244:80|264:140,1,110,2|8,0:0|0:0,0:0:0:0:
324,204,217767,2,0,P|335:256|312:305,1,110,2|8,0:0|0:0,0:0:0:0:
224,352,218457,6,0,L|204:228,1,110,2|8,0:0|0:0,0:0:0:0:
120,196,219146,1,2,0:0:0:0:
20,188,219491,2,0,P|20:144|28:124,1,55,8|0,0:0|0:0,0:0:0:0:
48,92,219836,2,0,P|112:88|152:56,1,110,2|8,0:0|0:0,0:0:0:0:
236,20,220526,1,2,0:0:0:0:
292,100,220870,1,8,0:0:0:0:
276,196,221215,6,0,L|416:220,1,110,2|8,0:0|0:0,0:0:0:0:
448,140,221905,1,2,0:0:0:0:
484,232,222250,2,0,L|492:288,1,55,8|0,0:0|0:0,0:0:0:0:
472,332,222594,2,0,B|404:328|420:352|352:348,1,110,12|8,0:0|0:0,0:0:0:0:
314,342,223112,2,0,P|266:270|290:174,1,165,8|8,0:0|0:0,0:0:0:0:
328,112,223974,5,6,0:0:0:0:
260,40,224319,1,10,0:0:0:0:
164,56,224663,1,2,0:0:0:0:
132,152,225008,2,0,L|64:144,1,55,10|0,0:0|0:0,0:0:0:0:
28,140,225353,2,0,P|21:204|12:264,1,110,2|10,0:0|0:0,0:0:0:0:
80,324,226043,2,0,P|128:304|208:320,1,110,2|10,0:0|0:0,0:0:0:0:
272,352,226732,5,2,0:0:0:0:
340,280,227077,1,10,0:0:0:0:
292,192,227422,1,2,0:0:0:0:
196,212,227767,2,0,P|186:181|180:140,1,55,10|0,0:0|0:0,0:0:0:0:
175,107,228112,2,0,P|229:100|273:67,1,110,2|10,0:0|0:0,0:0:0:0:
192,8,228801,2,0,P|138:15|94:48,1,110,2|10,0:0|0:0,0:0:0:0:
52,140,229491,5,2,0:0:0:0:
36,236,229836,1,10,0:0:0:0:
120,292,230181,1,2,0:0:0:0:
136,196,230526,2,0,L|212:184,1,55,10|0,0:0|0:0,0:0:0:0:
232,216,230870,2,0,L|364:196,1,110,2|10,0:0|0:0,0:0:0:0:
372,104,231560,2,0,L|504:84,1,110,2|10,0:0|0:0,0:0:0:0:
496,184,232250,5,2,0:0:0:0:
460,276,232594,1,10,0:0:0:0:
400,200,232939,1,2,0:0:0:0:
364,292,233284,2,0,P|320:284|288:264,1,55,10|0,0:0|0:0,0:0:0:0:
276,244,233629,2,0,P|208:260|172:300,1,110,2|10,0:0|0:0,0:0:0:0:
116,212,234319,2,0,P|48:196|12:156,1,110,2|10,0:0|0:0,0:0:0:0:
12,72,235008,5,6,0:0:0:0:
112,64,235353,1,10,0:0:0:0:
176,140,235698,1,2,0:0:0:0:
276,148,236043,2,0,L|376:152,1,55,10|0,0:0|0:0,0:0:0:0:
376,132,236388,2,0,P|384:212|396:268,1,110,2|10,0:0|0:0,0:0:0:0:
488,228,237077,2,0,P|480:148|468:92,1,110,2|10,0:0|0:0,0:0:0:0:
412,40,237767,5,2,0:0:0:0:
312,28,238112,1,10,0:0:0:0:
300,128,238457,1,2,0:0:0:0:
200,116,238801,2,0,P|116:132|104:132,1,55,10|0,0:0|0:0,0:0:0:0:
104,104,239146,2,0,P|36:120|16:160,1,110,2|10,0:0|0:0,0:0:0:0:
8,252,239836,2,0,P|84:264|120:272,1,110,2|10,0:0|0:0,0:0:0:0:
208,312,240526,5,2,0:0:0:0:
304,296,240870,1,10,0:0:0:0:
288,200,241215,1,2,0:0:0:0:
192,216,241560,2,0,P|160:160|160:144,1,55,10|0,0:0|0:0,0:0:0:0:
148,124,241905,2,0,P|192:92|260:96,1,110,2|10,0:0|0:0,0:0:0:0:
340,116,242594,2,0,P|394:114|437:82,1,110,2|10,0:0|0:0,0:0:0:0:
508,156,243284,5,2,0:0:0:0:
492,256,243629,2,0,L|432:288,1,55,8|8,0:0|0:0,0:0:0:0:
400,304,243974,1,2,0:0:0:0:
380,208,244319,2,0,L|320:240,1,55,8|8,0:0|0:0,0:0:0:0:
288,256,244663,6,0,P|192:240|188:180,1,165,2|2,0:0|0:0,0:0:0:0:
196,140,245353,2,0,B|303:157|280:56|403:78,1,220,4|0,0:0|2:0,0:0:0:0:
