osu file format v12

[General]
AudioFilename: ponzu.mp3
AudioLeadIn: 0
PreviewTime: 57809
Countdown: 0
SampleSet: Normal
StackLeniency: 0.7
Mode: 0
LetterboxInBreaks: 0
WidescreenStoryboard: 0

[Editor]
DistanceSpacing: 0.8
BeatDivisor: 4
GridSize: 4
TimelineZoom: 1.3

[Metadata]
Title:Kunoichi demo Koi ga Shitai
TitleUnicode:クノイチでも恋がしたい
Artist:yuikonnu & ayaponzu*
ArtistUnicode:ゆいこんぬ&あやぽんず*
Creator:alacat
Version:Insane
Source:
Tags:utaite litoluna iyasine Skystar Amamiya Yuko nico nico douga Vocaloid Hatsune Miku Kagamine Rin MikitoP Saine TomodachiboshuuP Suzumu
BeatmapID:290799
BeatmapSetID:111045

[Difficulty]
HPDrainRate:6
CircleSize:4
OverallDifficulty:8
ApproachRate:9
SliderMultiplier:1.8
SliderTickRate:1

[Events]
//Background and Video events
0,0,"kbg.jpg",0,0
Video,0,"vi.avi"
//Break Periods
2,78785,88364
2,98407,99391
2,146568,151282
2,152082,155774
2,188406,189714
2,193595,197822
//Storyboard Layer 0 (Background)
//Storyboard Layer 1 (Fail)
//Storyboard Layer 2 (Pass)
//Storyboard Layer 3 (Foreground)
//Storyboard Sound Samples
//Background Colour Transformations
3,100,0,0,0

[TimingPoints]
6586,324.324324324324,4,1,1,50,1,0
10315,-100,4,1,1,70,0,0
11775,-100,4,1,1,60,0,0
33180,-100,4,1,1,50,0,0
33667,-100,4,1,1,60,0,0
44207,-125,4,2,1,40,0,0
44856,324.324324324324,4,1,2,50,1,0
45991,-125,4,1,2,50,0,0
52558,-125,4,2,1,40,0,0
52639,-100,4,1,1,60,0,0
57504,-166.666666666667,4,1,1,40,0,0
57828,-83.3333333333333,4,1,1,70,0,1
78585,-100,4,2,1,70,0,0
88964,-100,4,2,1,60,0,0
90261,-125,4,2,1,50,0,0
94964,-125,4,1,1,40,0,0
95450,-125,4,1,1,50,0,0
99991,-125,4,2,1,50,0,0
100639,-100,4,1,1,60,0,0
110369,-125,4,1,1,60,0,0
111018,-125,4,2,1,60,0,0
111666,324.324324324324,4,1,1,50,1,0
112801,-125,4,1,1,50,0,0
119449,-125,4,1,1,60,0,0
123341,-125,4,2,1,60,0,0
124314,-100,4,1,1,60,0,0
124638,-83.3333333333333,4,1,1,70,0,1
145395,-100,4,2,1,60,0,0
157233,-100,4,1,1,60,0,0
186909,-100,4,1,1,50,0,0
187557,-100,4,1,1,60,0,0
188206,-100,4,1,1,70,0,0
190314,-100,4,1,1,60,0,0
192828,-100,4,2,3,60,0,0
193395,-100,4,1,1,70,0,0
198422,-100,4,1,1,60,0,0
203125,-125,4,1,1,60,0,0
203449,-100,4,1,1,60,0,0
203774,-100,4,1,1,60,0,1
203855,-100,4,1,1,60,0,0
204422,-100,4,1,1,60,0,1
204503,-100,4,1,1,60,0,0
205071,-100,4,1,1,60,0,1
205152,-100,4,1,1,60,0,0
206368,-83.3333333333333,4,1,1,70,0,1
228422,-83.3333333333333,4,2,1,50,0,1
229720,-83.3333333333333,4,1,1,70,0,1
231017,-100,4,1,1,80,0,0

[Colours]
Combo1 : 255,0,128
Combo2 : 0,255,255
Combo3 : 255,255,0

[HitObjects]
28,295,6585,5,6,0:0:0:0:
233,144,6910,1,2,0:0:0:0:
56,116,7234,1,2,0:0:0:0:
205,321,7558,1,2,0:0:0:0:
464,203,7883,5,2,0:0:0:0:
259,52,8207,1,2,0:0:0:0:
436,24,8531,1,2,0:0:0:0:
287,229,8856,1,2,0:0:0:0:
56,116,9180,5,6,0:0:0:0:
205,321,9504,1,2,0:0:0:0:
28,295,9829,1,2,0:0:0:0:
233,144,10153,1,2,0:0:0:0:
287,229,10315,6,0,B|312:243|312:243|336:235|336:235|392:275|456:239,1,180,12|8,0:0|0:0,0:0:0:0:
424,71,10802,2,0,P|404:111|396:155,1,90,8|8,0:0|0:0,0:0:0:0:
464,332,11126,1,0,0:0:0:0:
500,148,11288,1,0,0:0:0:0:
300,56,11450,1,0,0:0:0:0:
280,52,11531,1,0,0:0:0:0:
260,48,11613,1,0,0:0:0:0:
240,44,11694,1,0,0:0:0:0:
220,40,11775,6,0,P|180:76|156:152,1,135,6|0,0:0|0:0,0:0:0:0:
168,196,12099,2,0,P|172:248|160:288,1,90,8|0,0:0|0:0,0:0:0:0:
60,240,12423,1,2,0:0:0:0:
288,228,12585,1,0,0:0:0:0:
60,240,12748,1,8,0:0:0:0:
248,320,12910,6,0,B|304:340|352:308|352:308|392:324|396:376,1,180,0|0,0:0|0:0,0:0:0:0:
464,184,13396,2,0,P|480:229|481:270,1,90,8|0,0:0|0:0,0:0:0:0:
288,228,13721,1,2,0:0:0:0:
360,144,13883,1,0,0:0:0:0:
196,40,14045,2,0,P|244:42|282:57,1,90,8|0,0:0|0:0,0:0:0:0:
152,228,14369,6,0,P|129:185|124:144,1,90,6|0,0:0|0:0,0:0:0:0:
196,40,14694,1,8,0:0:0:0:
124,144,14856,1,0,0:0:0:0:
8,96,15018,2,0,P|11:47|27:10,1,90,2|0,0:0|0:0,0:0:0:0:
124,144,15342,1,8,0:0:0:0:
24,216,15504,1,0,0:0:0:0:
224,132,15667,5,2,0:0:0:0:
244,128,15991,1,2,0:0:0:0:
268,124,16315,1,2,0:0:0:0:
292,120,16640,2,0,L|280:212,1,90,2|12,0:0|0:0,0:0:0:0:
364,328,16964,6,0,L|380:192,1,135,2|0,0:0|0:0,0:0:0:0:
384,148,17288,2,0,L|472:172,1,90,8|0,0:0|0:0,0:0:0:0:
272,256,17613,2,0,L|185:232,1,90,2|0,0:0|0:0,0:0:0:0:
8,168,17937,1,8,0:0:0:0:
96,112,18099,6,0,B|104:188|104:188|92:216|92:216|104:288,1,180
200,340,18585,1,8,0:0:0:0:
16,264,18748,1,0,0:0:0:0:
116,372,18910,1,2,0:0:0:0:
8,168,19072,1,0,0:0:0:0:
200,340,19234,1,8,0:0:0:0:
96,112,19396,1,0,0:0:0:0:
220,244,19558,6,0,P|264:248|312:256,1,90,6|0,0:0|0:0,0:0:0:0:
424,288,19883,2,0,P|402:248|388:202,1,90,8|0,0:0|0:0,0:0:0:0:
360,84,20207,2,0,P|334:123|303:157,1,90,2|0,0:0|0:0,0:0:0:0:
120,252,20531,1,8,0:0:0:0:
208,116,20694,1,2,0:0:0:0:
352,300,20856,5,2,0:0:0:0:
376,296,21180,1,2,0:0:0:0:
400,292,21504,1,2,0:0:0:0:
424,288,21829,1,8,0:0:0:0:
256,192,22153,12,4,23450,0:0:0:0:
276,288,23775,5,8,0:0:0:0:
188,312,23937,1,0,0:0:0:0:
112,264,24099,2,0,P|68:252|24:256,1,90
164,344,24423,1,8,0:0:0:0:
256,256,24585,2,0,B|284:216|284:216|244:152|292:92,1,180
448,132,25072,2,0,P|405:152|361:156,1,90,8|0,0:0|0:0,0:0:0:0:
176,192,25396,1,0,0:0:0:0:
76,152,25558,1,0,0:0:0:0:
76,152,25640,1,0,0:0:0:0:
76,152,25721,2,0,L|60:63,1,90,8|0,0:0|0:0,0:0:0:0:
16,240,26045,5,0,0:0:0:0:
216,328,26207,1,0,0:0:0:0:
316,228,26369,1,8,0:0:0:0:
176,192,26531,1,0,0:0:0:0:
316,320,26694,1,0,0:0:0:0:
480,272,26856,1,0,0:0:0:0:
316,320,27018,1,8,0:0:0:0:
480,272,27180,1,0,0:0:0:0:
316,228,27342,6,0,L|228:204,1,90
176,56,27667,2,0,P|171:97|151:141,1,90,8|0,0:0|0:0,0:0:0:0:
52,176,27991,1,0,0:0:0:0:
176,56,28153,1,0,0:0:0:0:
140,240,28315,1,8,0:0:0:0:
284,120,28477,1,4,0:0:0:0:
384,232,28640,6,0,P|316:228|268:276,1,135
268,348,28964,2,0,P|312:336|340:304,1,90,8|0,0:0|0:0,0:0:0:0:
208,132,29288,2,0,P|166:140|133:172,1,90
128,356,29613,1,8,0:0:0:0:
192,268,29775,2,0,P|104:244|36:296,1,180
192,268,30261,2,0,L|204:176,1,90,8|0,0:0|0:0,0:0:0:0:
224,28,30585,1,0,0:0:0:0:
168,96,30748,1,0,0:0:0:0:
168,96,30829,1,0,0:0:0:0:
168,96,30910,2,0,L|76:108,1,90,8|0,0:0|0:0,0:0:0:0:
288,148,31234,6,0,B|364:140|364:140|392:152|392:152|464:144,1,180,0|8,0:0|0:0,0:0:0:0:
200,188,31721,1,0,0:0:0:0:
288,148,31883,1,0,0:0:0:0:
172,220,32045,2,0,L|80:208,1,90,0|8,0:0|0:0,0:0:0:0:
168,336,32369,1,0,0:0:0:0:
279,371,32531,2,0,P|299:307|280:244,1,135
280,244,32856,1,8,0:0:0:0:
156,152,33018,1,0,0:0:0:0:
344,48,33180,5,0,0:0:0:0:
168,336,33504,1,8,0:0:0:0:
56,364,33667,5,8,0:0:0:0:
56,364,33748,1,0,0:0:0:0:
56,364,33829,2,0,P|28:280|48:192,1,180,4|8,0:0|0:0,0:0:0:0:
224,60,34315,1,0,0:0:0:0:
224,60,34477,2,0,P|252:144|232:232,1,180,0|8,0:0|0:0,0:0:0:0:
132,272,34964,1,0,0:0:0:0:
48,192,35126,1,0,0:0:0:0:
232,232,35288,1,0,0:0:0:0:
312,304,35450,2,0,L|448:288,1,135,8|0,0:0|0:0,0:0:0:0:
446,288,35775,1,0,0:0:0:0:
377,132,35937,1,0,0:0:0:0:
377,132,36018,1,0,0:0:0:0:
377,132,36099,2,0,L|288:144,1,90,8|0,0:0|0:0,0:0:0:0:
112,228,36423,6,0,P|92:184|88:140,1,90
172,80,36748,2,0,P|192:124|196:168,1,90,8|0,0:0|0:0,0:0:0:0:
92,248,37072,2,0,P|72:204|68:160,1,90
192,60,37396,2,0,P|212:104|216:148,1,90,8|0,0:0|0:0,0:0:0:0:
160,320,37721,1,0,0:0:0:0:
252,348,37883,2,0,P|296:336|340:332,1,90,0|8,0:0|0:0,0:0:0:0:
384,164,38207,1,0,0:0:0:0:
384,164,38288,1,0,0:0:0:0:
384,164,38369,2,0,L|400:256,1,90
236,248,38694,1,8,0:0:0:0:
320,88,38856,1,4,0:0:0:0:
496,224,39018,6,0,L|472:92,1,135
459,59,39342,2,0,P|416:40|372:36,1,90,8|0,0:0|0:0,0:0:0:0:
164,96,39667,2,0,P|232:96|296:116,1,135
320,152,39991,1,8,0:0:0:0:
128,244,40153,2,0,B|120:188|120:188|60:160|60:88,1,180
228,208,40640,2,0,L|240:300,1,90,8|0,0:0|0:0,0:0:0:0:
168,376,40964,1,0,0:0:0:0:
228,208,41126,1,0,0:0:0:0:
228,208,41207,1,0,0:0:0:0:
228,208,41288,1,8,0:0:0:0:
40,336,41450,1,0,0:0:0:0:
0,184,41613,6,0,B|24:144|24:144|88:104|152:132,1,180,0|8,0:0|0:0,0:0:0:0:
344,192,42099,2,0,P|356:144|372:104,1,90
248,328,42423,2,0,P|236:280|220:240,1,90,0|8,0:0|0:0,0:0:0:0:
128,72,42748,2,0,P|108:164|72:244,1,180,4|0,0:0|0:0,0:0:0:0:
116,48,43234,1,8,0:0:0:0:
0,184,43396,1,0,0:0:0:0:
136,336,43558,1,0,0:0:0:0:
136,336,43721,1,0,0:0:0:0:
256,168,43883,1,8,0:0:0:0:
372,336,44207,6,0,P|372:320|368:296,2,36,2|0|0,0:0|0:0|0:0,0:0:0:0:
256,144,44531,1,2,0:0:0:0:
68,272,44856,5,4,0:0:0:0:
80,236,45180,1,0,0:0:0:0:
92,200,45504,1,0,0:0:0:0:
104,164,45828,1,2,0:0:0:0:
180,100,45991,5,2,0:0:0:0:
180,100,46072,1,0,0:0:0:0:
180,100,46153,2,0,L|252:116,1,72,0|2,0:0|0:0,0:0:0:0:
336,64,46477,2,0,L|408:80,1,72,0|2,0:0|0:0,0:0:0:0:
488,140,46801,1,2,0:0:0:0:
504,176,47126,2,0,L|433:160,1,72,2|0,0:0|0:0,0:0:0:0:
344,204,47450,5,0,0:0:0:0:
332,240,47774,1,2,0:0:0:0:
320,276,48099,1,0,0:0:0:0:
308,312,48423,1,2,0:0:0:0:
212,348,48585,5,2,0:0:0:0:
212,348,48666,1,0,0:0:0:0:
212,348,48747,1,0,0:0:0:0:
120,304,48910,1,0,0:0:0:0:
116,204,49072,1,2,0:0:0:0:
204,252,49234,1,0,0:0:0:0:
36,348,49396,1,2,0:0:0:0:
36,348,49720,1,2,0:0:0:0:
320,176,50045,5,4,0:0:0:0:
284,164,50369,1,2,0:0:0:0:
248,152,50693,1,0,0:0:0:0:
212,140,51018,1,2,0:0:0:0:
112,160,51180,5,2,0:0:0:0:
112,160,51261,1,0,0:0:0:0:
112,160,51342,2,0,L|104:88,1,72,0|2,0:0|0:0,0:0:0:0:
24,192,51666,2,0,L|32:264,1,72,0|2,0:0|0:0,0:0:0:0:
8,108,51991,1,2,0:0:0:0:
320,272,52315,2,0,B|268:288|212:268,1,108,0|0,0:0|2:2,0:0:0:0:
188,244,52639,5,4,0:0:0:0:
308,152,53126,1,0,0:0:0:0:
344,156,53288,1,4,0:0:0:0:
152,80,53774,1,0,0:0:0:0:
112,100,53937,2,0,L|20:92,1,90,8|2,0:0|0:0,0:0:0:0:
188,244,54261,1,8,0:0:0:0:
224,240,54423,1,2,0:0:0:0:
344,156,54585,2,0,L|252:148,1,90,8|2,0:0|0:0,0:0:0:0:
420,300,54910,1,8,0:0:0:0:
456,296,55072,1,2,0:0:0:0:
448,192,55234,5,12,0:0:0:0:
340,152,55396,1,8,0:0:0:0:
312,264,55558,1,2,0:0:0:0:
444,188,55720,1,8,0:0:0:0:
424,80,55883,1,2,0:0:0:0:
248,152,56045,1,8,0:0:0:0:
420,76,56207,1,2,0:0:0:0:
220,60,56369,1,8,0:0:0:0:
416,72,56531,5,6,0:0:0:0:
412,68,56855,2,0,L|324:40,1,90,2|8,0:0|0:0,0:0:0:0:
116,72,57180,1,2,0:0:0:0:
188,308,57504,6,0,L|180:228,1,80.9999975280763,8|0,0:0|0:0,0:0:0:0:
160,188,57828,6,0,P|228:160|312:188,1,161.999995056153,6|0,0:0|0:0,0:0:0:0:
348,256,58153,1,8,0:0:0:0:
224,352,58315,1,0,0:0:0:0:
92,272,58477,2,0,P|128:212|120:120,1,161.999995056153,2|0,0:0|0:0,0:0:0:0:
96,76,58801,2,0,P|156:88|204:80,1,107.999996704102,8|0,0:0|0:0,0:0:0:0:
288,44,59126,5,2,0:0:0:0:
96,76,59288,1,0,0:0:0:0:
360,108,59450,1,8,0:0:0:0:
160,188,59612,1,0,0:0:0:0:
444,168,59774,2,0,P|460:116|452:64,1,107.999996704102,2|0,0:0|0:0,0:0:0:0:
348,256,60099,2,0,P|385:295|434:314,1,107.999996704102,8|0,0:0|0:0,0:0:0:0:
268,176,60423,6,0,L|160:188,1,107.999996704102,6|0,0:0|0:0,0:0:0:0:
360,108,60747,1,8,0:0:0:0:
380,220,60910,1,0,0:0:0:0:
204,88,61072,2,0,L|96:100,1,107.999996704102,2|0,0:0|0:0,0:0:0:0:
288,44,61396,1,8,0:0:0:0:
232,220,61558,1,0,0:0:0:0:
360,368,61720,6,0,P|396:308|380:220,1,161.999995056153,2|0,0:0|0:0,0:0:0:0:
315,93,62045,2,0,P|304:140|308:200,1,107.999996704102,8|0,0:0|0:0,0:0:0:0:
396,296,62369,1,2,0:0:0:0:
256,328,62531,1,0,0:0:0:0:
232,220,62693,1,8,0:0:0:0:
112,300,62855,1,4,0:0:0:0:
148,144,63018,6,0,B|136:196|136:196|192:232|188:292,1,161.999995056153,6|0,0:0|0:0,0:0:0:0:
168,356,63342,1,8,0:0:0:0:
28,224,63504,1,0,0:0:0:0:
260,60,63666,2,0,L|232:220,1,161.999995056153,2|0,0:0|0:0,0:0:0:0:
224,276,63991,2,0,L|328:248,1,107.999996704102,8|0,0:0|0:0,0:0:0:0:
488,208,64315,5,2,0:0:0:0:
336,144,64477,1,0,0:0:0:0:
424,288,64639,1,8,0:0:0:0:
432,116,64801,1,0,0:0:0:0:
328,248,64964,2,0,B|308:300|308:300|272:280|272:280|220:320|156:292,1,215.999993408203,2|8,0:0|0:0,0:0:0:0:
88,176,65450,1,0,0:0:0:0:
184,208,65612,6,0,P|144:268|56:288,1,161.999995056153,6|0,0:0|0:0,0:0:0:0:
24,248,65937,2,0,L|40:356,1,107.999996704102,8|0,0:0|0:0,0:0:0:0:
184,208,66261,2,0,L|168:101,1,107.999996704102,2|0,0:0|0:0,0:0:0:0:
328,248,66585,2,0,L|340:320,2,71.9999978027344,8|0|0,0:0|0:0|0:0,0:0:0:0:
276,152,66910,5,6,0:0:0:0:
232,304,67072,1,2,0:0:0:0:
328,248,67234,1,8,0:0:0:0:
184,208,67396,1,2,0:0:0:0:
416,300,67558,1,8,0:0:0:0:
500,224,67720,5,8,0:0:0:0:
504,252,67801,1,8,0:0:0:0:
400,168,67964,1,8,0:0:0:0:
396,140,68045,1,8,0:0:0:0:
392,112,68126,1,8,0:0:0:0:
388,84,68207,6,0,L|360:244,1,161.999995056153,6|0,0:0|0:0,0:0:0:0:
328,248,68531,2,0,L|344:356,1,107.999996704102,8|0,0:0|0:0,0:0:0:0:
124,312,68855,2,0,L|232:304,1,107.999996704102,2|0,0:0|0:0,0:0:0:0:
231,304,69099,1,0,0:0:0:0:
231,304,69180,1,8,0:0:0:0:
208,192,69342,1,0,0:0:0:0:
296,164,69504,5,2,0:0:0:0:
231,304,69666,1,0,0:0:0:0:
224,108,69828,1,8,0:0:0:0:
328,248,69991,1,0,0:0:0:0:
128,232,70153,2,0,P|120:176|128:124,1,107.999996704102,2|0,0:0|0:0,0:0:0:0:
324,72,70477,2,0,P|332:128|324:180,1,107.999996704102,8|0,0:0|0:0,0:0:0:0:
156,40,70801,6,0,P|76:40|12:88,1,161.999995056153,6|0,0:0|0:0,0:0:0:0:
40,160,71126,2,0,P|48:216|36:268,1,107.999996704102,8|0,0:0|0:0,0:0:0:0:
232,304,71450,2,0,P|187:338|136:354,1,107.999996704102,2|0,0:0|0:0,0:0:0:0:
168,216,71774,1,8,0:0:0:0:
328,248,71937,1,0,0:0:0:0:
128,232,72099,6,0,P|120:144|156:84,1,161.999995056153,2|0,0:0|0:0,0:0:0:0:
340,56,72423,2,0,P|256:88|216:144,1,161.999995056153,8|0,0:0|0:0,0:0:0:0:
208,236,72747,1,2,0:0:0:0:
292,344,72910,1,0,0:0:0:0:
360,264,73072,2,0,L|468:248,1,107.999996704102,4|8,0:0|0:0,0:0:0:0:
168,304,73396,6,0,P|104:276|88:192,1,161.999995056153,6|0,0:0|0:0,0:0:0:0:
136,132,73720,1,8,0:0:0:0:
216,364,73883,1,0,0:0:0:0:
208,236,74045,2,0,P|268:188|352:184,1,161.999995056153,2|0,0:0|0:0,0:0:0:0:
428,216,74369,1,8,0:0:0:0:
168,304,74531,1,0,0:0:0:0:
240,96,74693,5,2,0:0:0:0:
284,264,74855,1,0,0:0:0:0:
136,132,75018,1,8,0:0:0:0:
292,344,75180,1,0,0:0:0:0:
112,352,75342,2,0,P|56:352|12:328,1,107.999996704102,2|0,0:0|0:0,0:0:0:0:
16,196,75666,5,8,0:0:0:0:
184,376,75828,1,0,0:0:0:0:
248,172,75991,1,2,0:0:0:0:
248,172,76315,5,2,0:0:0:0:
468,140,76477,1,8,0:0:0:0:
304,352,76639,1,2,0:0:0:0:
304,352,76801,5,8,0:0:0:0:
304,352,76883,1,8,0:0:0:0:
304,352,76964,1,2,0:0:0:0:
148,240,77126,1,8,3:0:0:0:
376,204,77288,5,4,0:0:0:0:
100,164,77612,1,4,0:0:0:0:
420,308,77937,2,0,P|484:228|480:172,1,161.999995056153,12|0,0:0|0:0,0:0:0:0:
416,112,78261,2,0,B|372:116|372:116|356:124|356:124|308:128,1,107.999996704102,8|8,0:0|0:0,0:0:0:0:
100,164,78585,5,4,0:0:0:0:
256,192,88964,12,2,90261,0:0:0:0:
131,270,90585,6,0,P|131:306|127:342,1,72,2|0,0:0|0:0,0:0:0:0:
44,228,90910,2,0,P|96:180|168:180,1,144,0|2,0:0|0:0,0:0:0:0:
144,44,91396,2,0,P|212:62|250:123,1,144
256,284,91883,2,0,P|252:252|256:212,1,72,2|0,0:0|0:0,0:0:0:0:
336,100,92207,2,0,P|340:140|336:172,2,72,0|0|4,0:0|0:0|0:0,0:0:0:0:
336,100,92855,5,0,0:0:0:0:
256,64,93018,1,0,0:0:0:0:
200,132,93180,1,2,0:0:0:0:
248,204,93342,1,0,0:0:0:0:
168,108,93504,2,0,L|96:100,1,72
332,188,93828,2,0,L|404:196,1,72,2|0,0:0|0:0,0:0:0:0:
468,256,94153,5,0,0:0:0:0:
432,336,94315,1,0,0:0:0:0:
296,220,94477,2,0,L|368:228,1,72,2|0,0:0|0:0,0:0:0:0:
220,280,94801,1,0,0:0:0:0:
108,136,94964,1,0,0:0:0:0:
108,136,95045,1,0,0:0:0:0:
108,136,95126,2,0,L|100:64,1,72,8|0,0:0|0:0,0:0:0:0:
180,24,95450,5,2,0:0:0:0:
256,72,95612,1,0,0:0:0:0:
224,168,95774,2,0,P|196:192|160:204,1,72,2|0,0:0|0:0,0:0:0:0:
200,72,96099,1,2,0:0:0:0:
300,88,96261,1,0,0:0:0:0:
324,188,96423,2,0,P|312:222|287:251,1,72,2|0,0:0|0:0,0:0:0:0:
192,304,96747,6,0,L|200:376,1,72,2|0,0:0|0:0,0:0:0:0:
84,216,97072,2,0,L|76:288,1,72,2|0,0:0|0:0,0:0:0:0:
204,192,97396,2,0,B|196:128|196:128|208:136|208:136|200:72,1,144,2|2,0:0|0:0,0:0:0:0:
200,72,98045,1,8,0:0:0:0:
200,72,98126,1,8,0:0:0:0:
200,72,98207,1,2,0:0:0:0:
312,312,99991,5,2,0:0:0:0:
312,312,100315,1,2,0:0:0:0:
497,275,100639,6,0,L|408:268,1,90,4|0,0:0|0:0,0:0:0:0:
320,204,100964,1,8,0:0:0:0:
224,248,101126,1,0,0:0:0:0:
84,189,101288,2,0,P|128:252|224:248,1,180,0|8,0:0|0:0,0:0:0:0:
348,264,101774,1,0,0:0:0:0:
348,264,101855,1,0,0:0:0:0:
348,264,101937,2,0,P|368:224|380:180,1,90
340,80,102261,1,8,0:0:0:0:
336,76,102585,2,0,L|248:92,1,90
128,60,102910,2,0,B|100:76|100:76|108:92|108:92|72:148|88:216,1,180,8|0,0:0|0:0,0:0:0:0:
192,332,103396,5,0,0:0:0:0:
192,332,103558,2,0,P|184:292|192:244,1,90,8|0,0:0|0:0,0:0:0:0:
260,184,103883,1,0,0:0:0:0:
348,204,104045,1,0,0:0:0:0:
376,288,104207,1,8,0:0:0:0:
260,184,104369,1,0,0:0:0:0:
244,168,104450,1,0,0:0:0:0:
232,152,104531,2,0,P|216:108|220:64,1,90
308,96,104855,1,8,0:0:0:0:
140,200,105018,2,0,P|112:120|124:28,1,180
64,112,105504,2,0,L|44:200,1,90,12|0,0:0|0:0,0:0:0:0:
88,288,105828,6,0,P|180:312|248:268,1,180,0|8,0:0|0:0,0:0:0:0:
264,160,106315,1,0,0:0:0:0:
140,200,106477,1,0,0:0:0:0:
232,92,106639,1,0,0:0:0:0:
108,136,106801,1,8,0:0:0:0:
300,224,106964,1,0,0:0:0:0:
196,328,107126,6,0,L|104:316,1,90
300,224,107450,2,0,L|316:312,1,90,8|0,0:0|0:0,0:0:0:0:
188,152,107774,1,0,0:0:0:0:
300,224,107937,1,0,0:0:0:0:
300,224,108018,1,0,0:0:0:0:
300,224,108099,1,8,0:0:0:0:
304,104,108261,1,0,0:0:0:0:
208,244,108423,6,0,P|268:312|352:304,1,180,0|8,0:0|0:0,0:0:0:0:
496,256,108910,1,0,0:0:0:0:
412,228,109072,2,0,P|400:184|400:136,2,90,0|0|8,0:0|0:0|0:0,0:0:0:0:
480,84,109558,2,0,L|304:124,1,180,4|0,0:0|0:0,0:0:0:0:
136,168,110045,1,8,0:0:0:0:
204,52,110207,1,0,0:0:0:0:
204,52,110288,1,0,0:0:0:0:
204,52,110369,2,0,L|212:124,1,72
260,196,110693,2,0,L|268:268,1,72
192,336,111018,6,0,B|149:345|122:312|122:312|96:276|57:262|17:284|36:319|68:316,1,216
184,244,111666,5,4,0:0:0:0:
172,208,111990,1,2,0:0:0:0:
160,172,112314,1,8,0:0:0:0:
148,136,112638,1,2,0:0:0:0:
52,104,112801,5,0,0:0:0:0:
52,104,112882,1,0,0:0:0:0:
52,104,112963,1,2,0:0:0:0:
72,204,113125,1,0,0:0:0:0:
240,100,113287,2,0,L|312:116,1,72,2|0,0:0|0:0,0:0:0:0:
136,104,113611,1,8,0:0:0:0:
276,76,113936,2,0,L|348:92,1,72,2|0,0:0|0:0,0:0:0:0:
416,164,114260,5,4,0:0:0:0:
404,200,114584,1,2,0:0:0:0:
392,236,114909,1,8,0:0:0:0:
380,272,115233,1,2,0:0:0:0:
288,308,115395,5,0,0:0:0:0:
288,308,115476,1,0,0:0:0:0:
288,308,115557,2,0,L|216:300,1,72,2|0,0:0|0:0,0:0:0:0:
108,268,115882,2,0,L|36:276,1,72,2|0,0:0|0:0,0:0:0:0:
132,244,116206,1,8,0:0:0:0:
268,104,116530,2,0,P|280:152|264:208,1,108,2|0,0:0|2:2,0:0:0:0:
232,232,116855,6,0,L|160:220,1,72
32,164,117179,2,0,L|104:148,1,72,2|0,0:0|0:0,0:0:0:0:
184,128,117503,1,2,0:0:0:0:
268,104,117666,1,0,0:0:0:0:
352,84,117828,1,8,0:0:0:0:
470,191,117990,6,0,L|328:168,1,144,2|0,0:0|0:0,0:0:0:0:
212,244,118476,2,0,L|284:256,1,72,2|0,0:0|0:0,0:0:0:0:
492,180,118801,1,8,0:0:0:0:
352,84,119125,1,0,0:0:0:0:
348,104,119206,1,0,0:0:0:0:
344,124,119287,1,0,0:0:0:0:
340,144,119368,1,0,0:0:0:0:
336,164,119449,5,4,0:0:0:0:
216,264,119936,1,0,0:0:0:0:
220,284,120098,1,4,0:0:0:0:
100,196,120584,1,0,0:0:0:0:
104,176,120747,2,0,L|116:104,1,72,8|2,0:0|0:0,0:0:0:0:
260,36,121071,2,0,L|248:108,1,72,8|2,0:0|0:0,0:0:0:0:
276,304,121395,2,0,L|288:232,1,72,8|2,0:0|0:0,0:0:0:0:
424,156,121720,2,0,L|412:228,1,72,8|2,0:0|0:0,0:0:0:0:
368,304,122044,5,6,0:0:0:0:
284,328,122206,1,8,0:0:0:0:
200,312,122368,1,2,0:0:0:0:
144,248,122530,1,8,0:0:0:0:
264,156,122693,1,10,0:0:0:0:
256,244,122855,1,8,0:0:0:0:
200,312,123017,1,10,0:0:0:0:
116,332,123179,1,8,0:0:0:0:
36,296,123341,5,4,0:0:0:0:
200,192,123665,1,2,0:0:0:0:
28,104,123990,1,0,0:0:0:0:
144,248,124314,2,0,L|172:284,1,45,0|0,0:0|0:0,0:0:0:0:
272,264,124476,2,0,L|300:300,1,45,0|0,0:0|0:0,0:0:0:0:
372,356,124638,6,0,P|452:360|508:304,1,161.999995056153,6|0,0:0|0:0,0:0:0:0:
472,236,124963,2,0,P|460:184|472:132,1,107.999996704102,8|0,0:0|0:0,0:0:0:0:
336,56,125287,2,0,P|356:144|336:212,1,161.999995056153,2|0,0:0|0:0,0:0:0:0:
272,264,125611,1,8,0:0:0:0:
124,104,125774,1,0,0:0:0:0:
224,84,125936,6,0,P|220:136|192:184,1,107.999996704102,2|0,0:0|0:0,0:0:0:0:
36,156,126260,1,8,0:0:0:0:
192,184,126422,1,0,0:0:0:0:
36,156,126584,2,0,P|0:228|12:308,1,161.999995056153,2|0,0:0|0:0,0:0:0:0:
60,368,126909,2,0,P|112:360|168:360,1,107.999996704102,8|0,0:0|0:0,0:0:0:0:
400,344,127233,6,0,P|296:316|244:324,1,161.999995056153,6|0,0:0|0:0,0:0:0:0:
176,284,127557,2,0,P|164:232|172:176,1,107.999996704102,8|0,0:0|0:0,0:0:0:0:
312,40,127882,1,2,0:0:0:0:
400,120,128044,2,0,B|384:172|384:172|324:120|232:124,1,215.999993408203,0|0,0:0|0:0,0:0:0:0:
48,176,128530,5,2,0:0:0:0:
152,60,128693,1,0,0:0:0:0:
76,192,128855,1,8,0:0:0:0:
120,48,129017,1,0,0:0:0:0:
108,200,129179,1,2,0:0:0:0:
88,48,129341,1,0,0:0:0:0:
140,200,129503,1,8,0:0:0:0:
272,108,129665,1,4,0:0:0:0:
344,180,129828,6,0,P|408:168|464:92,1,161.999995056153,6|0,0:0|0:0,0:0:0:0:
420,32,130152,1,8,0:0:0:0:
252,200,130314,1,0,0:0:0:0:
348,348,130476,2,0,P|398:307|412:213,1,161.999995056153,2|0,0:0|0:0,0:0:0:0:
344,180,130801,1,8,0:0:0:0:
132,328,130963,1,0,0:0:0:0:
232,304,131125,5,2,0:0:0:0:
76,161,131287,1,0,0:0:0:0:
132,328,131449,1,8,0:0:0:0:
176,120,131611,1,0,0:0:0:0:
324,268,131774,2,0,P|420:296|488:216,1,215.999993408203,2|8,0:0|0:0,0:0:0:0:
376,140,132260,1,0,0:0:0:0:
132,328,132422,6,0,P|52:256|76:160,1,215.999993408203,2|8,0:0|0:0,0:0:0:0:
184,228,132909,1,0,0:0:0:0:
12,100,133071,2,0,P|68:50|151:35,1,161.999995056153,2|0,0:0|0:0,0:0:0:0:
216,80,133395,2,0,L|288:64,2,71.9999978027344,8|0|0,0:0|0:0|0:0,0:0:0:0:
160,140,133720,5,6,0:0:0:0:
213,314,133882,1,8,0:0:0:0:
98,253,134044,1,8,0:0:0:0:
273,200,134206,1,2,0:0:0:0:
124,336,134368,1,8,0:0:0:0:
160,140,134530,1,8,0:0:0:0:
160,140,134611,1,8,0:0:0:0:
160,140,134693,1,8,0:0:0:0:
300,288,134855,1,2,0:0:0:0:
356,148,135017,6,0,P|435:145|485:205,1,161.999995056153,6|0,0:0|0:0,0:0:0:0:
488,280,135341,2,0,P|468:328|420:356,1,107.999996704102,8|0,0:0|0:0,0:0:0:0:
300,288,135665,1,2,0:0:0:0:
296,292,135747,2,0,L|188:304,1,107.999996704102,8|0,0:0|0:0,0:0:0:0:
184,308,135990,2,0,L|76:296,1,107.999996704102,8|0,0:0|0:0,0:0:0:0:
16,208,136314,6,0,B|8:156|8:156|4:120|24:104,1,107.999996704102,2|0,0:0|0:0,0:0:0:0:
172,72,136638,2,0,P|127:101|104:149,1,107.999996704102,8|0,0:0|0:0,0:0:0:0:
164,220,136963,1,2,0:0:0:0:
308,156,137125,1,0,0:0:0:0:
172,72,137287,1,8,0:0:0:0:
256,228,137449,1,2,0:0:0:0:
392,128,137611,6,0,L|500:144,1,107.999996704102,6|0,0:0|0:0,0:0:0:0:
304,48,137936,1,8,0:0:0:0:
216,148,138098,1,0,0:0:0:0:
376,88,138260,2,0,L|484:104,1,107.999996704102,2|0,0:0|0:0,0:0:0:0:
192,168,138584,2,0,L|85:152,1,107.999996704102,8|0,0:0|0:0,0:0:0:0:
308,156,138909,6,0,P|320:232|276:304,1,161.999995056153,2|0,0:0|0:0,0:0:0:0:
208,340,139233,2,0,L|101:324,1,107.999996704102,8|0,0:0|0:0,0:0:0:0:
16,212,139557,2,0,B|132:228|132:228|176:212,1,161.999995056153,2|0,0:0|0:0,0:0:0:0:
216,148,139882,2,0,L|204:40,1,107.999996704102,12|0,0:0|0:0,0:0:0:0:
92,152,140206,6,0,L|104:260,1,107.999996704102,6|0,0:0|0:0,0:0:0:0:
132,328,140449,1,0,0:0:0:0:
132,328,140530,2,0,P|184:344|240:340,1,107.999996704102,8|0,0:0|0:0,0:0:0:0:
324,268,140855,2,0,P|376:264|428:280,1,107.999996704102,2|0,0:0|0:0,0:0:0:0:
492,324,141098,1,0,0:0:0:0:
492,324,141179,2,0,L|480:216,1,107.999996704102,8|0,0:0|0:0,0:0:0:0:
464,64,141503,5,2,0:0:0:0:
316,188,141665,1,0,0:0:0:0:
338,12,141828,1,8,0:0:0:0:
216,148,141990,1,0,0:0:0:0:
144,40,142152,2,0,B|76:20|20:56|20:56|24:92,1,161.999995056153,2|0,0:0|0:0,0:0:0:0:
52,160,142476,5,8,0:0:0:0:
80,344,142638,1,0,0:0:0:0:
232,252,142801,1,6,0:0:0:0:
232,252,143125,5,2,0:0:0:0:
300,92,143287,1,8,0:0:0:0:
408,224,143449,1,2,0:0:0:0:
344,344,143611,1,0,0:0:0:0:
344,344,143693,1,0,0:0:0:0:
344,344,143774,2,0,L|320:236,1,107.999996704102,8|0,0:0|0:0,0:0:0:0:
216,148,144098,5,4,0:0:0:0:
436,312,144422,1,12,0:0:0:0:
440,72,144747,1,2,0:0:0:0:
444,76,144828,2,0,L|456:184,1,107.999996704102,8|0,0:0|0:0,0:0:0:0:
460,188,145071,2,0,L|448:296,1,107.999996704102,8|0,0:0|0:0,0:0:0:0:
344,344,145395,5,0,0:0:0:0:
124,252,145720,1,2,0:0:0:0:
304,100,146044,2,0,B|292:116|292:116|304:136|304:136|256:192|276:264,1,180,0|4,0:0|0:0,0:0:0:0:
256,192,151882,5,4,0:0:0:0:
256,192,157071,5,4,0:0:0:0:
40,288,157395,1,8,0:0:0:0:
144,96,157557,1,8,0:0:0:0:
164,124,157638,1,0,0:0:0:0:
172,160,157720,1,2,0:0:0:0:
172,196,157801,1,0,0:0:0:0:
164,232,157882,1,2,0:0:0:0:
40,128,158044,1,8,0:0:0:0:
152,320,158206,5,0,0:0:0:0:
156,324,158287,1,0,0:0:0:0:
160,328,158368,2,0,L|252:320,1,90,2|0,0:0|0:0,0:0:0:0:
324,352,158611,1,0,0:0:0:0:
324,352,158693,2,0,P|336:336|344:312,1,45,8|0,0:0|0:0,0:0:0:0:
312,216,158855,2,0,P|300:232|292:256,1,45,8|0,0:0|0:0,0:0:0:0:
420,316,159017,2,0,P|432:272|424:228,1,90,2|2,0:0|0:0,0:0:0:0:
320,180,159341,1,8,0:0:0:0:
328,144,159422,1,0,0:0:0:0:
336,108,159503,1,0,0:0:0:0:
344,72,159584,1,0,0:0:0:0:
352,36,159665,6,0,B|304:48|304:48|264:48,1,90,2|0,0:0|0:0,0:0:0:0:
72,168,159990,1,8,0:0:0:0:
108,160,160071,1,0,0:0:0:0:
144,152,160152,1,8,0:0:0:0:
180,144,160233,1,0,0:0:0:0:
216,136,160314,5,2,0:0:0:0:
76,56,160476,1,2,0:0:0:0:
232,244,160638,1,8,0:0:0:0:
336,108,160801,5,0,0:0:0:0:
336,108,160882,1,0,0:0:0:0:
336,108,160963,2,0,L|428:108,1,90,2|0,0:0|0:0,0:0:0:0:
232,244,161287,2,0,L|188:244,1,45,8|0,0:0|0:0,0:0:0:0:
292,316,161449,2,0,L|336:316,1,45,8|0,0:0|0:0,0:0:0:0:
208,200,161611,2,0,L|116:200,1,90,2|2,0:0|0:0,0:0:0:0:
292,316,161936,1,8,0:0:0:0:
312,288,162017,1,0,0:0:0:0:
320,252,162099,1,0,0:0:0:0:
320,216,162180,1,0,0:0:0:0:
312,180,162260,6,0,P|304:136|312:92,1,90,6|0,0:0|0:0,0:0:0:0:
144,116,162584,1,8,0:0:0:0:
256,24,162747,1,8,0:0:0:0:
432,132,162909,2,0,L|440:224,1,90,2|2,0:0|0:0,0:0:0:0:
328,336,163233,2,0,L|332:288,1,45,8|0,0:0|0:0,0:0:0:0:
248,216,163395,2,0,L|244:260,1,45
344,192,163557,6,0,L|336:102,1,90,2|2,0:0|0:0,0:0:0:0:
168,48,163882,1,8,0:0:0:0:
152,80,163963,1,0,0:0:0:0:
144,116,164044,1,8,0:0:0:0:
156,148,164125,1,0,0:0:0:0:
168,184,164206,1,2,0:0:0:0:
168,220,164287,1,0,0:0:0:0:
156,252,164368,2,0,P|152:304|160:344,1,90,2|8,0:0|0:0,0:0:0:0:
28,192,164693,5,0,0:0:0:0:
28,192,164774,1,0,0:0:0:0:
28,192,164855,2,0,L|116:176,1,90,2|0,0:0|0:0,0:0:0:0:
248,104,165179,1,8,0:0:0:0:
284,112,165260,1,0,0:0:0:0:
320,120,165341,1,8,0:0:0:0:
356,128,165422,1,0,0:0:0:0:
392,136,165503,5,2,0:0:0:0:
252,216,165665,1,2,0:0:0:0:
408,28,165827,1,8,0:0:0:0:
424,168,165990,2,0,L|416:212,1,45
396,256,166152,5,2,0:0:0:0:
368,276,166233,1,0,0:0:0:0:
332,280,166314,1,0,0:0:0:0:
296,272,166395,1,0,0:0:0:0:
268,248,166476,5,12,0:0:0:0:
232,240,166557,1,0,0:0:0:0:
196,244,166638,1,0,0:0:0:0:
168,264,166719,1,0,0:0:0:0:
144,288,166801,6,0,L|160:200,1,90,2|2,0:0|0:0,0:0:0:0:
200,96,167125,1,8,0:0:0:0:
164,104,167206,1,0,0:0:0:0:
128,112,167287,1,0,0:0:0:0:
92,120,167368,1,0,0:0:0:0:
60,136,167449,6,0,B|44:180|44:180|36:208|44:224,1,90,6|2,0:0|0:0,0:0:0:0:
200,164,167774,1,8,0:0:0:0:
192,40,167936,2,0,L|136:212,1,180,2|2,0:0|0:0,0:0:0:0:
172,360,168422,2,0,L|199:274,1,90,8|0,0:0|0:0,0:0:0:0:
312,132,168747,1,2,0:0:0:0:
312,132,168909,1,2,0:0:0:0:
404,188,169071,2,0,P|452:180|484:156,1,90,8|0,0:0|0:0,0:0:0:0:
284,114,169395,1,2,0:0:0:0:
284,114,169557,1,2,0:0:0:0:
448,204,169720,2,0,P|489:177|509:143,1,90,8|0,0:0|0:0,0:0:0:0:
284,152,170044,6,0,L|264:288,1,135,2|0,0:0|0:0,0:0:0:0:
264,285,170368,2,0,L|176:308,1,90,8|0,0:0|0:0,0:0:0:0:
4,204,170693,1,2,0:0:0:0:
4,204,170774,2,0,P|52:192|92:200,1,90,0|2,0:0|0:0,0:0:0:0:
128,224,171017,2,0,L|116:132,1,90,8|0,0:0|0:0,0:0:0:0:
256,56,171341,5,2,0:0:0:0:
72,72,171503,1,2,0:0:0:0:
325,115,171665,1,8,0:0:0:0:
160,32,171828,1,0,0:0:0:0:
292,196,171990,1,2,0:0:0:0:
256,56,172152,1,2,0:0:0:0:
404,212,172314,2,0,L|314:223,1,90,8|0,0:0|0:0,0:0:0:0:
128,224,172638,6,0,L|217:212,1,90,6|2,0:0|0:0,0:0:0:0:
44,168,172963,1,8,0:0:0:0:
76,320,173125,2,0,L|256:296,1,180,2|2,0:0|0:0,0:0:0:0:
320,116,173611,2,0,L|340:208,1,90,8|0,0:0|0:0,0:0:0:0:
448,268,173936,1,2,0:0:0:0:
448,116,174098,1,2,0:0:0:0:
447,290,174260,1,8,0:0:0:0:
447,93,174422,1,0,0:0:0:0:
276,192,174584,2,0,L|368:192,1,90,2|2,0:0|0:0,0:0:0:0:
176,236,174909,2,0,L|86:236,1,90,8|0,0:0|0:0,0:0:0:0:
236,340,175233,6,0,P|264:280|252:212,1,135,2|0,0:0|0:0,0:0:0:0:
188,160,175557,1,8,0:0:0:0:
320,72,175720,1,0,0:0:0:0:
320,72,175801,1,0,0:0:0:0:
320,72,175882,2,0,L|336:160,1,90,2|0,0:0|0:0,0:0:0:0:
312,188,176125,2,0,L|332:228,1,45,0|8,0:0|0:0,0:0:0:0:
340,352,176368,1,0,0:0:0:0:
228,260,176530,2,0,P|184:256|136:264,1,90,2|2,0:0|0:0,0:0:0:0:
52,356,176855,2,0,P|96:360|144:352,1,90,8|0,0:0|0:0,0:0:0:0:
88,140,177179,2,0,P|60:184|52:220,2,90,2|2|8,0:0|0:0|0:0,0:0:0:0:
232,156,177665,5,0,0:0:0:0:
232,156,177747,1,0,0:0:0:0:
232,156,177828,2,0,L|252:68,1,90,6|2,0:0|0:0,0:0:0:0:
268,36,178071,2,0,L|284:80,1,45,0|8,0:0|0:0,0:0:0:0:
384,268,178314,1,0,0:0:0:0:
328,204,178476,2,0,P|376:184|412:188,1,90,2|2,0:0|0:0,0:0:0:0:
436,200,178720,1,0,0:0:0:0:
456,220,178801,1,8,0:0:0:0:
368,348,178963,1,0,0:0:0:0:
240,264,179125,6,0,P|148:256|116:232,1,135,2|0,0:0|0:0,0:0:0:0:
36,240,179449,2,0,P|32:192|44:152,1,90,8|0,0:0|0:0,0:0:0:0:
124,40,179774,1,0,0:0:0:0:
124,40,179855,1,0,0:0:0:0:
124,40,179936,2,0,L|36:60,1,90,2|8,0:0|0:0,0:0:0:0:
220,92,180260,5,0,0:0:0:0:
116,232,180422,1,2,0:0:0:0:
132,140,180584,1,0,0:0:0:0:
132,140,180665,1,0,0:0:0:0:
132,140,180747,1,8,0:0:0:0:
352,244,180909,1,0,0:0:0:0:
284,168,181071,2,0,P|256:208|252:248,1,90,2|2,0:0|0:0,0:0:0:0:
268,280,181314,2,0,L|264:328,1,45,0|8,0:0|0:0,0:0:0:0:
384,152,181557,1,0,0:0:0:0:
460,324,181720,6,0,L|472:188,1,135,2|0,0:0|0:0,0:0:0:0:
436,188,182044,2,0,L|420:100,1,90,8|0,0:0|0:0,0:0:0:0:
316,36,182368,1,2,0:0:0:0:
200,196,182530,1,4,0:0:0:0:
36,96,182693,1,4,0:0:0:0:
40,100,183017,6,0,L|24:192,1,90,8|2,0:0|0:0,0:0:0:0:
108,164,183341,2,0,L|92:256,1,90,8|2,0:0|0:0,0:0:0:0:
204,60,183665,2,0,L|188:152,1,90,8|2,0:0|0:0,0:0:0:0:
272,124,183990,2,0,L|256:216,1,90,8|2,0:0|0:0,0:0:0:0:
128,348,184314,2,0,L|215:315,1,90,4|2,0:0|0:0,0:0:0:0:
332,272,184638,2,0,P|404:264|464:288,1,135,8|0,0:0|0:0,0:0:0:0:
461,286,184963,2,0,L|440:196,1,90,8|2,0:0|0:0,0:0:0:0:
340,168,185287,2,0,L|318:77,1,90,8|2,0:0|0:0,0:0:0:0:
180,140,185611,6,0,P|132:216|48:220,2,180,4|8|2,0:0|0:0|0:0,0:0:0:0:
232,252,186422,1,8,0:0:0:0:
60,48,186584,2,0,L|88:136,1,90,2|8,0:0|0:0,0:0:0:0:
145,279,186909,5,2,0:0:0:0:
215,338,187071,1,0,0:0:0:0:
302,310,187233,1,2,0:0:0:0:
318,224,187395,1,0,0:0:0:0:
132,363,187557,5,2,0:0:0:0:
302,310,187720,1,0,0:0:0:0:
162,189,187882,1,2,0:0:0:0:
335,137,188044,1,0,0:0:0:0:
232,252,188206,5,4,0:0:0:0:
236,256,190314,5,8,0:0:0:0:
236,256,190395,1,8,0:0:0:0:
236,256,190476,2,0,L|328:244,1,90,4|2,0:0|0:0,0:0:0:0:
412,272,190801,5,8,0:0:0:0:
464,348,190963,1,2,0:0:0:0:
456,192,191125,1,8,0:0:0:0:
508,268,191287,1,2,0:0:0:0:
324,244,191449,1,8,0:0:0:0:
344,336,191611,1,2,0:0:0:0:
360,152,191774,1,8,0:0:0:0:
380,60,191936,1,2,0:0:0:0:
264,120,192098,5,8,0:0:0:0:
243,139,192179,1,0,0:0:0:0:
219,154,192260,1,0,0:0:0:0:
193,164,192341,1,0,0:0:0:0:
165,168,192422,1,8,0:0:0:0:
137,166,192503,1,0,0:0:0:0:
110,158,192584,1,0,0:0:0:0:
85,145,192665,1,0,0:0:0:0:
64,128,192747,5,8,0:0:0:0:
65,144,192828,1,2,0:0:0:0:
66,161,192909,1,2,0:0:0:0:
67,178,192990,1,2,0:0:0:0:
68,195,193071,1,2,0:0:0:0:
69,212,193152,1,2,0:0:0:0:
69,229,193233,1,2,0:0:0:0:
70,246,193314,1,2,0:0:0:0:
71,262,193395,5,4,0:0:0:0:
176,64,198422,5,8,0:0:0:0:
172,68,198503,1,8,0:0:0:0:
168,72,198584,2,0,L|260:56,1,90,2|2,0:0|0:0,0:0:0:0:
80,128,198909,2,0,B|60:216|60:216|80:256,1,135,8|0,0:0|0:0,0:0:0:0:
152,300,199233,1,2,0:0:0:0:
288,160,199395,1,2,0:0:0:0:
352,364,199557,1,8,0:0:0:0:
356,368,199882,5,2,0:0:0:0:
440,192,200044,1,2,0:0:0:0:
364,268,200206,2,0,L|228:284,1,135,8|0,0:0|0:0,0:0:0:0:
152,300,200530,1,2,0:0:0:0:
364,268,200693,1,2,0:0:0:0:
108,204,200855,1,8,0:0:0:0:
112,208,201179,5,2,0:0:0:0:
188,124,201341,1,2,0:0:0:0:
56,80,201503,1,8,0:0:0:0:
256,284,201747,1,0,0:0:0:0:
256,284,201828,2,0,P|264:240|264:192,1,90,2|2,0:0|0:0,0:0:0:0:
208,92,202152,1,8,0:0:0:0:
396,60,202314,6,0,B|412:72|412:72|400:88|400:88|444:148|420:228,1,180,4|8,0:0|0:0,0:0:0:0:
256,284,202801,1,8,0:0:0:0:
312,168,202963,1,8,0:0:0:0:
176,60,203125,2,0,L|196:132,1,72,0|0,0:0|0:0,0:0:0:0:
68,300,203449,6,0,L|56:256,1,45
100,148,203611,2,0,L|112:192,1,45
28,72,203774,5,4,0:0:0:0:
28,72,204422,5,4,0:0:0:0:
28,72,205071,5,4,0:0:0:0:
208,172,205395,1,4,0:0:0:0:
16,252,205720,1,8,0:0:0:0:
208,172,206044,1,8,0:0:0:0:
92,172,206206,1,2,0:0:0:0:
80,348,206368,6,0,P|156:360|240:340,1,161.999995056153,4|0,0:0|0:0,0:0:0:0:
344,272,206693,2,0,P|400:264|452:268,1,107.999996704102,8|0,0:0|0:0,0:0:0:0:
332,356,207017,2,0,L|304:196,1,161.999995056153,2|0,0:0|0:0,0:0:0:0:
256,116,207341,1,8,0:0:0:0:
24,208,207503,1,0,0:0:0:0:
124,80,207665,6,0,L|152:240,1,161.999995056153,2|0,0:0|0:0,0:0:0:0:
204,356,207990,2,0,L|184:248,1,107.999996704102,8|0,0:0|0:0,0:0:0:0:
360,120,208314,2,0,L|388:280,1,161.999995056153,2|0,0:0|0:0,0:0:0:0:
332,356,208638,1,8,0:0:0:0:
256,116,208801,1,0,0:0:0:0:
124,200,208963,6,0,P|60:188|4:112,1,161.999995056153,6|0,0:0|0:0,0:0:0:0:
48,52,209287,1,8,0:0:0:0:
208,224,209449,1,0,0:0:0:0:
120,368,209611,2,0,P|70:327|56:233,1,161.999995056153,2|0,0:0|0:0,0:0:0:0:
124,200,209936,1,8,0:0:0:0:
332,356,210098,1,0,0:0:0:0:
448,312,210260,5,2,0:0:0:0:
296,252,210422,1,0,0:0:0:0:
464,196,210584,1,8,0:0:0:0:
268,140,210747,1,0,0:0:0:0:
480,88,210909,1,2,0:0:0:0:
480,88,211233,6,0,L|464:196,1,107.999996704102,8|0,0:0|0:0,0:0:0:0:
296,252,211557,2,0,P|240:264|188:256,1,107.999996704102,2|0,0:0|0:0,0:0:0:0:
144,144,211882,1,8,0:0:0:0:
296,252,212044,1,0,0:0:0:0:
424,136,212206,2,0,L|408:244,1,107.999996704102,2|0,0:0|0:0,0:0:0:0:
296,120,212530,2,0,L|308:48,2,71.9999978027344,8|0|0,0:0|0:0|0:0,0:0:0:0:
232,184,212855,5,12,0:0:0:0:
96,240,213017,1,2,0:0:0:0:
232,184,213179,1,8,0:0:0:0:
212,320,213341,1,2,0:0:0:0:
144,144,213503,1,8,0:0:0:0:
16,48,213665,1,2,0:0:0:0:
60,144,213828,2,0,L|112:128,1,53.9999983520508,8|0,0:0|0:0,0:0:0:0:
228,76,213990,2,0,L|280:92,1,53.9999983520508,8|0,0:0|0:0,0:0:0:0:
376,168,214152,6,0,P|432:168|480:144,1,107.999996704102,6|0,0:0|0:0,0:0:0:0:
500,116,214395,1,0,0:0:0:0:
500,116,214476,2,0,L|492:224,1,107.999996704102,8|0,0:0|0:0,0:0:0:0:
244,332,214801,2,0,L|252:224,1,107.999996704102,2|0,0:0|0:0,0:0:0:0:
272,192,215044,2,0,L|264:136,1,53.9999983520508,0|8,0:0|0:0,0:0:0:0:
156,84,215287,5,0,0:0:0:0:
12,240,215449,1,2,0:0:0:0:
76,64,215611,1,0,0:0:0:0:
88,276,215774,1,8,0:0:0:0:
16,116,215936,1,0,0:0:0:0:
164,240,216098,2,0,L|272:220,1,107.999996704102,2|0,0:0|0:0,0:0:0:0:
388,104,216422,1,8,0:0:0:0:
388,104,216584,1,0,0:0:0:0:
352,312,216747,6,0,L|245:331,1,107.999996704102,6|0,0:0|0:0,0:0:0:0:
444,208,217071,1,8,0:0:0:0:
480,344,217233,1,0,0:0:0:0:
188,216,217395,2,0,L|224:114,1,107.999996704102,2|0,0:0|0:0,0:0:0:0:
312,40,217720,1,8,0:0:0:0:
188,216,217882,1,0,0:0:0:0:
80,280,218044,6,0,B|52:232|52:232|88:128,1,161.999995056153,2|0,0:0|0:0,0:0:0:0:
220,36,218368,2,0,L|163:189,1,161.999995056153,8|0,0:0|0:0,0:0:0:0:
228,284,218693,2,0,L|336:260,1,107.999996704102,2|0,0:0|0:0,0:0:0:0:
372,276,218936,1,0,0:0:0:0:
372,276,219017,2,0,P|388:220|388:168,1,107.999996704102,8|0,0:0|0:0,0:0:0:0:
312,92,219341,5,6,0:0:0:0:
136,172,219503,1,0,0:0:0:0:
136,172,219584,1,0,0:0:0:0:
136,172,219665,2,0,L|156:280,1,107.999996704102,8|0,0:0|0:0,0:0:0:0:
220,36,219990,1,2,0:0:0:0:
92,112,220152,1,0,0:0:0:0:
92,112,220233,1,0,0:0:0:0:
92,112,220314,2,0,L|144:208,1,107.999996704102,8|0,0:0|0:0,0:0:0:0:
304,312,220638,5,2,0:0:0:0:
256,216,220801,1,0,0:0:0:0:
200,308,220963,1,8,0:0:0:0:
372,356,221125,1,0,0:0:0:0:
468,220,221287,2,0,B|477:143|423:104|423:104|392:121,1,161.999995056153,2|0,0:0|0:0,0:0:0:0:
340,176,221611,5,8,0:0:0:0:
200,308,221774,1,0,0:0:0:0:
60,216,221936,1,6,0:0:0:0:
60,216,222260,5,2,0:0:0:0:
156,376,222422,1,8,0:0:0:0:
180,136,222584,1,2,0:0:0:0:
276,52,222747,1,0,0:0:0:0:
276,52,222828,1,0,0:0:0:0:
276,52,222909,2,0,L|260:160,1,107.999996704102,8|0,0:0|0:0,0:0:0:0:
168,240,223233,5,12,0:0:0:0:
360,92,223557,1,8,0:0:0:0:
40,48,223882,1,0,0:0:0:0:
40,48,223963,2,0,L|12:156,1,107.999996704102,8|0,0:0|0:0,0:0:0:0:
4,188,224206,2,0,P|64:180|108:200,1,107.999996704102,8|0,0:0|0:0,0:0:0:0:
176,312,224530,5,12,0:0:0:0:
340,176,224855,1,8,0:0:0:0:
116,80,225179,1,0,0:0:0:0:
116,80,225260,1,8,0:0:0:0:
196,208,225422,1,0,0:0:0:0:
196,208,225503,2,0,L|304:196,1,107.999996704102,8|0,0:0|0:0,0:0:0:0:
236,308,225828,6,0,P|125:290|91:200,2,215.999993408203,12|8|8,0:0|0:0|0:0,0:0:0:0:
384,232,226638,1,2,0:0:0:0:
300,232,226801,5,8,0:0:0:0:
400,316,226963,1,2,0:0:0:0:
440,96,227125,1,4,0:0:0:0:
348,52,227449,5,2,0:0:0:0:
420,200,227611,1,8,0:0:0:0:
156,116,227774,1,2,0:0:0:0:
156,116,227936,1,2,0:0:0:0:
76,192,228098,2,0,L|92:300,1,107.999996704102,8|2,0:0|0:0,0:0:0:0:
176,356,228422,5,4,0:0:0:0:
180,360,228747,1,0,0:0:0:0:
184,364,229071,1,2,0:0:0:0:
436,192,229720,6,0,L|420:300,1,107.999996704102,4|8,0:0|0:0,0:0:0:0:
312,240,230044,1,0,0:0:0:0:
312,240,230125,2,0,P|256:232|204:236,1,107.999996704102,8|0,0:0|0:0,0:0:0:0:
176,260,230368,1,8,0:0:0:0:
24,336,230530,2,0,P|28:308|36:280,1,53.9999983520508,2|0,0:0|0:0,0:0:0:0:
100,228,230693,2,0,P|96:200|88:172,1,53.9999983520508,2|0,0:0|0:0,0:0:0:0:
16,136,230855,2,0,P|20:108|28:80,1,53.9999983520508,2|0,0:0|0:0,0:0:0:0:
92,32,231017,5,4,0:0:0:0:
