osu file format v12

[General]
AudioFilename: koi ga shitai.mp3
AudioLeadIn: 1004
PreviewTime: 57864
Countdown: 0
SampleSet: Soft
StackLeniency: 0.7
Mode: 0
LetterboxInBreaks: 0
WidescreenStoryboard: 1

[Editor]
Bookmarks: 11770,23445,44202,111661,146404,167445,203769,230688
DistanceSpacing: 1
BeatDivisor: 4
GridSize: 4

[Metadata]
Title:Kunoichi Demo Koi Ga Shitai
TitleUnicode:クノイチでも恋がしたい
Artist:yuikonnu & ayaponzu*
ArtistUnicode:ゆいこんぬ & あやぽんず*
Creator:Raose
Version:Hard
Source:
Tags:mikitoP Vocaloid Vocaloid2 Hatsune Miku Kagamine Rin A Female Ninja But I Want To Love Even As nico nico douga
BeatmapID:326197
BeatmapSetID:128959

[Difficulty]
HPDrainRate:6
CircleSize:4
OverallDifficulty:6
ApproachRate:7
SliderMultiplier:1.6
SliderTickRate:2

[Events]
//Background and Video events
0,0,"BG.jpg",0,0
Video,0,"Kunoichi Demo Koi ga Shitai.avi"
//Break Periods
2,78780,89356
2,146888,166545
//Storyboard Layer 0 (Background)
//Storyboard Layer 1 (Fail)
//Storyboard Layer 2 (Pass)
//Storyboard Layer 3 (Foreground)
//Storyboard Sound Samples
//Background Colour Transformations
3,100,163,162,255

[TimingPoints]
11770,324.324324324324,4,2,0,60,1,0
44851,324.324324324324,4,2,0,50,1,0
44851,-133.333333333333,4,2,0,50,0,0
52310,-125,4,2,0,60,0,0
53121,-125,4,2,0,70,0,0
53769,-125,4,2,0,80,0,0
54580,-125,4,2,0,85,0,0
55229,-111.111111111111,4,2,0,90,0,0
57824,-100,4,2,0,100,0,1
78256,-100,4,2,0,100,0,0
90256,-133.333333333333,4,2,0,70,0,0
100634,-100,4,2,0,70,0,0
111013,-133.333333333333,4,2,0,50,0,0
111661,324.324324324324,4,2,0,50,1,0
111661,-133.333333333333,4,2,0,50,0,0
119121,-125,4,2,0,60,0,0
119932,-125,4,2,0,70,0,0
120580,-125,4,2,0,80,0,0
121391,-125,4,2,0,85,0,0
122040,-111.111111111111,4,2,0,90,0,0
124634,-100,4,2,0,100,0,1
145066,-133.333333333333,4,2,0,100,0,1
146038,-100,4,2,0,100,0,1
146404,-100,4,2,0,100,0,0
167445,-100,4,2,0,50,0,0
167545,-100,4,2,0,50,0,0
203769,-100,4,2,0,90,0,1
230688,-100,4,2,0,100,0,0

[Colours]
Combo1 : 255,128,0
Combo2 : 0,128,255
Combo3 : 255,128,192
Combo4 : 128,255,0

[HitObjects]
61,227,11770,6,0,P|114:185|137:177,1,80
200,157,12094,2,0,P|246:155|291:178,1,80
346,207,12418,2,0,P|353:168|344:127,2,80
416,242,12905,2,0,P|427:151|405:78,1,160
357,25,13391,2,0,P|316:14|263:32,1,80
199,158,13715,2,0,P|240:168|293:150,1,80
320,93,14040,1,0,0:0:0:0:
280,22,14202,1,0,0:0:0:0:
157,85,14364,6,0,P|119:152|157:230,2,160
224,238,15337,2,0,P|184:239|148:223,1,80
200,157,15661,5,0,0:0:0:0:
340,78,15986,1,0,0:0:0:0:
340,237,16310,1,0,0:0:0:0:
200,158,16634,2,0,L|120:154,1,80
240,226,16959,6,0,P|270:201|280:153,1,80
160,231,17283,2,0,P|167:267|209:298,1,80
352,307,17607,2,0,P|316:291|277:295,1,80
230,361,17932,1,0,0:0:0:0:
382,382,18094,2,0,P|426:320|394:238,1,160
339,192,18580,2,0,P|322:152|327:112,1,80
394,66,18905,2,0,P|407:105|402:148,1,80
339,192,19229,2,0,L|254:193,1,80
83,271,19553,6,0,L|243:271,1,160
259,192,20040,1,0,0:0:0:0:
224,120,20202,2,0,P|178:108|134:120,1,80
101,179,20526,2,0,P|147:191|191:179,1,80
301,116,20851,5,0,0:0:0:0:
418,223,21175,1,0,0:0:0:0:
451,66,21499,1,0,0:0:0:0:
301,116,21824,1,0,0:0:0:0:
280,193,21986,1,0,0:0:0:0:
280,193,22067,1,0,0:0:0:0:
280,193,22148,6,0,L|258:276,1,80
200,216,22472,2,0,L|178:299,1,80
120,239,22797,2,0,L|98:322,1,80
39,263,23121,2,0,L|17:346,1,80
39,263,23445,6,0,P|13:169|34:105,2,160
171,172,24418,1,0,0:0:0:0:
171,172,24580,2,0,P|261:170|317:113,1,160
330,46,25067,2,0,P|364:66|386:100,1,80
369,178,25391,2,0,P|367:266|347:337,2,160
309,124,26202,5,0,0:0:0:0:
242,168,26364,2,0,P|242:212|251:255,1,80
309,124,26688,2,0,P|237:85|171:125,1,160
125,183,27175,1,0,0:0:0:0:
237,262,27337,2,0,P|331:275|404:233,1,160
425,177,27824,1,0,0:0:0:0:
377,112,27986,2,0,P|349:153|347:187,1,80
356,318,28310,2,0,P|380:287|387:248,1,80
377,112,28634,6,0,L|218:116,2,160
244,201,29607,1,0,0:0:0:0:
244,201,29769,2,0,P|156:183|125:109,1,160
164,55,30256,1,0,0:0:0:0:
217,116,30418,1,0,0:0:0:0:
194,279,30580,2,0,P|111:247|59:178,1,160
218,116,31229,6,0,B|276:133|322:89|376:102,1,160
427,161,31715,2,0,P|444:212|432:324,2,160
381,94,32526,2,0,L|278:113,1,80
253,197,32851,2,0,L|332:183,1,80
282,32,33175,1,0,0:0:0:0:
282,32,33499,1,0,0:0:0:0:
211,68,33661,1,0,0:0:0:0:
211,68,33742,1,0,0:0:0:0:
211,68,33824,6,0,P|155:137|138:208,2,160
341,160,34797,1,0,0:0:0:0:
341,160,34959,2,0,P|346:241|319:320,1,160
252,354,35445,2,0,B|193:368|147:325|87:353,2,160
124,256,36418,6,0,P|104:187|113:66,1,160
143,28,36905,1,0,0:0:0:0:
222,36,37067,2,0,P|291:60|389:33,1,160
449,15,37553,1,0,0:0:0:0:
400,125,37715,1,0,0:0:0:0:
400,125,37878,2,0,B|403:173|362:199|362:199|366:237|391:264,2,160
357,57,38688,2,0,P|328:85|321:128,1,80
450,212,39013,6,0,P|476:138|454:63,2,160
314,298,39986,1,0,0:0:0:0:
249,344,40148,2,0,P|163:345|88:290,1,160
73,232,40634,2,0,P|113:229|149:246,1,80
21,293,40959,2,0,P|-5:224|44:155,1,160
196,188,41607,6,0,P|274:182|332:110,1,160,2|0,0:1|0:0,0:0:0:0:
247,111,42094,2,0,P|285:194|355:232,1,160
397,171,42580,1,0,0:0:0:0:
260,30,42742,2,0,P|179:66|169:137,1,160
224,184,43229,2,0,P|244:150|247:111,1,80
93,79,43553,2,0,P|93:164|151:210,1,160
332,266,44202,5,0,0:0:0:0:
332,266,44851,6,0,P|354:176|375:131,2,120.000004577637
216,299,45823,1,0,0:0:0:0:
216,299,45986,2,0,P|191:233|149:176,1,120.000004577637
127,144,46472,2,0,P|121:127|131:76,1,60.0000022888184
153,32,46796,2,0,P|220:23|292:51,1,120.000004577637
379,84,47445,6,0,P|382:145|369:212,1,120.000004577637
264,148,48094,2,0,P|244:202|250:278,1,120.000004577637
296,296,48580,2,0,L|435:312,1,120.000004577637
451,357,49067,2,0,L|323:373,2,120.000004577637
488,242,50040,5,0,0:0:0:0:
406,151,50364,1,0,0:0:0:0:
463,45,50688,2,0,P|389:38|329:54,1,120.000004577637
296,84,51175,2,0,P|205:81|162:57,1,120.000004577637
128,39,51661,2,0,P|103:73|97:99,1,60.0000022888184
49,125,51986,2,0,P|60:188|85:238,1,120.000004577637
196,175,52634,5,0,0:0:0:0:
314,326,53121,1,0,0:0:0:0:
314,326,53283,1,0,0:0:0:0:
448,189,53769,1,0,0:0:0:0:
448,189,53932,2,0,B|460:120|439:48,2,128
380,297,54905,1,0,0:0:0:0:
236,286,55229,6,0,L|178:331,1,71.9999978027344
152,263,55553,2,0,L|74:286,1,71.9999978027344
87,211,55878,2,0,L|13:187,1,71.9999978027344
59,130,56202,2,0,L|16:73,1,71.9999978027344
79,35,56526,2,0,B|117:20|117:20|164:56|232:16,2,143.999995605469
43,178,57499,1,0,0:0:0:0:
43,178,57823,6,0,P|50:238|130:295,1,143.999995605469
188,272,58310,1,0,0:0:0:0:
251,221,58472,2,0,P|329:184|402:196,1,160
452,255,58959,1,0,0:0:0:0:
382,336,59121,2,0,L|351:257,1,80
399,195,59445,2,0,L|416:111,1,80
386,41,59769,2,0,P|294:82|282:153,1,160
291,212,60256,1,0,0:0:0:0:
369,131,60418,6,0,L|249:11,1,160
175,20,60905,1,0,0:0:0:0:
106,187,61067,2,0,L|226:307,1,160
289,338,61553,1,0,0:0:0:0:
360,224,61715,2,0,B|369:166|369:166|393:127|393:127|401:68,2,160
352,304,62526,1,0,0:0:0:0:
272,296,62688,2,0,P|223:296|168:319,1,80
41,335,63013,6,0,P|120:336|193:304,1,160
210,226,63499,1,0,0:0:0:0:
245,154,63661,2,0,P|318:123|396:130,1,160
456,184,64148,1,0,0:0:0:0:
434,260,64310,2,0,P|400:241|379:197,1,80
473,109,64634,2,0,P|473:148|456:184,1,80
364,313,64959,2,0,P|313:252|301:173,1,160
315,95,65445,1,0,0:0:0:0:
380,205,65607,6,0,P|313:254|233:263,1,160
157,265,66094,1,0,0:0:0:0:
124,83,66256,2,0,P|189:40|281:32,1,160
340,66,66742,1,0,0:0:0:0:
394,124,66905,2,0,P|402:162|396:216,1,80
333,248,67229,2,0,P|324:209|331:156,1,80
463,89,67553,2,0,P|478:176|465:257,1,160
248,276,68202,6,0,P|180:240|85:251,1,160
27,279,68688,1,0,0:0:0:0:
100,246,68850,2,0,P|104:162|92:138,1,80
83,91,69175,2,0,P|37:86|-3:94,1,80
105,167,69499,2,0,P|170:171|205:157,1,80
264,34,69823,2,0,P|232:57|215:93,1,80
312,190,70148,1,0,0:0:0:0:
184,166,70310,1,0,0:0:0:0:
297,109,70472,1,0,0:0:0:0:
240,223,70634,1,0,0:0:0:0:
215,93,70796,6,0,P|268:29|348:42,1,160
394,92,71283,1,0,0:0:0:0:
312,190,71445,2,0,P|248:254|177:244,1,160
230,182,71932,1,0,0:0:0:0:
358,265,72094,2,0,P|302:315|201:331,2,160
156,153,73067,2,0,P|152:192|166:229,1,80
287,132,73391,6,0,P|216:104|157:153,1,160
231,183,73878,1,0,0:0:0:0:
101,89,74040,2,0,P|74:144|102:242,1,160
157,288,74526,1,0,0:0:0:0:
229,308,74688,2,0,L|320:308,1,80
371,228,75013,2,0,L|291:229,1,80
353,149,75337,2,0,L|518:152,1,160
487,227,75823,1,0,0:0:0:0:
311,214,75986,6,0,P|277:134|320:79,1,160
395,78,76472,1,0,0:0:0:0:
392,224,76634,2,0,P|331:293|258:277,1,160
200,245,77121,1,0,0:0:0:0:
260,192,77283,2,0,P|270:115|223:27,2,160
100,175,78256,2,0,L|112:263,1,80
160,316,78580,5,0,0:0:0:0:
127,202,90256,6,0,P|169:170|199:101,1,120.000004577637
314,110,90905,2,0,P|338:164|385:202,1,120.000004577637
444,192,91391,2,0,P|388:201|334:239,1,120.000004577637
287,271,91878,2,0,L|147:293,2,120.000004577637
315,154,92850,6,0,P|288:90|243:52,1,120.000004577637
195,34,93337,1,0,0:0:0:0:
173,89,93499,2,0,P|139:143|80:173,1,120.000004577637
31,159,93986,1,0,0:0:0:0:
28,218,94148,2,0,L|24:348,2,120.000004577637
121,146,95121,2,0,P|130:95|139:77,1,60.0000022888184
184,56,95445,5,0,0:0:0:0:
303,46,95769,1,0,0:0:0:0:
315,165,96094,1,0,0:0:0:0:
196,180,96418,1,0,0:0:0:0:
150,68,96742,5,0,0:0:0:0:
335,42,97067,1,0,0:0:0:0:
368,225,97391,1,0,0:0:0:0:
186,261,97715,1,0,0:0:0:0:
256,156,98040,5,0,0:0:0:0:
256,156,100634,6,0,L|262:328,1,160
101,309,101283,2,0,P|79:232|106:155,1,160
168,111,101769,2,0,P|245:109|312:57,1,160
383,30,102256,2,0,B|397:78|367:112|367:112|374:158|391:182,2,160
475,160,103229,5,0,0:0:0:0:
464,239,103391,2,0,P|398:298|319:306,1,160
262,262,103878,2,0,P|234:209|233:184,1,80
354,130,104202,2,0,P|339:167|312:196,1,80
286,89,104526,1,0,0:0:0:0:
286,89,104688,2,0,P|370:55|426:100,2,160
207,104,105499,2,0,P|170:115|129:105,1,80
236,29,105823,6,0,P|286:98|261:164,1,160
184,180,106310,1,0,0:0:0:0:
117,224,106472,2,0,P|99:262|101:305,1,80
175,275,106796,2,0,P|194:312|234:337,1,80
256,259,107121,2,0,P|314:239|341:243,1,80
423,321,107445,2,0,P|384:325|345:319,1,80
331,240,107769,1,0,0:0:0:0:
387,182,107932,1,0,0:0:0:0:
325,130,108094,1,0,0:0:0:0:
379,71,108256,1,0,0:0:0:0:
387,182,108418,6,0,P|299:206|243:150,1,160,2|0,0:1|0:0,0:0:0:0:
192,109,108905,2,0,P|122:144|44:132,1,160
10,60,109391,1,0,0:0:0:0:
51,215,109553,2,0,P|112:268|199:280,1,160
252,233,110040,2,0,P|285:219|313:175,1,80
176,205,110364,2,0,P|172:244|188:281,1,80
236,152,110688,2,0,P|208:128|163:124,1,80
83,137,111013,6,0,P|150:131|218:36,1,180.000006866455
216,47,111661,6,0,L|348:48,2,120.000004577637
123,122,112634,1,0,0:0:0:0:
118,181,112797,2,0,P|121:242|159:291,1,120.000004577637
213,302,113283,2,0,P|251:305|292:286,1,60.0000022888184
325,272,113607,2,0,P|387:251|450:284,1,120.000004577637
479,157,114256,6,0,L|479:20,1,120.000004577637
364,74,114905,2,0,L|363:208,1,120.000004577637
351,252,115391,2,0,P|295:219|232:217,1,120.000004577637
181,224,115878,2,0,L|129:268,1,60.0000022888184
97,215,116202,2,0,L|72:336,1,120.000004577637
17,225,116851,5,0,0:0:0:0:
17,165,117013,2,0,P|36:104|90:64,1,120.000004577637
134,50,117499,1,0,0:0:0:0:
192,61,117661,2,0,P|269:69|324:52,2,120.000004577637
148,102,118472,2,0,L|146:171,1,60.0000022888184
153,221,118797,2,0,P|189:269|254:280,1,120.000004577637
369,248,119445,5,0,0:0:0:0:
419,62,119932,1,0,0:0:0:0:
419,62,120094,1,0,0:0:0:0:
236,119,120580,1,0,0:0:0:0:
236,119,120742,2,0,P|172:107|99:122,2,128
98,189,121715,1,0,0:0:0:0:
74,257,121878,1,0,0:0:0:0:
109,319,122040,6,0,L|186:342,1,71.9999978027344
178,261,122364,2,0,L|253:228,1,71.9999978027344
269,299,122688,2,0,L|341:327,1,71.9999978027344
338,241,123013,2,0,L|413:208,1,71.9999978027344
369,148,123337,2,0,B|304:174|304:174|220:149,2,143.999995605469
436,273,124310,2,0,L|459:238,3,35.9999989013672
469,206,124634,6,0,P|462:146|375:88,1,160
307,97,125121,1,0,0:0:0:0:
261,163,125283,2,0,P|183:200|110:188,1,160
60,129,125769,1,0,0:0:0:0:
130,48,125932,2,0,L|161:127,1,80
113,189,126256,2,0,L|96:273,1,80
126,343,126580,2,0,P|218:302|230:231,1,160
221,172,127067,1,0,0:0:0:0:
143,253,127229,6,0,L|263:373,1,160
335,354,127715,1,0,0:0:0:0:
411,218,127878,1,0,0:0:0:0:
411,218,128040,2,0,L|297:104,1,160
289,218,128526,2,0,B|280:276|280:276|256:315|256:315|248:374,2,160
240,88,129499,2,0,P|289:88|344:65,1,80
471,49,129824,6,0,P|392:48|319:80,1,160
302,158,130310,1,0,0:0:0:0:
267,230,130472,2,0,P|194:261|116:254,1,160
56,200,130959,1,0,0:0:0:0:
78,124,131121,2,0,P|112:143|133:187,1,80
39,275,131445,2,0,P|39:236|56:200,1,80
148,71,131769,2,0,P|199:132|211:211,1,160
197,289,132256,1,0,0:0:0:0:
132,179,132418,6,0,P|199:130|279:121,1,160
355,119,132905,1,0,0:0:0:0:
388,301,133067,2,0,P|323:344|231:352,1,160
172,318,133553,1,0,0:0:0:0:
118,260,133715,2,0,P|110:222|116:168,1,80
179,136,134040,2,0,P|188:175|181:228,1,80
49,295,134364,2,0,P|34:208|47:127,1,160
187,94,135013,6,0,P|258:128|350:111,1,160
407,80,135499,1,0,0:0:0:0:
454,144,135661,2,0,P|462:187|455:228,1,80
389,266,135986,2,0,P|379:226|387:188,1,80
427,348,136310,1,0,0:0:0:0:
427,348,136472,2,0,P|349:348|296:291,1,160
200,194,136959,1,0,0:0:0:0:
328,218,137121,1,0,0:0:0:0:
215,275,137283,1,0,0:0:0:0:
272,161,137445,1,0,0:0:0:0:
297,291,137607,6,0,P|244:355|164:342,1,160
118,292,138094,1,0,0:0:0:0:
200,194,138256,2,0,P|264:130|335:140,1,160
282,202,138742,1,0,0:0:0:0:
154,119,138905,2,0,P|210:69|311:53,2,160
356,231,139878,2,0,P|360:192|346:155,1,80
225,252,140202,6,0,P|296:280|355:231,1,160
281,201,140688,1,0,0:0:0:0:
411,295,140851,2,0,P|438:240|410:142,1,160
355,96,141337,1,0,0:0:0:0:
283,76,141499,2,0,L|192:76,1,80
141,156,141824,2,0,L|221:155,1,80
159,235,142148,2,0,L|-6:232,1,160
25,157,142634,1,0,0:0:0:0:
201,170,142797,6,0,P|235:250|192:305,1,160
117,306,143283,1,0,0:0:0:0:
120,160,143445,2,0,P|181:91|254:107,1,160
312,139,143932,1,0,0:0:0:0:
252,192,144094,2,0,P|242:269|289:357,2,160
407,128,145067,6,0,P|420:174|416:198,1,60.0000022888184
487,215,145391,2,0,P|489:136|465:81,2,120.000004577637
391,295,146364,6,0,B|373:282|373:282|345:297|345:297|323:277|323:277|294:306|244:299,1,160
162,192,167445,6,0,P|162:252|178:280,1,80
240,226,167769,1,0,0:0:0:0:
226,147,167932,2,0,P|159:114|89:163,2,160
240,226,168742,2,0,P|332:236|406:199,1,160
422,136,169229,1,0,0:0:0:0:
382,66,169391,2,0,P|345:62|303:78,1,80
273,158,169715,2,0,P|312:163|349:149,1,80
219,98,170040,6,0,P|194:169|244:233,1,160
319,249,170526,1,0,0:0:0:0:
364,183,170688,2,0,P|397:138|387:58,2,120
321,115,171337,2,0,P|285:191|308:277,1,160
258,332,171824,1,0,0:0:0:0:
177,320,171986,2,0,L|94:318,1,80
72,241,172310,2,0,L|157:242,1,80
243,121,172634,6,0,P|206:136|181:166,1,80
151,241,172959,1,0,0:0:0:0:
288,190,173121,2,0,P|325:117|290:53,1,160
206,53,173607,2,0,P|215:91|242:120,1,80
362,190,173932,2,0,P|325:177|288:189,1,80
166,257,174256,2,0,P|204:268|242:257,1,80
242,121,174580,2,0,P|213:148|204:186,1,80
286,329,174905,2,0,P|319:295|323:252,1,80
204,187,175229,6,0,P|166:234|190:332,1,160
243,263,175715,1,0,0:0:0:0:
204,187,175878,2,0,L|158:58,2,120
278,215,176526,2,0,L|293:126,1,80
363,100,176851,2,0,L|370:197,1,80
379,259,177175,1,0,0:0:0:0:
324,317,177337,1,0,0:0:0:0:
244,317,177499,1,0,0:0:0:0:
176,272,177661,1,0,0:0:0:0:
154,193,177824,6,0,P|157:134|182:80,2,120
239,136,178472,2,0,P|260:83|234:16,2,120
227,215,179121,2,0,B|240:282|309:276|317:358,1,160
235,353,179607,1,0,0:0:0:0:
314,344,179769,2,0,P|355:338|403:344,1,80
462,301,180094,2,0,P|474:264|473:224,1,80
399,130,180418,6,0,P|385:188|396:247,2,120
350,65,181067,2,0,P|297:90|262:138,2,120
315,199,181715,2,0,P|228:209|184:157,1,160
176,79,182202,1,0,0:0:0:0:
262,138,182364,5,0,0:0:0:0:
220,286,182526,1,0,0:0:0:0:
109,180,182688,1,0,0:0:0:0:
109,180,183013,6,0,P|176:131|203:54,1,160
403,180,183661,2,0,P|336:131|309:54,1,160
255,330,184310,1,0,0:0:0:0:
237,253,184472,1,0,0:0:0:0:
250,172,184634,2,0,B|269:116|220:94|249:11,2,160
392,98,185607,6,0,B|401:142|376:177|376:177|377:213|412:248,1,160
487,263,186094,1,0,0:0:0:0:
470,184,186256,2,0,P|483:142|482:101,1,80
438,39,186580,2,0,P|392:23|352:35,1,80
294,72,186905,2,0,P|279:124|281:161,1,80
276,229,187229,2,0,P|245:267|206:284,1,80
138,272,187553,1,0,0:0:0:0:
138,272,187715,1,0,0:0:0:0:
79,217,187878,1,0,0:0:0:0:
79,217,188040,1,0,0:0:0:0:
256,192,188202,12,0,190472,0:0:0:0:
258,131,190797,6,0,P|263:93|298:56,1,80
336,127,191121,2,0,P|372:129|421:167,1,80
353,207,191445,2,0,P|385:246|388:292,1,80
309,271,191769,2,0,P|290:315|253:340,1,80
226,264,192094,2,0,L|190:238,3,40
174,205,192418,2,0,L|170:154,3,40
180,125,192742,2,0,L|219:86,3,40
242,76,193067,2,0,L|284:74,3,40
256,192,193391,12,0,198418,0:0:0:0:
256,192,198580,12,0,202148,0:0:0:0:
375,330,202310,6,0,P|344:249|374:178,1,160
445,159,202797,2,0,P|423:124|381:102,1,80
319,71,203121,1,0,0:0:0:0:
242,50,203283,1,0,0:0:0:0:
162,58,203445,2,0,L|118:61,3,40
85,76,203769,5,0,0:0:0:0:
120,155,204418,1,0,0:0:0:0:
65,223,205067,5,0,0:0:0:0:
121,292,205391,1,0,0:0:0:0:
205,321,205715,2,0,P|266:280|363:278,1,160
416,320,206202,1,0,0:0:0:0:
349,190,206364,6,0,P|337:109|389:16,1,160
443,62,206851,1,0,0:0:0:0:
260,99,207013,2,0,P|164:98|105:40,1,160
52,12,207499,1,0,0:0:0:0:
196,27,207661,2,0,P|168:121|104:153,2,160
328,114,208634,2,0,P|309:148|301:187,1,80
409,116,208959,6,0,P|372:50|281:50,1,160
246,107,209445,1,0,0:0:0:0:
202,261,209607,2,0,P|119:297|43:261,1,160
47,194,210094,1,0,0:0:0:0:
126,200,210256,2,0,P|159:174|174:122,1,80
55,62,210580,2,0,P|65:100|93:129,1,80
258,129,210905,2,0,P|213:66|136:61,1,160
92,128,211391,1,0,0:0:0:0:
209,205,211553,6,0,P|290:210|342:155,1,160
365,80,212040,1,0,0:0:0:0:
414,196,212202,2,0,L|433:354,1,160
354,339,212688,1,0,0:0:0:0:
276,358,212851,2,0,P|238:369|198:363,1,80
192,222,213175,2,0,P|229:210|269:216,1,80
236,289,213499,1,0,0:0:0:0:
155,295,213661,1,0,0:0:0:0:
107,230,213824,2,0,L|86:197,3,40
111,165,214148,6,0,P|174:131|174:31,1,160
112,84,214634,1,0,0:0:0:0:
239,173,214797,2,0,P|296:225|396:218,1,160
443,184,215283,1,0,0:0:0:0:
440,104,215445,2,0,P|425:47|404:24,1,80
331,28,215769,2,0,P|269:28|243:37,1,80
179,66,216094,1,0,0:0:0:0:
182,146,216256,1,0,0:0:0:0:
257,172,216418,1,0,0:0:0:0:
298,104,216580,1,0,0:0:0:0:
179,66,216742,6,0,P|108:119|128:201,1,160
156,250,217229,1,0,0:0:0:0:
257,172,217391,2,0,P|332:148|415:182,1,160
456,236,217878,1,0,0:0:0:0:
330,235,218040,2,0,B|310:163|366:123|334:66,2,160
190,313,219013,2,0,L|94:324,1,80
58,261,219337,6,0,L|24:223,4,40
120,211,219824,1,0,0:0:0:0:
170,148,219986,2,0,L|188:113,4,40
120,211,220472,1,0,0:0:0:0:
198,226,220634,2,0,P|240:190|252:156,1,80
387,114,220959,2,0,L|307:113,1,80
432,189,221283,2,0,P|474:118|443:48,1,160
367,37,221769,1,0,0:0:0:0:
272,188,221932,6,0,L|432:189,1,160,0|0,0:0|0:0,0:0:0:0:
420,268,222418,1,0,0:0:0:0:
357,317,222580,2,0,L|181:318,1,160
123,285,223067,1,0,0:0:0:0:
158,213,223229,2,0,B|194:187|192:148|192:148|170:102|205:57,2,160
403,145,224202,2,0,P|438:139|491:153,1,80
354,213,224526,6,0,B|318:187|320:148|320:148|342:102|307:57,2,160
228,114,225499,2,0,B|185:93|142:121,1,80
47,215,225824,2,0,P|124:225|191:184,2,160
146,121,226797,2,0,P|161:158|190:184,1,80
228,114,227121,6,0,P|295:77|377:99,1,160
413,164,227607,1,0,0:0:0:0:
388,240,227769,2,0,P|315:272|227:249,1,160
162,231,228256,1,0,0:0:0:0:
119,163,228418,5,0,0:0:0:0:
256,80,228742,1,0,0:0:0:0:
393,163,229067,1,0,0:0:0:0:
256,192,229148,12,0,231013,0:0:0:0:
