osu file format v13

[General]
AudioFilename: ( ).mp3
AudioLeadIn: 0
PreviewTime: 70730
Countdown: 0
SampleSet: Normal
StackLeniency: 0.7
Mode: 1
LetterboxInBreaks: 0
WidescreenStoryboard: 0

[Editor]
DistanceSpacing: 0.8
BeatDivisor: 4
GridSize: 32
TimelineZoom: 3.8

[Metadata]
Title:Otsukimi Recital
TitleUnicode:オツキミリサイタル
Artist:yuikonnu & Hiiragi Yuka
ArtistUnicode:ゆいこんぬ & 柊 優花
Creator:toara_fict
Version:JuDa's Oni
Source:
Tags:Jin nico douga JUDYDANNY short ver vocaloid cover
BeatmapID:296261
BeatmapSetID:113798

[Difficulty]
HPDrainRate:6
CircleSize:4
OverallDifficulty:5
ApproachRate:5
SliderMultiplier:1.4
SliderTickRate:2

[Events]
//Background and Video events
0,0,"BG2.jpg",0,50
//Break Periods
//Storyboard Layer 0 (Background)
//Storyboard Layer 1 (Fail)
//Storyboard Layer 2 (Pass)
//Storyboard Layer 3 (Foreground)
//Storyboard Sound Samples
//Background Colour Transformations
3,100,163,162,255

[TimingPoints]
184,545.454545454546,4,1,0,5,1,0
18261,307.692307692308,4,1,0,30,1,0
19337,-100,4,1,0,50,0,0
29337,-100,4,1,0,60,0,0
37030,-100,4,1,0,50,0,0
58876,-100,4,1,0,40,0,0
62414,-100,4,1,0,50,0,0
62722,-100,4,1,0,60,0,0
63030,-100,4,1,0,70,0,0
63337,-100,4,1,0,50,0,0
68722,-100,4,1,0,60,0,0
71184,-100,4,1,0,80,0,1
90722,-100,4,1,0,80,0,0

[HitObjects]
192,128,19337,5,2,0:0:0:0:
192,128,19414,1,2,0:0:0:0:
192,128,19491,1,0,0:0:0:0:
192,128,19799,5,6,0:0:0:0:
192,128,20414,1,0,0:0:0:0:
192,128,21030,1,0,0:0:0:0:
192,128,21645,1,0,0:0:0:0:
192,128,22261,1,0,0:0:0:0:
192,128,22876,1,0,0:0:0:0:
192,128,23030,1,6,0:0:0:0:
160,192,23337,1,0,0:0:0:0:
192,128,23491,1,0,0:0:0:0:
160,192,23645,1,0,0:0:0:0:
160,192,23953,1,0,0:0:0:0:
160,192,24107,1,0,0:0:0:0:
160,192,24261,1,2,0:0:0:0:
160,192,24337,1,2,0:0:0:0:
160,192,24414,1,0,0:0:0:0:
128,224,24722,5,6,0:0:0:0:
160,224,25337,1,0,0:0:0:0:
160,224,25953,1,0,0:0:0:0:
160,224,26568,1,0,0:0:0:0:
160,96,26722,1,2,0:0:0:0:
192,96,27030,1,0,0:0:0:0:
224,96,27184,1,2,0:0:0:0:
192,96,27491,5,2,0:0:0:0:
192,96,27645,1,0,0:0:0:0:
192,32,27799,5,2,0:0:0:0:
192,32,27953,1,0,0:0:0:0:
192,64,28107,5,2,0:0:0:0:
192,64,28184,1,2,0:0:0:0:
192,64,28261,1,2,0:0:0:0:
192,64,28414,1,0,0:0:0:0:
192,64,28491,1,0,0:0:0:0:
192,64,28568,1,0,0:0:0:0:
192,64,28722,1,6,0:0:0:0:
192,64,28876,1,6,0:0:0:0:
192,64,29337,5,4,0:0:0:0:
192,32,29645,1,6,0:0:0:0:
192,32,29953,1,0,0:0:0:0:
192,32,30030,1,0,0:0:0:0:
192,32,30107,1,0,0:0:0:0:
192,32,30261,1,2,0:0:0:0:
192,32,30414,1,0,0:0:0:0:
192,64,30722,1,0,0:0:0:0:
192,64,30876,1,2,0:0:0:0:
192,64,31030,1,0,0:0:0:0:
192,64,31107,5,0,0:0:0:0:
192,64,31184,5,2,0:0:0:0:
192,64,31337,5,2,0:0:0:0:
480,352,31491,1,0,0:0:0:0:
192,64,31645,1,2,0:0:0:0:
160,64,31953,1,2,0:0:0:0:
416,352,32107,1,0,0:0:0:0:
160,64,32261,1,2,0:0:0:0:
160,64,32568,1,8,0:0:0:0:
160,64,32722,1,0,0:0:0:0:
160,64,32876,1,2,0:0:0:0:
160,64,33030,5,2,0:0:0:0:
160,64,33107,1,2,0:0:0:0:
160,64,33184,1,0,0:0:0:0:
160,64,33337,1,2,0:0:0:0:
160,64,33491,1,0,0:0:0:0:
256,224,33568,1,0,0:0:0:0:
160,64,33645,1,0,0:0:0:0:
384,352,33799,1,2,0:0:0:0:
160,64,33953,1,2,0:0:0:0:
160,64,34107,5,4,0:0:0:0:
192,64,34414,5,0,0:0:0:0:
160,64,34491,1,0,0:0:0:0:
192,64,34568,1,2,0:0:0:0:
160,64,34876,5,0,0:0:0:0:
160,64,35030,1,0,0:0:0:0:
160,64,35184,1,2,0:0:0:0:
160,64,35337,1,0,0:0:0:0:
160,128,35414,1,2,0:0:0:0:
160,128,35491,1,0,0:0:0:0:
160,128,35645,1,0,0:0:0:0:
160,128,35799,1,2,0:0:0:0:
160,128,35953,1,0,0:0:0:0:
160,128,36107,1,2,0:0:0:0:
160,128,36184,1,2,0:0:0:0:
160,128,36261,1,0,0:0:0:0:
160,128,36414,1,2,0:0:0:0:
160,128,36568,5,2,0:0:0:0:
160,128,36645,1,2,0:0:0:0:
160,128,36722,1,2,0:0:0:0:
160,128,37953,1,2,0:0:0:0:
160,128,38261,1,2,0:0:0:0:
160,128,38568,1,2,0:0:0:0:
160,128,38722,1,0,0:0:0:0:
160,128,38876,1,2,0:0:0:0:
416,352,39184,5,0,0:0:0:0:
160,160,39491,1,2,0:0:0:0:
192,160,39799,1,0,0:0:0:0:
160,160,39953,1,0,0:0:0:0:
160,160,40107,1,2,0:0:0:0:
160,160,40414,1,0,0:0:0:0:
160,160,40568,1,0,0:0:0:0:
160,160,40722,1,2,0:0:0:0:
479,63,40876,1,8,0:0:0:0:
160,160,41184,1,0,0:0:0:0:
160,160,41337,1,2,0:0:0:0:
160,160,41645,1,0,0:0:0:0:
160,160,41953,1,2,0:0:0:0:
192,160,42261,1,0,0:0:0:0:
160,160,42414,1,0,0:0:0:0:
160,160,42568,1,2,0:0:0:0:
160,160,42876,1,0,0:0:0:0:
160,160,43030,1,0,0:0:0:0:
160,160,43184,1,2,0:0:0:0:
160,160,43337,5,2,0:0:0:0:
160,96,43491,1,0,0:0:0:0:
160,160,43645,1,0,0:0:0:0:
160,160,43799,1,2,0:0:0:0:
168,104,43953,1,2,0:0:0:0:
160,160,44107,1,0,0:0:0:0:
160,160,44414,1,2,0:0:0:0:
160,160,44568,1,0,0:0:0:0:
160,160,44876,1,0,0:0:0:0:
160,160,45030,1,2,0:0:0:0:
160,160,45184,1,2,0:0:0:0:
160,160,45261,1,2,0:0:0:0:
160,160,45337,1,0,0:0:0:0:
160,160,45491,1,0,0:0:0:0:
160,160,45645,1,2,0:0:0:0:
160,160,45799,1,0,0:0:0:0:
160,160,45876,1,0,0:0:0:0:
160,160,45953,1,0,0:0:0:0:
160,160,46107,1,0,0:0:0:0:
160,160,46261,1,2,0:0:0:0:
160,160,46414,5,2,0:0:0:0:
160,160,46568,1,4,0:0:0:0:
160,96,47030,1,4,0:0:0:0:
160,96,47491,1,6,0:0:0:0:
160,96,47953,1,6,0:0:0:0:
160,128,48261,5,0,0:0:0:0:
160,128,48337,1,0,0:0:0:0:
160,128,48414,1,2,0:0:0:0:
160,128,48568,1,0,0:0:0:0:
160,128,48722,1,2,0:0:0:0:
160,96,48876,1,2,0:0:0:0:
352,352,49030,5,0,0:0:0:0:
160,64,49337,1,6,0:0:0:0:
160,64,49645,1,0,0:0:0:0:
160,64,49799,1,0,0:0:0:0:
160,64,49953,1,2,0:0:0:0:
464,30,50107,1,0,0:0:0:0:
160,64,50261,1,0,0:0:0:0:
160,64,50414,1,0,0:0:0:0:
160,64,50491,1,0,0:0:0:0:
160,64,50568,1,2,0:0:0:0:
192,32,50722,1,0,0:0:0:0:
160,64,51030,5,0,0:0:0:0:
160,64,51184,1,2,0:0:0:0:
160,64,51337,1,2,0:0:0:0:
160,32,51414,1,2,0:0:0:0:
160,64,51491,1,0,0:0:0:0:
160,64,51645,1,0,0:0:0:0:
160,64,51799,1,2,0:0:0:0:
160,64,51953,1,0,0:0:0:0:
160,64,52107,1,0,0:0:0:0:
160,64,52184,1,0,0:0:0:0:
160,64,52261,1,0,0:0:0:0:
160,64,52414,1,2,0:0:0:0:
160,64,52568,1,2,0:0:0:0:
160,64,52645,1,2,0:0:0:0:
160,64,52722,1,0,0:0:0:0:
160,64,52876,5,0,0:0:0:0:
160,64,53030,1,2,0:0:0:0:
160,64,53184,1,2,0:0:0:0:
64,96,53261,1,2,0:0:0:0:
64,96,53337,5,0,0:0:0:0:
160,64,53491,5,0,0:0:0:0:
160,32,53568,1,0,0:0:0:0:
160,64,53645,1,2,0:0:0:0:
160,64,53799,1,2,0:0:0:0:
160,64,53953,5,4,0:0:0:0:
160,64,54261,1,2,0:0:0:0:
160,64,54414,1,0,0:0:0:0:
128,96,54568,1,0,0:0:0:0:
128,96,54722,1,0,0:0:0:0:
160,96,54876,1,2,0:0:0:0:
128,96,55030,5,2,0:0:0:0:
160,96,55107,5,2,0:0:0:0:
160,96,55184,1,0,0:0:0:0:
128,96,55337,5,0,0:0:0:0:
160,32,55491,1,2,0:0:0:0:
160,32,55645,5,0,0:0:0:0:
160,64,55722,1,0,0:0:0:0:
160,64,55799,1,2,0:0:0:0:
160,64,55953,1,2,0:0:0:0:
128,64,56107,1,2,0:0:0:0:
160,32,56261,5,4,0:0:0:0:
192,128,56568,5,0,0:0:0:0:
192,128,56722,1,0,0:0:0:0:
192,128,56876,1,2,0:0:0:0:
192,128,57030,5,0,0:0:0:0:
192,128,57184,1,2,0:0:0:0:
192,128,57337,1,2,0:0:0:0:
192,128,57491,5,6,0:0:0:0:
192,160,57799,1,4,0:0:0:0:
192,160,58107,1,4,0:0:0:0:
192,160,58414,1,2,0:0:0:0:
192,160,58568,1,2,0:0:0:0:
160,32,58722,1,2,0:0:0:0:
160,32,58799,1,2,0:0:0:0:
192,160,58876,5,0,0:0:0:0:
192,0,59184,1,2,0:0:0:0:
192,96,59337,1,0,0:0:0:0:
192,32,59645,1,0,0:0:0:0:
192,96,59799,1,2,0:0:0:0:
192,128,59953,1,2,0:0:0:0:
192,96,60107,1,0,0:0:0:0:
192,96,60414,1,2,0:0:0:0:
192,96,60568,1,0,0:0:0:0:
192,96,60876,1,0,0:0:0:0:
192,96,61030,1,2,0:0:0:0:
192,128,61184,1,2,0:0:0:0:
160,128,61337,5,0,0:0:0:0:
128,64,61491,1,0,0:0:0:0:
128,64,61645,1,2,0:0:0:0:
160,128,61799,1,2,0:0:0:0:
160,128,61876,1,2,0:0:0:0:
160,128,61953,1,0,0:0:0:0:
160,128,62107,1,2,0:0:0:0:
160,128,62261,1,2,0:0:0:0:
160,96,62414,5,4,0:0:0:0:
160,96,62722,1,4,0:0:0:0:
160,96,63030,1,6,0:0:0:0:
192,192,63337,1,0,0:0:0:0:
160,160,63491,1,2,0:0:0:0:
128,192,63645,1,0,0:0:0:0:
128,192,63799,1,6,0:0:0:0:
192,128,64107,1,2,0:0:0:0:
192,160,64261,1,0,0:0:0:0:
192,160,64568,1,0,0:0:0:0:
192,160,64722,1,2,0:0:0:0:
189,87,64876,1,2,0:0:0:0:
160,64,65030,1,0,0:0:0:0:
160,64,65337,1,2,0:0:0:0:
160,64,65491,1,0,0:0:0:0:
160,64,65645,1,0,0:0:0:0:
160,64,65799,1,0,0:0:0:0:
160,64,65953,1,2,0:0:0:0:
160,64,66107,1,2,0:0:0:0:
160,64,66261,5,4,0:0:0:0:
192,128,66568,1,2,0:0:0:0:
224,128,66722,1,0,0:0:0:0:
224,128,66799,1,0,0:0:0:0:
224,128,66876,1,0,0:0:0:0:
224,128,67030,1,0,0:0:0:0:
224,128,67184,1,2,0:0:0:0:
160,96,67337,1,0,0:0:0:0:
192,128,67491,5,2,0:0:0:0:
192,128,67645,1,0,0:0:0:0:
192,128,67799,1,2,0:0:0:0:
192,128,67953,1,0,0:0:0:0:
192,128,68030,1,0,0:0:0:0:
192,128,68107,1,0,0:0:0:0:
192,128,68261,1,0,0:0:0:0:
192,128,68414,1,2,0:0:0:0:
192,192,68568,1,0,0:0:0:0:
192,192,68722,5,6,0:0:0:0:
192,96,68876,1,0,0:0:0:0:
192,64,68953,1,0,0:0:0:0:
160,128,69030,1,2,0:0:0:0:
160,128,69184,1,0,0:0:0:0:
160,96,69337,1,2,0:0:0:0:
160,96,69491,1,0,0:0:0:0:
160,128,69568,1,0,0:0:0:0:
160,96,69645,1,2,0:0:0:0:
160,64,69799,1,4,0:0:0:0:
160,128,70107,5,0,0:0:0:0:
160,128,70261,1,0,0:0:0:0:
160,128,70414,1,0,0:0:0:0:
160,128,70568,1,2,0:0:0:0:
160,128,70722,1,0,0:0:0:0:
160,128,70799,1,0,0:0:0:0:
160,128,70876,1,2,0:0:0:0:
160,128,70953,1,2,0:0:0:0:
160,128,71030,1,2,0:0:0:0:
160,128,71184,5,4,0:0:0:0:
192,96,71491,1,2,0:0:0:0:
192,96,71645,1,2,0:0:0:0:
192,96,71722,1,2,0:0:0:0:
192,96,71799,1,0,0:0:0:0:
192,96,71953,1,0,0:0:0:0:
192,96,72107,1,2,0:0:0:0:
192,96,72261,1,0,0:0:0:0:
192,96,72337,1,0,0:0:0:0:
192,96,72414,1,2,0:0:0:0:
160,64,72568,1,0,0:0:0:0:
160,96,72722,1,2,0:0:0:0:
160,96,72876,1,2,0:0:0:0:
192,128,72953,1,2,0:0:0:0:
160,96,73030,1,0,0:0:0:0:
160,96,73184,1,0,0:0:0:0:
160,96,73337,1,2,0:0:0:0:
160,96,73645,5,0,0:0:0:0:
160,64,73799,1,0,0:0:0:0:
160,64,73953,1,2,0:0:0:0:
160,64,74107,1,2,0:0:0:0:
224,64,74261,1,0,0:0:0:0:
192,160,74414,1,2,0:0:0:0:
224,64,74491,1,2,0:0:0:0:
192,160,74568,1,2,0:0:0:0:
192,160,74722,1,0,0:0:0:0:
189,132,74799,1,0,0:0:0:0:
224,160,74876,1,2,0:0:0:0:
192,96,75030,1,0,0:0:0:0:
192,96,75184,1,2,0:0:0:0:
192,160,75337,1,2,0:0:0:0:
192,160,75414,1,2,0:0:0:0:
192,160,75491,1,0,0:0:0:0:
192,160,75645,1,0,0:0:0:0:
192,160,75799,1,2,0:0:0:0:
192,96,75953,1,2,0:0:0:0:
64,320,76107,5,4,0:0:0:0:
160,320,76414,1,2,0:0:0:0:
256,320,76568,1,0,0:0:0:0:
352,320,76645,5,0,0:0:0:0:
352,224,76722,1,0,0:0:0:0:
64,224,76876,5,0,0:0:0:0:
160,224,77030,1,2,0:0:0:0:
256,224,77184,1,0,0:0:0:0:
256,128,77491,1,2,0:0:0:0:
160,128,77645,1,2,0:0:0:0:
64,128,77799,1,0,0:0:0:0:
64,32,78107,5,0,0:0:0:0:
160,32,78261,1,2,0:0:0:0:
256,32,78414,1,4,0:0:0:0:
352,192,78722,5,0,0:0:0:0:
256,320,78876,5,2,0:0:0:0:
160,320,79030,1,2,0:0:0:0:
180,49,79107,1,2,0:0:0:0:
181,52,79184,1,0,0:0:0:0:
64,224,79337,5,0,0:0:0:0:
160,224,79491,1,2,0:0:0:0:
256,224,79645,1,6,0:0:0:0:
168,50,79953,1,2,0:0:0:0:
160,64,80107,1,2,0:0:0:0:
168,50,80261,1,0,0:0:0:0:
160,32,80414,1,2,0:0:0:0:
160,64,80568,1,0,0:0:0:0:
160,64,80645,1,0,0:0:0:0:
160,64,80722,1,2,0:0:0:0:
160,64,80799,1,2,0:0:0:0:
160,64,80876,1,2,0:0:0:0:
160,128,81030,5,4,0:0:0:0:
192,96,81337,1,2,0:0:0:0:
192,96,81491,1,2,0:0:0:0:
192,96,81568,1,2,0:0:0:0:
192,96,81645,1,0,0:0:0:0:
192,96,81799,1,0,0:0:0:0:
160,64,81953,1,2,0:0:0:0:
192,96,82107,1,0,0:0:0:0:
192,64,82184,1,0,0:0:0:0:
160,64,82261,1,0,0:0:0:0:
160,64,82414,1,0,0:0:0:0:
160,96,82568,1,2,0:0:0:0:
160,96,82722,1,0,0:0:0:0:
185,57,82799,1,0,0:0:0:0:
160,96,82876,1,2,0:0:0:0:
160,96,83030,1,0,0:0:0:0:
192,64,83107,1,0,0:0:0:0:
160,96,83184,1,2,0:0:0:0:
208,82,83337,1,0,0:0:0:0:
160,96,83491,5,2,0:0:0:0:
208,82,83568,1,2,0:0:0:0:
192,32,83645,1,0,0:0:0:0:
208,82,83722,1,0,0:0:0:0:
192,32,83799,1,2,0:0:0:0:
192,32,83953,1,2,0:0:0:0:
128,192,84107,1,0,0:0:0:0:
192,128,84261,1,2,0:0:0:0:
192,160,84414,1,2,0:0:0:0:
192,64,84568,1,0,0:0:0:0:
160,128,84645,1,0,0:0:0:0:
160,128,84722,1,2,0:0:0:0:
192,96,84799,1,2,0:0:0:0:
192,96,84876,1,0,0:0:0:0:
192,96,85030,1,2,0:0:0:0:
180,41,85184,1,2,0:0:0:0:
180,41,85261,1,2,0:0:0:0:
192,160,85337,1,0,0:0:0:0:
192,160,85491,1,0,0:0:0:0:
192,160,85645,1,2,0:0:0:0:
160,32,85722,1,2,0:0:0:0:
190,103,85799,1,2,0:0:0:0:
192,160,85953,1,4,0:0:0:0:
160,64,86261,1,2,0:0:0:0:
160,64,86414,1,2,0:0:0:0:
160,64,86491,1,2,0:0:0:0:
160,64,86568,1,0,0:0:0:0:
160,64,86722,1,0,0:0:0:0:
160,64,86876,1,2,0:0:0:0:
160,64,87030,1,0,0:0:0:0:
192,96,87337,1,2,0:0:0:0:
192,96,87491,1,0,0:0:0:0:
192,96,87645,1,2,0:0:0:0:
160,96,87953,1,2,0:0:0:0:
192,96,88107,1,0,0:0:0:0:
192,96,88261,1,2,0:0:0:0:
160,64,88414,5,4,0:0:0:0:
160,64,88722,1,2,0:0:0:0:
160,32,88876,1,2,0:0:0:0:
192,32,88953,1,2,0:0:0:0:
160,32,89030,1,0,0:0:0:0:
160,96,89184,1,0,0:0:0:0:
160,64,89337,1,2,0:0:0:0:
192,64,89491,1,0,0:0:0:0:
160,64,89568,1,0,0:0:0:0:
192,64,89645,5,2,0:0:0:0:
160,96,89799,1,0,0:0:0:0:
160,64,89953,1,2,0:0:0:0:
192,64,90107,5,2,0:0:0:0:
192,64,90184,1,2,0:0:0:0:
160,32,90261,1,0,0:0:0:0:
160,64,90337,1,0,0:0:0:0:
160,64,90414,1,2,0:0:0:0:
160,64,90568,1,2,0:0:0:0:
160,64,90722,1,0,0:0:0:0:
192,128,91030,1,0,0:0:0:0:
192,128,91184,1,6,0:0:0:0:
