osu file format v13

[General]
AudioFilename: ( ).mp3
AudioLeadIn: 0
PreviewTime: 70730
Countdown: 0
SampleSet: Normal
StackLeniency: 0.7
Mode: 1
LetterboxInBreaks: 0
WidescreenStoryboard: 1

[Editor]
DistanceSpacing: 0.8
BeatDivisor: 2
GridSize: 32
TimelineZoom: 0.8999999

[Metadata]
Title:Otsukimi Recital
TitleUnicode:オツキミリサイタル
Artist:yuikonnu & Hiiragi Yuka
ArtistUnicode:ゆいこんぬ & 柊 優花
Creator:toara_fict
Version:Futsuu
Source:
Tags:Jin nico douga JUDYDANNY short ver vocaloid cover
BeatmapID:458735
BeatmapSetID:113798

[Difficulty]
HPDrainRate:4
CircleSize:6
OverallDifficulty:4
ApproachRate:8
SliderMultiplier:1.4
SliderTickRate:1

[Events]
//Background and Video events
0,0,"BG2.jpg",0,50
//Break Periods
//Storyboard Layer 0 (Background)
//Storyboard Layer 1 (Fail)
//Storyboard Layer 2 (Pass)
//Storyboard Layer 3 (Foreground)
//Storyboard Sound Samples
//Background Colour Transformations
3,100,163,162,255

[TimingPoints]
184,545.454545454546,4,1,0,5,1,0
18261,307.692307692308,4,1,0,30,1,0
19337,-100,4,1,0,50,0,0
29337,-100,4,1,0,60,0,0
39184,-100,4,1,0,50,0,0
58876,-100,4,1,0,40,0,0
62414,-100,4,1,0,50,0,0
62722,-100,4,1,0,60,0,0
63030,-100,4,1,0,70,0,0
63337,-100,4,1,0,50,0,0
68722,-100,4,1,0,60,0,0
71184,-100,4,1,0,70,0,1
90722,-100,4,1,0,60,0,0

[HitObjects]
192,128,18261,5,0,0:0:0:0:
192,128,18876,1,0,0:0:0:0:
320,256,19491,1,12,0:0:0:0:
320,256,19799,1,12,0:0:0:0:
192,128,20414,1,0,0:0:0:0:
192,128,21030,1,0,0:0:0:0:
192,128,21645,1,0,0:0:0:0:
192,128,22261,1,0,0:0:0:0:
192,256,23030,1,4,0:0:0:0:
192,128,23799,1,0,0:0:0:0:
320,256,24414,1,12,0:0:0:0:
320,256,24722,1,12,0:0:0:0:
192,128,25337,1,0,0:0:0:0:
192,128,25953,1,0,0:0:0:0:
192,128,26568,1,0,0:0:0:0:
320,128,26876,1,8,0:0:0:0:
192,128,27184,1,0,0:0:0:0:
192,128,27799,1,0,0:0:0:0:
320,128,28107,1,8,0:0:0:0:
192,128,28414,1,0,0:0:0:0:
320,128,28722,1,8,0:0:0:0:
320,128,28876,1,8,0:0:0:0:
192,128,29337,1,0,0:0:0:0:
320,256,29645,1,12,0:0:0:0:
320,128,30261,1,8,0:0:0:0:
320,128,30876,1,8,0:0:0:0:
320,128,31491,1,8,0:0:0:0:
192,128,31799,1,0,0:0:0:0:
320,128,32107,1,8,0:0:0:0:
320,128,32722,1,8,0:0:0:0:
320,128,33030,1,8,0:0:0:0:
320,128,33491,1,8,0:0:0:0:
192,128,33953,1,0,0:0:0:0:
320,256,34568,1,12,0:0:0:0:
192,128,34876,1,0,0:0:0:0:
320,128,35491,1,8,0:0:0:0:
192,128,36107,1,0,0:0:0:0:
320,256,36568,1,12,0:0:0:0:
320,128,37953,1,8,0:0:0:0:
320,128,38568,1,8,0:0:0:0:
192,256,39184,1,4,0:0:0:0:
192,128,39491,1,0,0:0:0:0:
192,128,39799,1,0,0:0:0:0:
288,160,40414,1,8,0:0:0:0:
288,160,41030,1,8,0:0:0:0:
288,160,41645,1,8,0:0:0:0:
192,128,41953,1,0,0:0:0:0:
320,128,42261,1,8,0:0:0:0:
224,160,42876,1,0,0:0:0:0:
192,128,43491,1,0,0:0:0:0:
192,128,44107,1,0,0:0:0:0:
320,128,44414,1,8,0:0:0:0:
192,128,44722,1,0,0:0:0:0:
192,128,45337,1,0,0:0:0:0:
320,128,45953,1,8,0:0:0:0:
320,128,46261,1,8,0:0:0:0:
192,256,46568,5,4,0:0:0:0:
320,256,47491,1,12,0:0:0:0:
320,128,48414,1,8,0:0:0:0:
320,128,48722,1,8,0:0:0:0:
192,256,49030,1,4,0:0:0:0:
320,128,49645,1,8,0:0:0:0:
320,128,50261,1,0,0:0:0:0:
320,128,50568,1,8,0:0:0:0:
192,128,50876,1,0,0:0:0:0:
320,128,51491,1,8,0:0:0:0:
192,128,51799,1,0,0:0:0:0:
320,128,52107,1,8,0:0:0:0:
192,128,52722,1,0,0:0:0:0:
192,128,53953,1,0,0:0:0:0:
320,128,54261,1,8,0:0:0:0:
192,128,54568,1,0,0:0:0:0:
192,128,55184,1,0,0:0:0:0:
192,128,55645,1,0,0:0:0:0:
320,256,56107,1,8,0:0:0:0:
192,128,56722,1,0,0:0:0:0:
192,128,57030,1,0,0:0:0:0:
192,128,57337,1,0,0:0:0:0:
320,128,57491,1,8,0:0:0:0:
192,256,57799,5,4,0:0:0:0:
192,256,58107,1,4,0:0:0:0:
320,128,58568,1,8,0:0:0:0:
192,256,58876,1,4,0:0:0:0:
320,128,59799,1,8,0:0:0:0:
256,192,60107,1,0,0:0:0:0:
192,128,61030,1,8,0:0:0:0:
192,128,61337,1,0,0:0:0:0:
192,256,62414,1,4,0:0:0:0:
320,256,62722,1,12,0:0:0:0:
320,256,63030,1,12,0:0:0:0:
192,128,63799,1,0,0:0:0:0:
320,128,64722,1,8,0:0:0:0:
256,192,65030,1,0,0:0:0:0:
320,128,65953,1,8,0:0:0:0:
192,256,66261,1,4,0:0:0:0:
320,128,66876,1,8,0:0:0:0:
192,128,67491,1,0,0:0:0:0:
192,128,67799,1,0,0:0:0:0:
320,128,68107,1,8,0:0:0:0:
320,128,68722,1,8,0:0:0:0:
320,128,69030,1,8,0:0:0:0:
192,128,69337,1,0,0:0:0:0:
320,128,69645,1,8,0:0:0:0:
320,128,69799,1,8,0:0:0:0:
192,128,70261,1,0,0:0:0:0:
320,128,70568,1,0,0:0:0:0:
192,128,70722,1,0,0:0:0:0:
192,128,70876,1,0,0:0:0:0:
192,128,71184,1,0,0:0:0:0:
320,256,71491,1,12,0:0:0:0:
320,128,72107,1,8,0:0:0:0:
320,128,72722,1,8,0:0:0:0:
320,128,73030,1,8,0:0:0:0:
320,128,73338,1,8,0:0:0:0:
320,128,73645,1,0,0:0:0:0:
320,128,73953,1,8,0:0:0:0:
320,128,74568,1,8,0:0:0:0:
320,128,75184,1,8,0:0:0:0:
192,128,75491,1,0,0:0:0:0:
192,128,75799,1,0,0:0:0:0:
192,128,76107,1,0,0:0:0:0:
320,128,76414,1,8,0:0:0:0:
320,128,77030,1,8,0:0:0:0:
320,128,77645,1,8,0:0:0:0:
320,128,78261,1,8,0:0:0:0:
320,128,78414,1,8,0:0:0:0:
320,128,78876,1,8,0:0:0:0:
192,128,79184,1,0,0:0:0:0:
192,128,79645,1,8,0:0:0:0:
192,128,80107,1,0,0:0:0:0:
192,128,80414,1,0,0:0:0:0:
192,128,80722,1,8,0:0:0:0:
192,128,81030,1,0,0:0:0:0:
320,256,81337,1,12,0:0:0:0:
320,128,81953,1,8,0:0:0:0:
320,128,82568,1,8,0:0:0:0:
192,128,82876,1,0,0:0:0:0:
320,128,83184,1,8,0:0:0:0:
192,128,83491,1,0,0:0:0:0:
320,128,83799,1,8,0:0:0:0:
320,128,84414,1,8,0:0:0:0:
320,128,85030,1,8,0:0:0:0:
192,128,85337,1,0,0:0:0:0:
320,128,85645,1,8,0:0:0:0:
192,128,85953,1,0,0:0:0:0:
192,128,86568,1,0,0:0:0:0:
320,128,87030,1,8,0:0:0:0:
192,128,87491,1,8,0:0:0:0:
320,128,87645,1,8,0:0:0:0:
192,128,88107,1,0,0:0:0:0:
192,128,88414,1,0,0:0:0:0:
192,128,89030,1,0,0:0:0:0:
320,128,89337,1,8,0:0:0:0:
192,128,89645,1,0,0:0:0:0:
320,128,90261,1,8,0:0:0:0:
320,256,90722,1,4,0:0:0:0:
