osu file format v13

[General]
AudioFilename: tld_life.mp3
AudioLeadIn: 0
PreviewTime: 30426
Countdown: 0
SampleSet: Soft
StackLeniency: 0.7
Mode: 0
LetterboxInBreaks: 1
WidescreenStoryboard: 0

[Editor]
DistanceSpacing: 2
BeatDivisor: 4
GridSize: 16
TimelineZoom: 2.4

[Metadata]
Title:the lost dedicated
TitleUnicode:the lost dedicated
Artist:yst
ArtistUnicode:yst
Creator:spro
Version:jump
Source:THE BMS OF FIGHTERS 2010 - The Evolution of War -
Tags:BMS
BeatmapID:462736
BeatmapSetID:194923

[Difficulty]
HPDrainRate:3
CircleSize:4
OverallDifficulty:8.7
ApproachRate:9.3
SliderMultiplier:2
SliderTickRate:1

[Events]
//Background and Video events
0,0,"aaa.jpg",0,0
//Break Periods
2,75402,87633
//Storyboard Layer 0 (Background)
//Storyboard Layer 1 (Fail)
//Storyboard Layer 2 (Pass)
//Storyboard Layer 3 (Foreground)
//Storyboard Sound Samples
//Background Colour Transformations
3,100,0,0,0

[TimingPoints]
1770,447.761194029851,4,2,1,20,1,0
30426,-66.6666666666667,4,2,1,20,0,0
102068,-50,4,2,1,20,0,1
116396,-50,4,2,1,20,0,0

[HitObjects]
320,144,1770,5,2,0:0:0:0:
32,240,2441,1,0,0:0:0:0:
128,208,2665,1,0,0:0:0:0:
224,176,2889,1,0,0:0:0:0:
320,144,3113,1,0,0:0:0:0:
304,240,3561,5,2,0:0:0:0:
40,360,4232,1,0,0:0:0:0:
128,320,4456,1,0,0:0:0:0:
216,280,4680,1,0,0:0:0:0:
392,200,4904,1,0,0:0:0:0:
320,88,5352,5,2,0:0:0:0:
56,208,6023,1,0,0:0:0:0:
144,168,6247,1,0,0:0:0:0:
232,128,6471,1,0,0:0:0:0:
320,88,6695,1,0,0:0:0:0:
280,224,7143,5,2,0:0:0:0:
104,320,7814,1,0,0:0:0:0:
192,272,8038,1,0,0:0:0:0:
280,224,8262,1,0,0:0:0:0:
456,128,8486,1,0,0:0:0:0:
368,176,8710,1,0,0:0:0:0:
280,224,8934,1,2,0:0:0:0:
80,200,9605,5,0,0:0:0:0:
184,200,9829,1,0,0:0:0:0:
288,200,10053,1,0,0:0:0:0:
376,152,10277,1,0,0:0:0:0:
464,200,10725,5,2,0:0:0:0:
80,200,11396,1,0,0:0:0:0:
184,200,11620,1,0,0:0:0:0:
288,200,11844,1,0,0:0:0:0:
376,64,12068,1,0,0:0:0:0:
464,200,12516,5,2,0:0:0:0:
80,200,13187,1,0,0:0:0:0:
184,200,13411,1,0,0:0:0:0:
288,200,13635,1,0,0:0:0:0:
376,144,13859,1,0,0:0:0:0:
464,200,14307,5,2,0:0:0:0:
80,200,14978,1,0,0:0:0:0:
184,200,15202,1,0,0:0:0:0:
288,200,15426,1,0,0:0:0:0:
464,200,15650,1,0,0:0:0:0:
288,200,15874,1,0,0:0:0:0:
184,200,16098,5,2,1:2:0:0:
112,168,16210,1,0,0:0:0:0:
104,96,16322,1,0,0:0:0:0:
112,168,16434,1,0,0:0:0:0:
184,200,16546,1,0,1:2:0:0:
256,120,16770,1,0,0:0:0:0:
320,200,16993,5,0,1:2:0:0:
376,256,17105,1,0,0:0:0:0:
424,312,17217,1,0,0:0:0:0:
448,152,17441,1,0,1:2:0:0:
392,96,17553,1,0,0:0:0:0:
344,40,17665,1,0,0:0:0:0:
216,96,17889,5,2,1:2:0:0:
144,120,18001,1,0,0:0:0:0:
72,96,18113,1,0,0:0:0:0:
24,152,18225,1,0,0:0:0:0:
48,224,18337,1,0,1:2:0:0:
200,224,18561,1,0,0:0:0:0:
336,296,18784,5,0,1:2:0:0:
456,208,19008,1,0,0:0:0:0:
448,136,19120,1,0,0:0:0:0:
440,64,19232,1,0,1:2:0:0:
320,184,19456,1,0,0:0:0:0:
224,312,19680,5,2,1:2:0:0:
152,336,19792,1,0,0:0:0:0:
80,320,19904,1,0,0:0:0:0:
136,112,20128,1,0,1:2:0:0:
224,312,20352,5,0,0:0:0:0:
152,336,20464,1,0,0:0:0:0:
80,320,20575,1,0,1:2:0:0:
184,184,20799,1,0,0:0:0:0:
320,288,21023,1,0,1:2:0:0:
432,160,21247,1,0,0:0:0:0:
320,288,21471,5,2,1:2:0:0:
328,216,21583,1,0,0:0:0:0:
336,144,21695,1,0,0:0:0:0:
344,72,21807,1,0,0:0:0:0:
352,0,21919,1,0,1:2:0:0:
224,72,22143,1,0,0:0:0:0:
216,144,22255,1,0,0:0:0:0:
208,216,22367,5,0,1:2:0:0:
216,144,22478,1,0,0:0:0:0:
224,72,22590,1,0,0:0:0:0:
88,320,22814,1,0,1:2:0:0:
96,248,22926,1,0,0:0:0:0:
104,176,23038,1,0,0:0:0:0:
80,80,23262,5,0,1:2:0:0:
152,104,23374,1,0,0:0:0:0:
352,64,23486,1,2,0:0:0:0:
432,304,23710,5,0,1:2:0:0:
360,280,23822,1,0,0:0:0:0:
160,320,23934,1,2,0:0:0:0:
432,88,24158,5,0,1:2:0:0:
408,160,24270,1,0,0:0:0:0:
232,80,24382,1,2,0:0:0:0:
80,296,24605,5,0,1:2:0:0:
104,224,24717,1,0,0:0:0:0:
280,304,24829,1,2,0:0:0:0:
232,160,25053,5,0,1:2:0:0:
144,168,25165,1,0,0:0:0:0:
56,32,25277,1,2,0:0:0:0:
280,224,25501,5,0,1:2:0:0:
368,216,25613,1,0,0:0:0:0:
456,352,25725,1,2,0:0:0:0:
296,256,25949,5,0,1:2:0:0:
312,184,26061,1,0,0:0:0:0:
424,64,26172,1,2,0:0:0:0:
216,128,26396,5,0,1:2:0:0:
200,200,26508,1,0,0:0:0:0:
88,320,26619,1,2,0:0:0:0:
112,72,26844,5,0,1:2:0:0:
184,56,26956,1,0,0:0:0:0:
24,120,27068,1,2,0:0:0:0:
248,144,27292,5,0,1:2:0:0:
176,136,27404,1,0,0:0:0:0:
336,184,27516,1,2,0:0:0:0:
288,264,27740,5,0,1:2:0:0:
360,248,27852,1,0,0:0:0:0:
208,312,27964,1,2,0:0:0:0:
416,328,28187,5,0,1:2:0:0:
344,320,28299,1,0,0:0:0:0:
496,368,28411,1,2,0:0:0:0:
192,248,28635,5,0,1:2:0:0:
80,168,29307,5,0,0:0:0:0:
152,152,29531,1,0,0:0:0:0:
224,168,29755,1,0,0:0:0:0:
296,152,29978,1,2,0:0:0:0:
368,168,30202,1,0,0:0:0:0:
440,152,30426,5,0,1:0:0:0:
320,64,30538,1,0,0:0:0:0:
72,232,30650,1,2,0:0:0:0:
192,320,30762,1,0,0:0:0:0:
288,256,30874,5,0,1:0:0:0:
320,160,30986,1,0,0:0:0:0:
224,128,31098,1,2,0:0:0:0:
192,224,31210,1,0,0:0:0:0:
288,352,31322,5,0,1:0:0:0:
384,256,31434,1,0,0:0:0:0:
224,32,31546,1,2,0:0:0:0:
128,128,31658,1,0,0:0:0:0:
272,208,31770,5,0,1:0:0:0:
272,176,31881,1,0,0:0:0:0:
240,176,31993,1,2,0:0:0:0:
240,208,32105,1,0,0:0:0:0:
368,304,32217,5,0,1:0:0:0:
480,192,32329,1,0,0:0:0:0:
448,64,32441,1,2,0:0:0:0:
480,192,32553,1,0,0:0:0:0:
368,304,32665,5,0,1:0:0:0:
224,256,32777,1,0,0:0:0:0:
96,352,32889,1,2,0:0:0:0:
224,256,33001,1,0,0:0:0:0:
368,304,33113,5,0,1:0:0:0:
416,256,33225,1,0,0:0:0:0:
480,256,33337,1,2,0:0:0:0:
416,256,33449,1,0,0:0:0:0:
368,304,33561,5,0,1:0:0:0:
312,320,33672,1,0,0:0:0:0:
256,304,33784,1,2,0:0:0:0:
312,320,33896,1,0,1:0:0:0:
368,304,34008,5,0,1:0:0:0:
288,192,34120,1,0,0:0:0:0:
480,160,34232,1,2,0:0:0:0:
400,48,34344,1,0,0:0:0:0:
96,144,34456,5,0,1:0:0:0:
176,128,34568,1,0,0:0:0:0:
256,112,34680,1,2,0:0:0:0:
336,96,34792,1,0,0:0:0:0:
128,48,34904,5,0,1:0:0:0:
80,240,35016,1,0,0:0:0:0:
160,352,35128,1,2,0:0:0:0:
208,160,35240,1,0,0:0:0:0:
432,288,35352,5,0,1:0:0:0:
352,272,35464,1,0,0:0:0:0:
272,256,35575,1,2,0:0:0:0:
192,240,35687,1,0,0:0:0:0:
416,192,35799,5,0,1:0:0:0:
480,64,35911,1,0,0:0:0:0:
416,192,36023,1,2,0:0:0:0:
288,128,36135,1,0,0:0:0:0:
288,336,36247,5,0,1:0:0:0:
292,328,36359,1,0,0:0:0:0:
296,320,36471,1,2,0:0:0:0:
300,312,36583,1,0,0:0:0:0:
64,176,36695,5,0,1:0:0:0:
192,80,36807,1,0,0:0:0:0:
160,256,36919,1,2,0:0:0:0:
288,160,37031,1,0,0:0:0:0:
480,288,37143,5,0,1:0:0:0:
400,272,37255,1,0,0:0:0:0:
320,256,37367,1,2,0:0:0:0:
240,240,37478,1,0,1:0:0:0:
160,224,37590,1,0,1:0:0:0:
464,64,38038,5,4,1:2:0:0:
112,112,38150,1,0,0:0:0:0:
240,80,38262,1,2,0:0:0:0:
112,112,38374,1,0,0:0:0:0:
208,272,38486,5,0,1:2:0:0:
96,256,38598,1,0,0:0:0:0:
32,352,38710,1,2,0:0:0:0:
96,256,38822,1,0,0:0:0:0:
208,272,38934,5,0,1:2:0:0:
384,224,39046,1,0,0:0:0:0:
304,272,39158,1,2,0:0:0:0:
480,224,39270,1,0,0:0:0:0:
368,336,39381,5,0,1:2:0:0:
288,144,39493,1,0,0:0:0:0:
80,48,39605,1,2,0:0:0:0:
160,240,39717,1,0,0:0:0:0:
432,144,39829,5,0,1:2:0:0:
480,64,39941,1,0,0:0:0:0:
400,16,40053,1,2,0:0:0:0:
352,96,40165,1,0,0:0:0:0:
64,144,40277,5,0,1:2:0:0:
224,176,40389,1,0,0:0:0:0:
64,144,40501,1,2,0:0:0:0:
224,176,40613,1,0,0:0:0:0:
192,304,40725,5,0,1:2:0:0:
320,272,40837,1,0,0:0:0:0:
192,304,40949,1,2,0:0:0:0:
320,272,41061,1,0,1:0:0:0:
432,128,41172,5,0,1:0:0:0:
384,336,41284,1,0,0:0:0:0:
304,208,41396,1,2,0:0:0:0:
512,256,41508,1,0,0:0:0:0:
192,208,41620,5,0,1:0:0:0:
176,64,41732,1,0,0:0:0:0:
256,128,41844,1,2,0:0:0:0:
112,144,41956,1,0,0:0:0:0:
64,304,42068,5,0,1:0:0:0:
144,272,42180,1,0,0:0:0:0:
240,320,42292,1,2,0:0:0:0:
320,288,42404,1,0,0:0:0:0:
464,144,42516,5,0,1:0:0:0:
448,240,42628,1,0,0:0:0:0:
400,304,42740,1,2,0:0:0:0:
416,208,42852,1,0,0:0:0:0:
352,80,42964,5,0,1:0:0:0:
240,48,43075,1,0,0:0:0:0:
48,160,43187,1,2,0:0:0:0:
160,144,43299,1,0,0:0:0:0:
272,288,43411,5,0,1:0:0:0:
288,160,43523,1,0,0:0:0:0:
272,320,43635,1,2,0:0:0:0:
288,192,43747,1,0,0:0:0:0:
432,304,43859,5,0,1:0:0:0:
320,288,43971,1,0,0:0:0:0:
208,272,44083,1,2,0:0:0:0:
96,256,44195,1,0,0:0:0:0:
217,78,44307,5,0,1:0:0:0:
216,87,44419,1,0,0:0:0:0:
216,96,44531,1,2,0:0:0:0:
215,104,44643,1,0,1:2:0:0:
214,113,44755,1,4,1:2:0:0:
336,80,44978,5,0,0:0:0:0:
336,176,45090,1,0,0:0:0:0:
432,64,45202,1,0,1:0:0:0:
240,192,45314,1,0,0:0:0:0:
432,64,45426,1,0,0:0:0:0:
240,192,45538,1,0,0:0:0:0:
432,64,45650,1,0,1:0:0:0:
48,272,45874,5,2,0:0:0:0:
256,304,45986,1,0,0:0:0:0:
176,336,46098,1,0,1:0:0:0:
256,320,46210,1,0,0:0:0:0:
336,304,46322,1,0,0:0:0:0:
416,288,46434,1,0,0:0:0:0:
496,272,46546,1,0,1:0:0:0:
176,96,46770,5,0,0:0:0:0:
288,144,46881,1,0,0:0:0:0:
96,128,46993,1,0,1:0:0:0:
368,112,47105,1,0,0:0:0:0:
96,128,47217,1,0,0:0:0:0:
368,112,47329,1,0,0:0:0:0:
96,128,47441,1,0,1:0:0:0:
224,240,47665,5,2,0:0:0:0:
240,48,47777,1,0,0:0:0:0:
368,208,47889,1,0,1:0:0:0:
288,208,48001,1,0,0:0:0:0:
208,208,48113,1,0,0:0:0:0:
128,208,48225,1,0,1:0:0:0:
48,208,48337,1,0,1:0:0:0:
432,160,48561,5,0,0:0:0:0:
416,352,48672,1,0,0:0:0:0:
344,240,48784,1,0,1:0:0:0:
504,272,48896,1,0,0:0:0:0:
344,240,49008,1,0,0:0:0:0:
504,272,49120,1,0,0:0:0:0:
344,240,49232,1,0,1:0:0:0:
192,80,49456,5,2,0:0:0:0:
352,192,49568,1,0,0:0:0:0:
432,48,49680,1,0,1:0:0:0:
304,80,49792,1,0,0:0:0:0:
256,192,49904,1,0,0:0:0:0:
176,288,50016,1,0,0:0:0:0:
48,304,50128,1,0,1:0:0:0:
160,160,50352,5,0,0:0:0:0:
256,64,50464,1,0,0:0:0:0:
128,64,50575,1,0,1:2:0:0:
288,160,50687,1,0,0:0:0:0:
128,64,50799,1,0,0:0:0:0:
288,160,50911,1,0,0:0:0:0:
128,64,51023,5,2,1:2:0:0:
224,112,51135,1,0,0:0:0:0:
176,208,51247,1,2,0:0:0:0:
80,160,51359,1,0,0:0:0:0:
224,112,51471,5,2,1:2:0:0:
352,64,51583,1,0,0:0:0:0:
368,192,51695,1,2,1:2:0:0:
496,144,51807,1,0,2:0:0:0:
464,304,51919,5,0,1:0:0:0:
272,320,52143,1,0,0:0:0:0:
368,288,52255,1,0,0:0:0:0:
16,336,52367,1,0,1:0:0:0:
112,304,52478,1,0,0:0:0:0:
208,272,52590,1,0,0:0:0:0:
304,240,52702,1,0,0:0:0:0:
400,208,52814,1,0,1:0:0:0:
128,48,53038,5,2,0:0:0:0:
144,160,53150,1,0,0:0:0:0:
48,256,53262,1,0,1:0:0:0:
32,144,53374,1,0,0:0:0:0:
240,80,53486,1,0,0:0:0:0:
256,192,53598,1,0,0:0:0:0:
272,320,53710,1,0,1:0:0:0:
480,112,53934,5,0,0:0:0:0:
368,64,54046,1,0,0:0:0:0:
48,64,54158,1,0,1:0:0:0:
160,112,54270,1,0,0:0:0:0:
272,160,54381,1,0,0:0:0:0:
384,208,54493,1,0,0:0:0:0:
496,256,54605,1,0,1:0:0:0:
32,320,54829,5,2,0:0:0:0:
240,224,54941,1,0,0:0:0:0:
80,352,55053,1,0,1:0:0:0:
192,192,55165,1,0,0:0:0:0:
144,352,55277,1,0,0:0:0:0:
128,192,55389,1,0,1:0:0:0:
112,32,55501,1,0,1:0:0:0:
368,208,55725,5,0,0:0:0:0:
352,48,55837,1,0,0:0:0:0:
480,112,55949,1,0,1:0:0:0:
272,112,56061,1,0,0:0:0:0:
368,128,56172,1,0,0:0:0:0:
176,128,56284,1,0,0:0:0:0:
192,288,56396,1,0,1:0:0:0:
64,240,56620,5,2,0:0:0:0:
315,191,56732,1,0,0:0:0:0:
105,117,56844,1,0,1:0:0:0:
273,313,56956,1,0,0:0:0:0:
226,91,57068,1,0,0:0:0:0:
144,336,57180,1,0,0:0:0:0:
192,216,57292,1,0,1:0:0:0:
512,160,57516,5,0,0:0:0:0:
384,128,57628,1,0,0:0:0:0:
308,232,57740,1,0,1:0:0:0:
180,200,57852,1,0,0:0:0:0:
128,320,57964,1,0,0:0:0:0:
0,288,58075,1,0,0:0:0:0:
40,168,58187,5,0,1:0:0:0:
160,120,58299,1,0,0:0:0:0:
280,72,58411,1,2,0:0:0:0:
400,24,58523,1,0,0:0:0:0:
472,216,58635,5,0,1:0:0:0:
352,264,58747,1,0,0:0:0:0:
232,312,58859,1,2,1:2:0:0:
112,360,58971,1,0,0:0:0:0:
128,192,59083,5,0,1:0:0:0:
256,64,59195,1,0,0:0:0:0:
384,192,59307,1,2,0:0:0:0:
256,320,59419,1,0,0:0:0:0:
224,128,59531,5,0,1:0:0:0:
320,160,59643,1,0,0:0:0:0:
288,256,59755,1,2,0:0:0:0:
192,224,59867,1,0,0:0:0:0:
416,96,59978,5,0,1:0:0:0:
416,256,60090,1,0,0:0:0:0:
96,288,60202,1,2,0:0:0:0:
96,128,60314,1,0,0:0:0:0:
272,176,60426,5,0,1:0:0:0:
272,192,60538,1,0,0:0:0:0:
256,192,60650,1,2,0:0:0:0:
256,176,60762,1,0,0:0:0:0:
336,336,60874,5,0,1:0:0:0:
192,304,60986,1,0,0:0:0:0:
176,48,61098,1,2,0:0:0:0:
320,80,61210,1,0,0:0:0:0:
320,240,61322,5,0,1:0:0:0:
208,256,61434,1,0,0:0:0:0:
192,144,61546,1,2,0:0:0:0:
304,128,61658,1,0,0:0:0:0:
416,208,61770,5,0,1:0:0:0:
240,352,61881,1,0,0:0:0:0:
96,176,61993,1,2,0:0:0:0:
272,32,62105,1,0,0:0:0:0:
352,160,62217,5,0,1:0:0:0:
288,288,62329,1,0,0:0:0:0:
160,224,62441,1,2,2:0:0:0:
224,96,62553,1,0,0:0:0:0:
448,48,62665,5,0,1:0:0:0:
464,160,62777,1,0,0:0:0:0:
448,272,62889,1,2,0:0:0:0:
464,384,63001,1,0,0:0:0:0:
192,336,63113,5,0,1:0:0:0:
176,224,63225,1,0,0:0:0:0:
192,112,63337,1,2,0:0:0:0:
176,0,63449,1,0,0:0:0:0:
336,144,63561,5,0,1:0:0:0:
320,304,63672,1,0,0:0:0:0:
272,96,63784,1,2,0:0:0:0:
384,352,63896,1,0,0:0:0:0:
16,160,64008,5,0,1:0:0:0:
112,272,64120,1,0,0:0:0:0:
16,272,64232,1,2,0:0:0:0:
112,160,64344,1,0,0:0:0:0:
208,216,64456,5,2,0:0:0:0:
304,216,65128,1,2,0:0:0:0:
400,216,65575,1,2,0:0:0:0:
416,96,66247,5,0,1:2:0:0:
128,288,66359,1,0,0:0:0:0:
160,64,66471,1,2,0:0:0:0:
384,320,66583,1,0,0:0:0:0:
192,192,66695,5,0,1:2:0:0:
320,224,66807,1,0,0:0:0:0:
288,128,66919,1,2,0:0:0:0:
224,288,67031,1,0,0:0:0:0:
64,160,67143,5,0,1:2:0:0:
160,224,67255,1,0,0:0:0:0:
448,224,67367,1,2,0:0:0:0:
352,160,67479,1,0,0:0:0:0:
224,96,67590,5,0,1:2:0:0:
256,320,67702,1,0,0:0:0:0:
128,352,67814,1,2,0:0:0:0:
352,64,67926,1,0,0:0:0:0:
480,288,68038,5,0,1:2:0:0:
416,128,68150,1,0,0:0:0:0:
384,256,68262,1,2,0:0:0:0:
512,160,68374,1,0,0:0:0:0:
80,224,68486,5,0,1:2:0:0:
208,192,68598,1,0,0:0:0:0:
336,224,68710,1,2,0:0:0:0:
464,192,68822,1,0,0:0:0:0:
416,64,68934,5,0,1:2:0:0:
128,32,69046,1,0,0:0:0:0:
96,320,69158,1,2,0:0:0:0:
384,352,69270,1,0,0:0:0:0:
240,112,69381,5,0,1:2:0:0:
176,208,69493,1,0,0:0:0:0:
272,272,69605,1,2,0:0:0:0:
336,176,69717,1,0,0:0:0:0:
96,160,69829,5,0,1:2:0:0:
160,320,69941,1,0,0:0:0:0:
96,160,70053,1,2,0:0:0:0:
160,320,70165,1,0,0:0:0:0:
256,192,70277,5,0,1:2:0:0:
320,32,70389,1,0,0:0:0:0:
256,192,70501,1,2,0:0:0:0:
320,32,70613,1,0,0:0:0:0:
448,192,70725,5,0,1:2:0:0:
480,320,70837,1,0,0:0:0:0:
352,224,70949,1,2,0:0:0:0:
384,96,71061,1,0,0:0:0:0:
224,160,71172,5,0,1:2:0:0:
64,256,71284,1,0,0:0:0:0:
64,96,71396,1,2,0:0:0:0:
224,320,71508,1,0,0:0:0:0:
384,256,71620,5,4,1:2:0:0:
64,192,73411,5,0,0:0:0:0:
160,224,73523,1,0,0:0:0:0:
256,192,73635,1,0,0:0:0:0:
288,96,73747,1,0,0:0:0:0:
320,256,73859,5,0,0:0:0:0:
416,224,73971,1,0,0:0:0:0:
448,128,74083,1,0,0:0:0:0:
416,32,74195,1,0,0:0:0:0:
512,320,74307,5,2,0:0:0:0:
352,224,74531,1,0,0:0:0:0:
192,128,74755,1,0,0:0:0:0:
32,32,74978,1,0,0:0:0:0:
32,32,75202,1,4,0:0:0:0:
256,192,88187,5,4,0:0:0:0:
160,128,88635,5,0,1:0:0:0:
160,256,88747,1,0,0:0:0:0:
288,288,88859,1,0,0:0:0:0:
288,160,88971,1,0,0:0:0:0:
480,192,89083,5,0,1:0:0:0:
320,224,89195,1,0,0:0:0:0:
160,192,89307,1,0,0:0:0:0:
0,224,89419,1,0,1:0:0:0:
128,64,89531,5,0,1:0:0:0:
288,160,89643,1,0,0:0:0:0:
192,320,89755,1,0,0:0:0:0:
288,160,89867,1,0,0:0:0:0:
448,256,89978,5,0,1:0:0:0:
288,160,90090,1,0,0:0:0:0:
384,0,90202,1,0,0:0:0:0:
288,160,90314,1,0,0:0:0:0:
64,224,90426,5,0,1:0:0:0:
256,256,90538,1,0,0:0:0:0:
192,128,90650,1,0,0:0:0:0:
128,352,90762,1,0,0:0:0:0:
352,352,90874,5,0,1:0:0:0:
480,160,90986,1,0,0:0:0:0:
288,32,91098,1,0,0:0:0:0:
160,224,91210,1,0,1:0:0:0:
32,128,91322,5,0,1:0:0:0:
288,192,91434,1,0,0:0:0:0:
128,192,91546,1,0,0:0:0:0:
416,160,91658,1,0,0:0:0:0:
224,64,91770,5,0,1:0:0:0:
192,320,91881,1,0,0:0:0:0:
64,160,91993,1,0,0:0:0:0:
352,224,92105,1,0,0:0:0:0:
448,96,92217,5,0,1:0:0:0:
352,128,92329,1,0,0:0:0:0:
512,192,92441,1,0,0:0:0:0:
416,224,92553,1,0,0:0:0:0:
224,224,92665,5,0,1:0:0:0:
352,288,92777,1,0,0:0:0:0:
128,96,92889,1,0,0:0:0:0:
256,160,93001,1,0,1:0:0:0:
32,288,93113,5,0,1:0:0:0:
192,320,93225,1,0,0:0:0:0:
128,160,93337,1,0,0:0:0:0:
0,288,93449,1,0,0:0:0:0:
192,352,93561,5,0,1:0:0:0:
160,128,93672,1,0,0:0:0:0:
64,256,93784,1,0,0:0:0:0:
288,224,93896,1,0,0:0:0:0:
512,192,94008,5,0,1:0:0:0:
352,128,94120,1,0,0:0:0:0:
368,336,94232,1,0,0:0:0:0:
512,160,94344,1,0,0:0:0:0:
320,136,94456,5,0,1:0:0:0:
384,320,94568,1,0,0:0:0:0:
496,128,94680,1,0,0:0:0:0:
288,192,94792,1,0,1:0:0:0:
96,256,94904,5,0,1:0:0:0:
32,112,95016,1,0,0:0:0:0:
256,336,95128,1,0,0:0:0:0:
192,192,95240,1,0,0:0:0:0:
352,80,95352,5,0,1:0:0:0:
304,272,95464,1,0,0:0:0:0:
496,32,95575,1,0,0:0:0:0:
448,240,95687,1,0,0:0:0:0:
256,128,95799,5,0,1:0:0:0:
96,176,95911,1,0,0:0:0:0:
160,352,96023,1,0,0:0:0:0:
320,304,96135,1,0,0:0:0:0:
416,224,96247,5,0,1:0:0:0:
496,240,96359,1,0,0:0:0:0:
512,160,96471,1,0,0:0:0:0:
432,144,96583,1,0,1:0:0:0:
288,192,96695,5,0,1:0:0:0:
80,336,96807,1,0,0:0:0:0:
160,80,96919,1,0,0:0:0:0:
240,336,97031,1,0,0:0:0:0:
32,192,97143,5,0,1:0:0:0:
144,160,97255,1,0,0:0:0:0:
240,208,97367,1,0,0:0:0:0:
352,176,97478,1,0,0:0:0:0:
448,288,97590,5,0,1:0:0:0:
496,144,97702,1,0,0:0:0:0:
240,144,97814,1,0,0:0:0:0:
368,32,97926,1,0,0:0:0:0:
288,288,98038,5,0,1:0:0:0:
192,256,98150,1,0,0:0:0:0:
112,304,98262,1,0,0:0:0:0:
16,272,98374,1,0,1:0:0:0:
96,208,98486,5,0,1:0:0:0:
128,48,98598,1,0,0:0:0:0:
112,192,98710,1,0,0:0:0:0:
112,32,98822,1,0,0:0:0:0:
288,96,98934,5,0,1:0:0:0:
272,240,99046,1,0,0:0:0:0:
256,80,99158,1,0,0:0:0:0:
304,256,99270,1,0,0:0:0:0:
464,208,99381,5,0,1:0:0:0:
320,176,99493,1,0,0:0:0:0:
480,128,99605,1,0,0:0:0:0:
304,256,99717,1,0,0:0:0:0:
112,288,99829,5,0,1:0:0:0:
64,64,99941,1,0,0:0:0:0:
0,240,100053,1,0,0:0:0:0:
176,96,100165,1,0,1:0:0:0:
320,64,100277,5,0,1:0:0:0:
128,128,100389,1,0,0:0:0:0:
192,320,100501,1,0,0:0:0:0:
384,256,100613,1,0,0:0:0:0:
208,160,100725,5,0,1:0:0:0:
224,240,100837,1,0,0:0:0:0:
304,224,100949,1,0,0:0:0:0:
288,144,101061,1,0,0:0:0:0:
224,48,101172,5,0,1:0:0:0:
400,160,101284,1,0,0:0:0:0:
288,336,101396,1,0,0:0:0:0:
112,224,101508,1,0,0:0:0:0:
256,176,101620,5,0,1:0:0:0:
272,192,101732,1,0,0:0:0:0:
256,208,101844,1,0,0:0:0:0:
240,192,101956,1,0,0:0:0:0:
384,64,102068,5,0,0:0:0:0:
32,80,102740,5,4,0:0:0:0:
384,192,102852,5,0,0:0:0:0:
448,320,102964,5,0,1:0:0:0:
144,304,103075,1,0,0:0:0:0:
272,256,103187,1,2,0:0:0:0:
352,304,103299,1,0,0:0:0:0:
128,64,103411,5,0,1:0:0:0:
32,288,103523,1,0,0:0:0:0:
32,192,103635,1,2,0:0:0:0:
96,160,103747,1,0,0:0:0:0:
224,128,103859,5,0,1:0:0:0:
272,144,103971,1,0,0:0:0:0:
352,112,104083,1,2,0:0:0:0:
480,16,104195,1,0,0:0:0:0:
224,32,104307,5,0,1:0:0:0:
160,224,104419,1,0,0:0:0:0:
224,352,104531,1,2,0:0:0:0:
320,368,104643,1,0,0:0:0:0:
480,256,104755,5,0,1:0:0:0:
272,208,104867,1,0,0:0:0:0:
128,288,104978,1,2,0:0:0:0:
64,256,105090,1,0,0:0:0:0:
32,192,105202,5,0,1:0:0:0:
64,112,105314,1,0,0:0:0:0:
160,80,105426,1,2,0:0:0:0:
368,64,105538,1,0,1:0:0:0:
432,288,105650,5,0,1:0:0:0:
208,256,105762,1,0,0:0:0:0:
352,208,105874,1,2,0:0:0:0:
128,176,105986,1,0,0:0:0:0:
112,80,106098,5,0,1:0:0:0:
464,144,106210,1,0,0:0:0:0:
112,80,106322,1,2,0:0:0:0:
464,144,106434,1,0,0:0:0:0:
272,32,106546,5,0,1:0:0:0:
288,144,106658,1,0,0:0:0:0:
300,224,106770,1,2,0:0:0:0:
324,384,106881,1,0,0:0:0:0:
96,352,106993,5,0,1:0:0:0:
176,320,107105,1,0,0:0:0:0:
320,256,107217,1,2,0:0:0:0:
512,176,107329,1,0,0:0:0:0:
256,64,107441,5,0,1:0:0:0:
384,192,107553,1,0,0:0:0:0:
256,320,107665,1,2,0:0:0:0:
128,192,107777,1,0,0:0:0:0:
320,64,107889,5,0,1:0:0:0:
384,256,108001,1,0,0:0:0:0:
192,320,108113,1,2,0:0:0:0:
128,128,108225,1,0,0:0:0:0:
384,64,108337,5,0,1:0:0:0:
384,320,108449,1,0,0:0:0:0:
128,320,108561,1,2,0:0:0:0:
128,64,108672,1,0,0:0:0:0:
304,176,108784,5,0,1:0:0:0:
272,240,108896,1,0,0:0:0:0:
208,208,109008,1,2,0:0:0:0:
240,144,109120,1,0,1:0:0:0:
256,192,109232,5,0,1:0:0:0:
32,128,109680,5,4,1:2:0:0:
256,160,109792,1,0,0:0:0:0:
128,256,109904,1,2,0:0:0:0:
160,32,110016,1,0,0:0:0:0:
144,144,110128,5,0,1:0:0:0:
336,112,110240,1,0,0:0:0:0:
256,304,110352,1,2,0:0:0:0:
448,272,110464,1,0,0:0:0:0:
464,48,110575,5,0,1:0:0:0:
272,16,110687,1,0,0:0:0:0:
192,192,110799,1,2,0:0:0:0:
0,160,110911,1,0,0:0:0:0:
80,304,111023,5,0,1:0:0:0:
96,112,111135,1,0,0:0:0:0:
304,112,111247,1,2,0:0:0:0:
96,112,111359,1,0,0:0:0:0:
336,240,111471,5,0,1:0:0:0:
256,256,111583,1,0,0:0:0:0:
272,336,111695,1,2,0:0:0:0:
256,256,111807,1,0,0:0:0:0:
512,224,111919,5,0,1:0:0:0:
352,336,112031,1,0,0:0:0:0:
176,224,112143,1,2,0:0:0:0:
0,336,112255,1,0,0:0:0:0:
0,48,112367,5,0,1:0:0:0:
160,160,112478,1,0,0:0:0:0:
320,48,112590,1,2,0:0:0:0:
480,160,112702,1,0,1:0:0:0:
208,80,112814,5,0,1:0:0:0:
304,304,112926,1,0,0:0:0:0:
288,96,113038,1,2,0:0:0:0:
224,288,113150,1,0,0:0:0:0:
368,64,113262,5,0,1:0:0:0:
144,320,113374,1,0,0:0:0:0:
432,112,113486,1,2,0:0:0:0:
80,272,113598,1,0,0:0:0:0:
80,176,113710,5,0,1:0:0:0:
432,208,113822,1,0,0:0:0:0:
112,96,113934,1,2,0:0:0:0:
400,288,114046,1,0,0:0:0:0:
272,32,114158,5,0,1:0:0:0:
240,352,114270,1,0,0:0:0:0:
192,64,114381,1,2,0:0:0:0:
320,320,114493,1,0,0:0:0:0:
304,128,114605,5,0,1:0:0:0:
320,240,114717,1,0,0:0:0:0:
208,256,114829,1,2,0:0:0:0:
192,144,114941,1,0,0:0:0:0:
400,160,115053,5,0,1:0:0:0:
288,336,115165,1,0,0:0:0:0:
112,224,115277,1,2,0:0:0:0:
224,48,115389,1,0,0:0:0:0:
80,240,115501,5,0,1:0:0:0:
304,368,115613,1,0,0:0:0:0:
432,144,115725,1,2,0:0:0:0:
208,16,115837,1,0,0:0:0:0:
128,336,115949,5,0,1:0:0:0:
400,320,116061,1,0,0:0:0:0:
384,48,116173,1,2,0:0:0:0:
112,64,116285,1,0,1:0:0:0:
256,192,116396,5,4,0:0:0:0:
