osu file format v14

[General]
AudioFilename: otome.mp3
AudioLeadIn: 0
PreviewTime: 63623
Countdown: 0
SampleSet: Soft
StackLeniency: 0.4
Mode: 0
LetterboxInBreaks: 0
WidescreenStoryboard: 0

[Editor]
Bookmarks: 1043,8723,16403,31763,47123,64403,79763,98963,102803,112163,120323
DistanceSpacing: 1
BeatDivisor: 2
GridSize: 32
TimelineZoom: 1.4

[Metadata]
Title:Mirai Melody
TitleUnicode:ミライメロディ
Artist:yozurino*
ArtistUnicode:yozurino*
Creator:lit120
Version:Normal
Source:オトメ*ドメイン
Tags:otome domain qualia palette ぱれっと eroge ending visual novel yozuca lotta rino -Hakurei- Delis
BeatmapID:1265937
BeatmapSetID:598911

[Difficulty]
HPDrainRate:5
CircleSize:3.5
OverallDifficulty:5
ApproachRate:5
SliderMultiplier:1.2
SliderTickRate:1

[Events]
//Background and Video events
0,0,"normal.jpg",0,0
//Break Periods
//Storyboard Layer 0 (Background)
//Storyboard Layer 1 (Fail)
//Storyboard Layer 2 (Pass)
//Storyboard Layer 3 (Foreground)
//Storyboard Sound Samples

[TimingPoints]
1043,480,4,2,1,60,1,0
8723,-100,4,2,1,70,0,0
16403,-100,4,2,1,60,0,0
31763,-100,4,2,1,70,0,0
47123,-100,4,2,1,60,0,0
54803,-100,4,2,1,70,0,0
64403,-100,4,2,1,80,0,1
98963,-100,4,2,1,60,0,0
102803,-100,4,2,1,70,0,0
118163,-100,4,2,1,50,0,0
118643,-100,4,2,1,45,0,0
119123,-100,4,2,1,40,0,0
119603,-100,4,2,1,30,0,0
119843,-100,4,2,1,20,0,0
120083,-100,4,2,1,10,0,0
120323,-100,4,2,1,5,0,0

[Colours]
Combo1 : 204,159,201
Combo2 : 181,62,94
Combo3 : 111,189,197
Combo4 : 214,149,99

[HitObjects]
125,59,1043,6,0,L|122:203,1,120,2|2,3:0|0:3,0:0:0:0:
109,298,2003,2,0,L|71:358,2,60,2|0|2,0:3|0:0|0:3,0:0:0:0:
158,264,2723,2,0,L|302:267,1,120,0|0,0:0|0:0,0:0:0:0:
337,275,3443,1,2,0:3:0:0:
442,333,3923,2,0,P|456:276|442:218,1,120,2|2,0:3|0:3,0:0:0:0:
378,116,4883,6,0,L|234:113,1,120,0|2,3:0|3:0,0:0:0:0:
138,101,5843,2,0,L|107:28,2,60,2|0|2,3:0|0:0|3:0,0:0:0:0:
166,154,6563,2,0,P|178:235|170:311,1,120,0|2,3:0|3:2,0:0:0:0:
152,328,7283,1,6,3:2:0:0:
40,287,7763,2,0,L|38:148,1,120,10|10,0:0|0:0,0:0:0:0:
20,109,8483,1,8,0:3:0:0:
20,109,8723,6,0,P|79:116|136:101,1,120,6|8,3:2|0:0,0:0:0:0:
234,30,9683,2,0,L|370:39,1,120,2|10,0:0|0:0,0:0:0:0:
412,27,10403,1,2,0:0:0:0:
412,27,10643,2,0,P|397:113|419:187,1,120,2|8,3:2|0:0,0:0:0:0:
464,246,11603,2,0,P|378:231|304:253,1,120,2|10,0:0|0:0,0:0:0:0:
296,269,12323,1,2,0:0:0:0:
296,269,12563,6,0,L|296:339,2,60,10|10|0,0:0|0:0|3:0,0:0:0:0:
262,218,13283,2,0,P|174:210|113:229,1,120,10|4,0:0|0:3,0:0:0:0:
89,243,14003,1,10,0:0:0:0:
89,243,14243,2,0,L|90:113,1,120,4|0,3:2|3:0,0:0:0:0:
107,65,14963,1,8,0:0:0:0:
217,18,15443,1,10,0:0:0:0:
312,89,15923,1,8,0:0:0:0:
422,42,16403,6,0,L|437:177,1,120,4|0,3:2|3:0,0:0:0:0:
448,280,17363,2,0,L|454:339,2,60,0|0|0,3:0|0:0|3:0,0:0:0:0:
337,230,18323,2,0,P|278:223|219:234,1,120,0|0,3:0|3:0,0:0:0:0:
118,299,19283,2,0,P|125:239|114:180,1,120,0|0,3:0|3:0,0:0:0:0:
87,127,20003,1,0,0:0:0:0:
87,127,20243,6,0,L|207:119,1,120,0|0,3:0|3:0,0:0:0:0:
262,142,20963,2,0,L|382:134,1,120,0|0,0:0|0:0,0:0:0:0:
437,157,21683,1,0,3:0:0:0:
451,276,22163,2,0,L|510:279,2,60,0|0|0,3:0|0:0|3:0,0:0:0:0:
396,299,22883,2,0,L|276:291,1,120,0|0,0:0|0:0,0:0:0:0:
221,314,23603,1,0,3:0:0:0:
109,358,24083,6,0,P|118:277|101:213,1,120,0|0,3:0|3:0,0:0:0:0:
40,142,25043,2,0,L|2:95,2,60,0|0|0,3:0|0:0|3:0,0:0:0:0:
161,130,26003,2,0,L|280:130,1,120,0|0,3:0|3:0,0:0:0:0:
341,234,26963,2,0,L|221:233,1,120,0|0,3:0|3:0,0:0:0:0:
282,337,27923,6,0,L|401:337,1,120,0|0,3:0|3:0,0:0:0:0:
460,348,28643,1,0,0:0:0:0:
460,348,28883,2,0,P|441:255|452:186,1,120,0|0,3:0|3:0,0:0:0:0:
478,116,29843,2,0,L|493:43,2,60,0|0|8,3:0|0:0|0:0,0:0:0:0:
433,156,30563,2,0,L|313:151,1,120,4|0,3:2|3:0,0:0:0:0:
268,191,31283,1,8,0:0:0:0:
216,301,31763,6,0,P|170:263|146:209,1,120,6|8,3:2|0:0,0:0:0:0:
152,151,32483,1,0,0:0:0:0:
152,151,32723,2,0,L|156:81,2,60,2|0|8,0:0|3:0|0:0,0:0:0:0:
268,191,33683,2,0,L|387:195,1,120,2|8,3:2|0:0,0:0:0:0:
448,298,34643,2,0,L|329:294,1,120,0|10,0:0|0:0,0:0:0:0:
274,319,35363,1,2,0:0:0:0:
274,319,35603,6,0,L|154:314,1,120,2|8,3:2|0:0,0:0:0:0:
99,339,36323,2,0,P|115:234|95:172,1,120,0|0,0:0|3:0,0:0:0:0:
92,165,37043,1,8,0:0:0:0:
3,83,37523,2,0,L|-1:18,2,60,2|0|8,3:2|0:0|0:0,0:0:0:0:
10,142,38243,2,0,L|17:278,1,120,2|2,0:0|3:2,0:0:0:0:
23,321,38963,1,10,0:0:0:0:
142,329,39443,6,0,L|261:324,1,120,2|8,3:2|0:0,0:0:0:0:
317,301,40163,1,2,0:0:0:0:
317,301,40403,2,0,P|300:232|327:142,1,120,0|10,0:0|0:0,0:0:0:0:
367,80,41363,2,0,P|298:97|208:70,1,120,2|8,3:2|0:0,0:0:0:0:
190,90,42083,1,2,0:0:0:0:
190,90,42323,2,0,L|128:91,2,60,0|0|10,0:0|3:0|0:0,0:0:0:0:
250,197,43283,6,0,P|189:205|109:178,1,120,2|8,3:2|0:0,0:0:0:0:
72,192,44003,1,0,0:0:0:0:
72,192,44243,2,0,P|109:240|126:323,1,120,0|10,0:0|0:0,0:0:0:0:
22,358,45203,2,0,L|-4:274,2,60,0|2|10,3:0|3:2|0:0,0:0:0:0:
78,378,45923,2,0,L|214:368,1,120,6|0,3:2|3:0,0:0:0:0:
257,363,46643,1,8,0:0:0:0:
375,372,47123,6,0,P|356:316|357:256,1,120,4|0,3:2|0:0,0:0:0:0:
380,201,47843,1,0,3:0:0:0:
380,201,48083,2,0,P|381:141|361:84,1,120,0|8,0:0|0:0,0:0:0:0:
250,39,49043,2,0,L|179:24,2,60,0|0|0,3:0|0:0|0:0,0:0:0:0:
281,90,49763,2,0,L|283:228,1,120,0|8,3:0|0:0,0:0:0:0:
283,269,50483,1,8,0:0:0:0:
204,359,50963,6,0,L|66:361,1,120,0|0,3:0|0:0,0:0:0:0:
24,369,51683,1,0,3:0:0:0:
24,369,51923,2,0,P|47:303|36:233,1,120,0|8,0:0|0:0,0:0:0:0:
1,141,52883,2,0,P|67:164|137:153,1,120,0|8,3:0|0:0,0:0:0:0:
170,134,53603,1,0,0:0:0:0:
170,134,53843,2,0,L|167:68,2,60,0|0|8,3:0|3:0|0:0,0:0:0:0:
152,251,54803,6,0,P|207:229|266:227,1,120,4|8,3:2|0:0,0:0:0:0:
370,287,55763,2,0,L|391:359,2,60,0|0|8,3:0|3:0|0:0,0:0:0:0:
371,168,56723,2,0,P|339:117|292:80,1,120,0|8,3:0|0:0,0:0:0:0:
234,65,57443,1,0,0:0:0:0:
234,65,57683,2,0,L|156:63,2,60,0|0|8,3:0|3:0|0:0,0:0:0:0:
265,181,58643,6,0,P|257:240|228:292,1,120,0|8,3:0|0:0,0:0:0:0:
179,326,59363,1,0,0:0:0:0:
179,326,59603,2,0,L|118:337,2,60,0|0|8,3:0|3:0|0:0,0:0:0:0:
176,267,60323,2,0,L|174:128,1,120,4|0,3:2|3:0,0:0:0:0:
173,86,61043,1,8,0:0:0:0:
56,114,61523,2,0,L|58:253,1,120,0|8,3:0|0:0,0:0:0:0:
119,336,62483,5,4,3:2:0:0:
236,309,62963,1,2,3:2:0:0:
247,190,63443,1,2,3:2:0:0:
137,144,63923,1,10,0:0:0:0:
57,233,64403,6,0,P|24:184|18:125,1,120,6|8,3:2|0:0,0:0:0:0:
93,32,65363,2,0,L|215:36,1,120,2|8,0:0|0:0,0:0:0:0:
270,53,66083,1,0,0:0:0:0:
270,53,66323,2,0,L|379:56,2,60,2|0|8,3:2|0:0|0:0,0:0:0:0:
227,94,67043,2,0,P|217:173|232:233,1,120,2|2,0:0|3:2,0:0:0:0:
251,265,67763,1,10,0:0:0:0:
351,331,68243,6,0,L|470:329,1,120,2|8,3:2|0:0,0:0:0:0:
477,209,69203,2,0,L|358:211,1,120,0|10,0:0|0:0,0:0:0:0:
251,265,70163,2,0,L|251:335,2,60,0|2|10,3:0|3:2|0:2,0:0:0:0:
251,205,70883,1,6,3:2:0:0:
300,95,71363,2,0,L|300:25,2,60,0|8|4,3:0|0:0|3:3,0:0:0:0:
244,118,72083,6,0,P|186:134|126:133,1,120,6|10,3:2|0:0,0:0:0:0:
11,99,73043,2,0,P|27:156|26:216,1,120,2|10,0:0|0:0,0:0:0:0:
15,275,73763,1,0,0:0:0:0:
15,275,74003,2,0,L|4:334,2,60,2|0|10,3:2|3:0|0:0,0:0:0:0:
71,255,74723,1,2,3:2:0:0:
183,297,75203,2,0,L|193:356,2,60,2|10|4,3:2|0:0|0:3,0:0:0:0:
161,241,75923,6,0,P|233:247|308:222,1,120,6|8,3:2|0:0,0:0:0:0:
333,210,76643,1,0,0:0:0:0:
333,210,76883,2,0,L|336:351,1,120,2|10,0:0|0:0,0:0:0:0:
452,356,77843,2,0,L|505:383,2,60,6|0|10,3:2|3:0|0:0,0:0:0:0:
443,296,78563,2,0,L|440:155,1,120,6|0,3:2|3:0,0:0:0:0:
438,116,79283,1,8,0:0:0:0:
340,46,79763,6,0,P|261:83|187:72,1,120,6|8,3:2|0:0,0:0:0:0:
110,67,80723,2,0,P|147:146|136:220,1,120,2|10,0:0|0:0,0:0:0:0:
132,235,81443,1,0,0:0:0:0:
132,235,81683,2,0,L|92:289,2,60,2|0|8,3:2|0:0|0:0,0:0:0:0:
190,219,82403,2,0,L|327:218,1,120,2|2,0:0|3:2,0:0:0:0:
369,227,83123,1,10,0:0:0:0:
470,291,83603,6,0,P|487:234|478:176,1,120,2|8,3:2|0:0,0:0:0:0:
397,87,84563,2,0,L|264:83,1,120,0|10,0:0|0:0,0:0:0:0:
157,77,85523,2,0,L|82:39,2,60,0|2|10,3:0|3:2|0:2,0:0:0:0:
193,124,86243,1,6,3:2:0:0:
219,241,86723,2,0,L|221:335,2,60,0|10|4,3:0|0:0|0:3,0:0:0:0:
206,183,87443,6,0,P|125:178|76:188,1,120,6|8,3:2|0:0,0:0:0:0:
21,285,88403,2,0,P|102:290|151:280,1,120,0|10,0:0|0:0,0:0:0:0:
206,183,89363,2,0,L|204:119,2,60,2|0|10,3:2|3:0|0:0,0:0:0:0:
219,241,90083,1,6,3:2:0:0:
325,296,90563,2,0,L|327:360,2,60,2|10|4,3:2|0:0|0:3,0:0:0:0:
317,236,91283,6,0,L|312:83,1,120,6|8,3:2|0:0,0:0:0:0:
297,57,92003,1,0,0:0:0:0:
297,57,92243,2,0,P|259:102|204:122,1,120,0|10,0:0|0:0,0:0:0:0:
88,88,93203,2,0,L|19:60,2,60,0|2|10,3:0|3:2|0:0,0:0:0:0:
121,138,93923,2,0,L|125:290,1,120,6|0,3:2|3:0,0:0:0:0:
125,318,94643,1,8,0:0:0:0:
230,374,95123,5,14,0:0:0:0:
230,374,95363,1,10,0:0:0:0:
330,311,95843,1,10,0:0:0:0:
330,311,96083,1,10,0:0:0:0:
225,255,96563,1,10,0:0:0:0:
225,255,96803,6,0,P|264:211|320:192,1,120,6|2,3:2|3:2,0:0:0:0:
378,174,97523,1,10,0:0:0:0:
378,174,97763,2,0,P|319:161|275:122,1,120,2|0,0:0|3:0,0:0:0:0:
232,81,98483,1,8,0:0:0:0:
131,15,98963,6,0,L|121:157,1,120,4|2,3:2|3:0,0:0:0:0:
105,253,99923,2,0,L|75:325,2,60,2|0|2,3:0|0:0|3:0,0:0:0:0:
150,213,100643,2,0,L|292:223,1,120,0|2,3:0|3:2,0:0:0:0:
327,236,101363,1,6,3:2:0:0:
417,312,101843,2,0,P|440:258|438:199,1,120,10|10,0:0|0:0,0:0:0:0:
428,139,102563,1,4,0:3:0:0:
428,139,102803,6,0,L|304:125,1,120,6|8,3:2|0:0,0:0:0:0:
199,176,103763,2,0,L|185:299,1,120,2|10,0:0|0:0,0:0:0:0:
183,355,104483,1,2,0:0:0:0:
183,355,104723,2,0,P|126:342|68:355,1,120,2|8,3:2|0:0,0:0:0:0:
1,254,105683,2,0,P|41:210|59:153,1,120,2|10,2:0|0:0,0:0:0:0:
57,93,106403,1,2,0:0:0:0:
57,93,106643,6,0,L|47:22,2,60,10|10|0,0:0|0:0|3:0,0:0:0:0:
111,122,107363,2,0,P|176:128|256:93,1,120,10|4,0:0|0:3,0:0:0:0:
279,81,108083,1,10,0:0:0:0:
279,81,108323,2,0,L|284:219,1,120,6|8,3:2|0:0,0:0:0:0:
284,260,109043,1,8,0:0:0:0:
224,364,109523,1,10,0:0:0:0:
106,339,110003,1,12,0:0:0:0:
93,219,110483,6,0,L|89:143,2,60,6|6|8,3:2|3:2|0:0,0:0:0:0:
133,264,111203,2,0,P|201:268|260:243,1,120,6|2,3:2|3:2,0:0:0:0:
283,200,111923,1,10,0:0:0:0:
283,200,112163,1,6,3:2:0:0:
256,192,112403,12,0,120323,0:0:0:0:
