osu file format v14

[General]
AudioFilename: otome.mp3
AudioLeadIn: 0
PreviewTime: 63623
Countdown: 0
SampleSet: Soft
StackLeniency: 0.4
Mode: 0
LetterboxInBreaks: 0
WidescreenStoryboard: 0

[Editor]
Bookmarks: 1043,8723,16403,31763,47123,64403,79763,98963,102803,112163,120323
DistanceSpacing: 1
BeatDivisor: 2
GridSize: 32
TimelineZoom: 2.3

[Metadata]
Title:Mirai Melody
TitleUnicode:ミライメロディ
Artist:yozurino*
ArtistUnicode:yozurino*
Creator:lit120
Version:Hard
Source:オトメ*ドメイン
Tags:otome domain qualia palette ぱれっと eroge ending visual novel yozuca lotta rino -Hakurei- Delis
BeatmapID:1265936
BeatmapSetID:598911

[Difficulty]
HPDrainRate:6
CircleSize:4
OverallDifficulty:6
ApproachRate:7
SliderMultiplier:1.6
SliderTickRate:1

[Events]
//Background and Video events
0,0,"hard.jpg",0,0
//Break Periods
//Storyboard Layer 0 (Background)
//Storyboard Layer 1 (Fail)
//Storyboard Layer 2 (Pass)
//Storyboard Layer 3 (Foreground)
//Storyboard Sound Samples

[TimingPoints]
1043,480,4,2,1,60,1,0
8723,-100,4,2,1,70,0,0
16403,-100,4,2,1,60,0,0
31763,-100,4,2,1,70,0,0
47123,-100,4,2,1,60,0,0
54803,-100,4,2,1,70,0,0
64403,-100,4,2,1,80,0,1
98963,-100,4,2,1,60,0,0
102803,-100,4,2,1,70,0,0
118163,-100,4,2,1,50,0,0
118643,-100,4,2,1,45,0,0
119123,-100,4,2,1,40,0,0
119603,-100,4,2,1,30,0,0
119843,-100,4,2,1,20,0,0
120083,-100,4,2,1,10,0,0
120323,-100,4,2,1,5,0,0

[Colours]
Combo1 : 235,215,145
Combo2 : 135,89,136
Combo3 : 186,115,110
Combo4 : 101,172,152

[HitObjects]
193,18,1043,6,0,P|220:105|226:191,1,160,2|2,3:0|0:3,0:0:0:0:
219,252,1763,1,0,0:0:0:0:
140,244,2003,2,0,L|52:252,2,80,2|0|2,0:3|0:0|0:3,0:0:0:0:
219,252,2723,6,0,P|310:264|391:246,1,160
429,191,3443,1,2,0:3:0:0:
429,191,3923,1,2,0:3:0:0:
490,244,4163,2,0,L|495:309,2,40,0|0|2,0:0|0:0|0:3,0:0:0:0:
368,138,4883,6,0,L|193:143,1,160,0|2,3:0|3:0,0:0:0:0:
141,186,5603,1,0,0:0:0:0:
70,150,5843,2,0,L|71:54,2,80,2|0|2,3:0|0:0|3:0,0:0:0:0:
74,230,6563,6,0,B|87:307|87:307|162:353,1,160,0|2,3:0|3:2,0:0:0:0:
237,353,7283,2,0,L|282:347,3,40,6|2|2|2,3:2|0:0|3:2|3:2,0:0:0:0:
302,316,7763,2,0,L|347:310,3,40,10|2|2|2,0:0|0:0|3:2|3:2,0:0:0:0:
367,279,8243,1,10,0:0:0:0:
405,208,8483,1,8,0:3:0:0:
405,208,8603,1,4,0:3:0:0:
405,208,8723,6,0,L|401:108,1,80,6|0,3:2|0:0,0:0:0:0:
361,58,9203,2,0,P|301:73|231:57,1,120,8|8,0:0|0:0,0:0:0:0:
206,50,9683,2,0,L|200:148,1,80,2|2,0:0|3:2,0:0:0:0:
122,147,10163,2,0,L|116:245,1,80,10|2,0:0|0:0,0:0:0:0:
38,244,10643,6,0,P|56:279|88:302,1,80,2|0,3:2|0:0,0:0:0:0:
169,290,11123,2,0,L|313:288,1,120,8|8,0:0|0:0,0:0:0:0:
326,298,11603,2,0,P|316:260|321:220,1,80,2|2,0:0|3:2,0:0:0:0:
359,150,12083,1,10,0:0:0:0:
429,187,12323,1,2,0:0:0:0:
429,187,12443,1,8,0:0:0:0:
429,187,12563,6,0,P|439:225|434:265,2,80,10|10|0,0:0|0:0|3:0,0:0:0:0:
359,150,13283,2,0,L|187:146,1,160,10|4,0:0|0:3,0:0:0:0:
119,149,14003,1,10,0:0:0:0:
72,83,14243,6,0,P|38:151|77:218,1,160,4|0,3:2|3:0,0:0:0:0:
156,215,14963,1,8,0:0:0:0:
199,146,15203,2,0,L|198:91,2,40,10|2|10,0:0|0:0|0:0,0:0:0:0:
156,215,15683,1,0,3:0:0:0:
156,215,15803,1,0,3:0:0:0:
156,215,15923,1,8,0:0:0:0:
258,337,16403,6,0,P|297:343|337:338,1,80,4|0,3:2|0:0,0:0:0:0:
417,331,16883,2,0,P|402:293|379:261,1,80,0|0,3:0|0:0,0:0:0:0:
333,197,17363,2,0,P|308:228|291:264,2,80,0|0|0,3:0|0:0|3:0,0:0:0:0:
411,190,18083,6,0,L|417:19,2,160
333,197,19283,2,0,L|335:137,2,40,0|0|0,3:0|0:0|0:0,0:0:0:0:
255,204,19763,2,0,L|149:200,1,80,0|0,3:0|0:0,0:0:0:0:
123,262,20243,6,0,P|95:191|139:128,1,160,0|0,3:0|3:0,0:0:0:0:
175,201,20963,2,0,P|202:272|158:335,1,160
75,326,21683,2,0,P|45:301|28:265,1,80,0|0,3:0|0:0,0:0:0:0:
21,187,22163,6,0,L|23:95,2,80,0|0|0,3:0|0:0|3:0,0:0:0:0:
29,265,22883,1,0,0:0:0:0:
95,221,23123,2,0,L|96:154,2,40,0|0|0,3:0|0:0|0:0,0:0:0:0:
175,201,23603,2,0,P|220:198|274:202,1,80,0|0,3:0|0:0,0:0:0:0:
332,219,24083,6,0,P|312:259|281:304,1,80,0|0,3:0|0:0,0:0:0:0:
238,346,24563,2,0,P|212:308|189:259,1,80,0|0,3:0|0:0,0:0:0:0:
175,201,25043,2,0,P|220:198|274:202,2,80,0|0|0,3:0|0:0|3:0,0:0:0:0:
95,221,25763,6,0,L|98:61,2,160
116,297,26963,2,0,L|117:363,2,40,0|0|0,3:0|0:0|0:0,0:0:0:0:
38,276,27443,2,0,P|19:242|18:202,1,80,0|0,3:0|0:0,0:0:0:0:
18,122,27923,6,0,L|20:30,2,80,0|0|0,3:0|0:0|3:0,0:0:0:0:
96,140,28643,2,0,L|98:61,2,80,0|0|0,0:0|3:0|0:0,0:0:0:0:
174,159,29363,2,0,L|175:79,1,80,0|0,3:0|0:0,0:0:0:0:
234,24,29843,5,0,3:0:0:0:
289,83,30083,1,0,0:0:0:0:
348,28,30323,1,8,0:0:0:0:
403,87,30563,2,0,P|417:167|404:248,1,160,4|0,3:2|3:0,0:0:0:0:
353,304,31283,2,0,L|354:363,2,40,8|8|8,0:0|0:0|0:3,0:0:0:0:
279,271,31763,6,0,L|180:274,1,80,6|0,3:2|0:0,0:0:0:0:
118,273,32243,2,0,L|164:185,1,80,8|0,0:0|0:0,0:0:0:0:
197,133,32723,2,0,L|249:217,2,80,2|0|8,0:0|3:0|0:0,0:0:0:0:
136,79,33443,6,0,P|62:100|1:54,2,160,0|0|2,0:0|0:0|0:0,0:0:0:0:
213,54,34643,2,0,L|219:11,2,40,0|0|2,0:0|0:0|3:2,0:0:0:0:
273,107,35123,2,0,L|375:103,1,80,10|2,0:0|0:0,0:0:0:0:
423,66,35603,6,0,P|404:147|424:237,1,160,2|8,3:2|0:0,0:0:0:0:
458,289,36323,1,0,0:0:0:0:
496,219,36563,2,0,L|503:161,2,40,2|0|0,0:0|0:0|3:0,0:0:0:0:
417,221,37043,2,0,L|337:215,1,80,8|0,0:0|0:0,0:0:0:0:
299,285,37523,6,0,L|378:290,2,80,2|0|8,3:2|0:0|0:0,0:0:0:0:
258,217,38243,1,2,0:0:0:0:
296,147,38483,2,0,L|298:94,2,40,0|0|2,0:0|0:0|3:2,0:0:0:0:
337,215,38963,1,10,0:0:0:0:
258,217,39203,1,2,0:0:0:0:
258,217,39323,1,0,0:0:0:0:
258,217,39443,6,0,L|178:214,1,80,2|0,3:2|0:0,0:0:0:0:
146,287,39923,2,0,L|225:290,1,80,8|2,0:0|0:0,0:0:0:0:
194,364,40403,2,0,L|114:360,2,80,0|0|10,0:0|3:0|0:0,0:0:0:0:
274,354,41123,6,0,P|329:305|427:324,2,160,0|0|2,0:0|0:0|0:0,0:0:0:0:
194,364,42323,2,0,L|114:360,2,80,0|0|10,0:0|3:0|0:0,0:0:0:0:
225,290,43043,1,0,0:0:0:0:
225,290,43163,1,0,0:0:0:0:
225,290,43283,6,0,L|258:217,2,80,2|0|8,3:2|0:0|0:0,0:0:0:0:
146,287,44003,2,0,L|66:283,2,80,0|0|0,0:0|0:0|3:0,0:0:0:0:
177,213,44723,2,0,L|210:140,1,80,10|2,0:0|0:0,0:0:0:0:
225,61,45203,5,0,3:0:0:0:
149,87,45443,1,2,3:2:0:0:
210,140,45683,1,10,0:0:0:0:
286,112,45923,2,0,P|364:105|437:137,1,160,6|0,3:2|3:0,0:0:0:0:
495,192,46643,1,8,0:0:0:0:
495,192,46763,1,8,0:0:0:0:
495,192,46883,1,8,0:3:0:0:
437,246,47123,6,0,P|364:278|286:271,1,160,4|0,3:2|0:0,0:0:0:0:
216,231,47843,2,0,P|137:223|64:255,1,160,0|0,3:0|0:0,0:0:0:0:
59,335,48563,2,0,L|138:335,1,80,8|0,0:0|0:0,0:0:0:0:
215,311,49043,6,0,L|294:310,2,80,0|0|0,3:0|0:0|0:0,0:0:0:0:
216,231,49763,2,0,P|281:204|373:243,1,160,0|8,3:0|0:0,0:0:0:0:
399,303,50483,2,0,P|427:276|441:239,1,80,8|0,0:0|0:0,0:0:0:0:
431,160,50963,6,0,P|374:105|296:90,1,160,0|0,3:0|0:0,0:0:0:0:
215,90,51683,2,0,P|137:105|81:160,1,160,0|0,3:0|0:0,0:0:0:0:
71,239,52403,2,0,L|73:331,1,80,8|0,0:0|0:0,0:0:0:0:
129,371,52883,6,0,P|198:332|275:343,1,160,0|8,3:0|0:0,0:0:0:0:
353,369,53603,2,0,L|392:372,2,40,0|0|0,0:0|0:0|3:0,0:0:0:0:
276,343,54083,1,0,3:0:0:0:
261,266,54323,1,8,0:0:0:0:
255,184,54563,1,8,0:0:0:0:
255,184,54683,1,8,0:0:0:0:
255,184,54803,6,0,P|324:216|337:292,1,160,4|8,3:2|0:0,0:0:0:0:
276,343,55523,1,0,0:0:0:0:
201,318,55763,2,0,L|115:318,2,80,0|0|8,3:0|3:0|0:0,0:0:0:0:
261,266,56483,6,0,P|171:235|101:248,2,160
338,291,57683,2,0,L|423:293,2,80,0|0|8,3:0|3:0|0:0,0:0:0:0:
261,266,58403,1,0,0:0:0:0:
256,183,58643,6,0,L|257:103,1,80,0|0,3:0|0:0,0:0:0:0:
337,104,59123,2,0,L|335:183,1,80,8|0,0:0|0:0,0:0:0:0:
415,185,59603,2,0,L|416:105,1,80,0|0,3:0|3:0,0:0:0:0:
377,36,60083,1,8,0:0:0:0:
298,35,60323,6,0,P|221:33|179:97,1,160,4|0,3:2|3:0,0:0:0:0:
177,177,61043,1,8,0:0:0:0:
256,183,61283,2,0,L|306:167,2,40,0|8|0,3:0|0:0|3:0,0:0:0:0:
177,177,61763,1,0,3:0:0:0:
145,250,62003,1,8,0:0:0:0:
205,302,62243,1,8,0:0:0:0:
205,302,62363,1,8,0:0:0:0:
205,302,62483,6,0,L|289:308,1,80,4|2,3:2|3:2,0:0:0:0:
363,293,62963,2,0,L|390:248,3,40,2|2|2|2,3:2|0:0|3:2|0:0,0:0:0:0:
372,219,63443,2,0,L|399:174,3,40,2|2|2|2,3:2|0:0|3:2|0:0,0:0:0:0:
381,145,63923,1,10,0:0:0:0:
331,82,64163,1,10,0:0:0:0:
331,82,64283,1,10,0:0:0:0:
331,82,64403,6,0,L|251:78,1,80,6|0,3:2|0:0,0:0:0:0:
222,153,64883,2,0,L|302:157,1,80,8|0,0:0|0:0,0:0:0:0:
273,232,65363,1,2,0:0:0:0:
227,297,65603,2,0,P|202:267|193:228,1,80,0|8,3:0|0:0,0:0:0:0:
222,153,66083,6,0,L|142:149,1,80,0|2,0:0|3:2,0:0:0:0:
65,169,66563,1,0,0:0:0:0:
40,244,66803,1,8,0:0:0:0:
21,322,67043,2,0,P|95:300|118:227,1,160,2|2,0:0|3:2,0:0:0:0:
65,169,67763,1,10,0:0:0:0:
12,110,68003,1,2,0:0:0:0:
12,110,68123,1,0,0:0:0:0:
12,110,68243,6,0,P|46:92|86:93,1,80,2|0,3:2|0:0,0:0:0:0:
142,149,68723,1,8,0:0:0:0:
198,94,68963,2,0,L|199:46,2,40
254,151,69443,2,0,L|251:269,2,80,2|10|2,3:2|0:0|0:0,0:0:0:0:
276,75,70163,5,0,3:0:0:0:
332,132,70403,1,2,3:2:0:0:
254,151,70643,1,10,0:2:0:0:
276,75,70883,2,0,P|350:56|406:108,1,160,6|0,3:2|3:0,0:0:0:0:
390,184,71603,1,8,0:0:0:0:
373,260,71843,1,2,0:0:0:0:
373,260,71963,1,8,0:0:0:0:
373,260,72083,6,0,P|338:242|316:209,1,80,6|0,3:2|0:0,0:0:0:0:
390,184,72563,2,0,P|424:203|446:236,1,80,10|0,0:0|0:0,0:0:0:0:
430,312,73043,1,2,0:0:0:0:
356,335,73283,2,0,L|269:333,1,80,0|10,3:0|0:0,0:0:0:0:
238,262,73763,6,0,L|150:259,1,80,0|2,0:0|3:2,0:0:0:0:
119,188,74243,1,0,3:0:0:0:
76,257,74483,1,10,0:0:0:0:
37,184,74723,2,0,P|74:118|151:111,1,160,2|2,3:2|3:2,0:0:0:0:
228,144,75443,1,10,0:0:0:0:
304,111,75683,1,4,0:3:0:0:
304,111,75803,1,4,0:3:0:0:
304,111,75923,6,0,L|304:26,2,80,6|0|8,3:2|0:0|0:0,0:0:0:0:
228,144,76643,2,0,L|228:229,2,80,0|2|0,0:0|0:0|3:0,0:0:0:0:
151,111,77363,2,0,P|112:105|74:117,1,80,10|8,0:0|0:0,0:0:0:0:
34,186,77843,5,6,3:2:0:0:
74,256,78083,1,0,3:2:0:0:
113,187,78323,1,8,0:0:0:0:
152,256,78563,2,0,B|168:298|158:335|158:335|195:319|236:328,1,160,6|0,3:2|3:0,0:0:0:0:
311,354,79283,1,8,0:0:0:0:
378,307,79523,1,4,0:3:0:0:
378,307,79643,1,4,0:3:0:0:
378,307,79763,6,0,L|377:227,1,80,6|0,3:2|0:0,0:0:0:0:
302,199,80243,2,0,L|303:279,1,80,10|0,0:0|0:0,0:0:0:0:
378,307,80723,1,2,0:0:0:0:
452,334,80963,2,0,L|452:255,1,80,0|10,3:0|0:0,0:0:0:0:
439,177,81443,6,0,L|438:97,1,80,0|2,0:0|3:2,0:0:0:0:
425,19,81923,1,0,0:0:0:0:
347,33,82163,1,8,0:0:0:0:
360,111,82403,2,0,P|273:128|185:105,1,160,2|2,0:0|3:2,0:0:0:0:
141,63,83123,1,10,0:0:0:0:
65,92,83363,1,2,0:0:0:0:
65,92,83483,1,0,0:0:0:0:
65,92,83603,6,0,L|59:178,1,80,2|0,3:2|0:0,0:0:0:0:
71,250,84083,1,8,0:0:0:0:
10,300,84323,2,0,L|3:360,2,40
71,250,84803,2,0,L|157:244,2,80,2|10|2,3:2|0:0|0:2,0:0:0:0:
10,300,85523,5,0,3:0:0:0:
82,329,85763,1,2,3:2:0:0:
161,323,86003,1,10,0:2:0:0:
223,272,86243,2,0,P|299:251|376:268,1,160,6|0,3:2|3:0,0:0:0:0:
435,323,86963,1,10,0:0:0:0:
452,245,87203,1,4,0:3:0:0:
452,245,87323,1,8,0:0:0:0:
452,245,87443,6,0,L|451:165,1,80,6|0,3:2|0:0,0:0:0:0:
376,189,87923,2,0,L|377:269,1,80,8|2,0:0|0:0,0:0:0:0:
435,323,88403,1,0,0:0:0:0:
358,347,88643,2,0,L|279:333,1,80,2|10,3:2|0:0,0:0:0:0:
223,272,89123,6,0,L|144:258,1,80,2|2,0:0|3:2,0:0:0:0:
88,197,89603,1,0,3:0:0:0:
114,118,89843,1,10,0:0:0:0:
169,179,90083,2,0,P|233:133|311:140,1,160,6|2,3:2|3:2,0:0:0:0:
376,189,90803,1,10,0:0:0:0:
383,109,91043,1,4,0:3:0:0:
383,109,91163,1,4,0:3:0:0:
383,109,91283,6,0,L|381:10,2,80,6|0|8,3:2|0:0|0:0,0:0:0:0:
376,189,92003,2,0,L|374:288,2,80,0|0|0,0:0|0:0|3:0,0:0:0:0:
311,140,92723,2,0,P|273:130|233:134,1,80,10|2,0:0|0:0,0:0:0:0:
169,179,93203,5,0,3:0:0:0:
144,258,93443,1,2,3:2:0:0:
226,241,93683,1,10,0:0:0:0:
169,179,93923,2,0,P|94:194|62:264,1,160,6|0,3:2|3:0,0:0:0:0:
109,333,94643,1,8,0:0:0:0:
192,327,94883,1,8,0:3:0:0:
144,258,95123,5,14,0:0:0:0:
144,258,95363,1,10,0:0:0:0:
308,224,95843,1,10,0:0:0:0:
308,224,96083,1,10,0:0:0:0:
197,99,96563,1,10,0:0:0:0:
197,98,96803,6,0,P|190:177|230:245,1,160,6|2,3:2|3:2,0:0:0:0:
288,302,97523,1,10,0:0:0:0:
308,224,97763,2,0,P|380:210|476:231,1,160,2|0,0:0|3:0,0:0:0:0:
511,161,98483,1,8,0:0:0:0:
478,88,98723,1,4,0:3:0:0:
478,88,98843,1,4,0:3:0:0:
478,88,98963,6,0,P|406:102|310:81,1,160,4|2,3:2|3:0,0:0:0:0:
275,151,99683,1,0,0:0:0:0:
210,104,99923,2,0,L|119:105,2,80,2|0|2,3:0|0:0|3:0,0:0:0:0:
275,151,100643,6,0,P|294:226|278:317,1,160,0|2,3:0|3:2,0:0:0:0:
217,354,101363,2,0,L|175:352,3,40,6|2|2|2,3:2|0:0|3:2|3:2,0:0:0:0:
154,319,101843,2,0,L|112:317,3,40,10|2|2|2,0:0|0:0|3:2|3:2,0:0:0:0:
91,284,102323,1,10,0:0:0:0:
40,222,102563,1,4,0:3:0:0:
40,222,102683,1,4,0:3:0:0:
40,222,102803,6,0,L|41:133,1,80,6|0,3:2|0:0,0:0:0:0:
9,68,103283,2,0,P|70:88|154:73,1,120,8|8,0:0|0:0,0:0:0:0:
161,67,103763,2,0,L|164:158,1,80,2|2,0:0|3:2,0:0:0:0:
239,173,104243,2,0,L|241:252,1,80,10|2,0:0|0:0,0:0:0:0:
316,279,104723,6,0,P|294:311|260:331,1,80,2|0,3:2|0:0,0:0:0:0:
242,253,105203,2,0,P|280:209|338:202,1,120,8|8,0:0|0:0,0:0:0:0:
377,217,105683,2,0,L|378:137,1,80,2|2,2:0|3:2,0:0:0:0:
347,63,106163,1,10,0:0:0:0:
297,126,106403,1,2,0:0:0:0:
297,126,106523,1,8,0:0:0:0:
297,126,106643,6,0,P|258:129|221:116,2,80,10|10|0,0:0|0:0|3:0,0:0:0:0:
267,51,107363,2,0,P|191:42|143:102,1,160,10|4,0:0|0:3,0:0:0:0:
123,179,108083,1,10,0:0:0:0:
163,247,108323,6,0,L|322:260,1,160,6|8,3:2|0:0,0:0:0:0:
402,256,109043,1,8,0:0:0:0:
358,189,109283,2,0,L|360:133,2,40,10|2|10,0:0|0:0|0:0,0:0:0:0:
322,260,109763,1,0,3:0:0:0:
322,260,109883,1,0,3:0:0:0:
322,260,110003,1,12,0:0:0:0:
482,252,110483,6,0,L|496:155,2,80,6|6|8,3:2|3:2|0:0,0:0:0:0:
446,323,111203,2,0,L|286:330,1,160,6|2,3:2|3:2,0:0:0:0:
206,335,111923,1,10,0:0:0:0:
163,268,112163,1,6,3:2:0:0:
256,192,112283,12,0,120323,0:0:0:0:
