osu file format v14

[General]
AudioFilename: otome.mp3
AudioLeadIn: 0
PreviewTime: 63623
Countdown: 0
SampleSet: Soft
StackLeniency: 0.6
Mode: 0
LetterboxInBreaks: 0
WidescreenStoryboard: 0

[Editor]
Bookmarks: 1043,8723,16403,31763,47123,64403,79763,98963,102803,112163,120323
DistanceSpacing: 1
BeatDivisor: 1
GridSize: 32
TimelineZoom: 1.4

[Metadata]
Title:Mirai Melody
TitleUnicode:ミライメロディ
Artist:yozurino*
ArtistUnicode:yozurino*
Creator:lit120
Version:Easy
Source:オトメ*ドメイン
Tags:otome domain qualia palette ぱれっと eroge ending visual novel yozuca lotta rino -Hakurei- Delis
BeatmapID:1265935
BeatmapSetID:598911

[Difficulty]
HPDrainRate:3
CircleSize:3
OverallDifficulty:3
ApproachRate:3
SliderMultiplier:1
SliderTickRate:1

[Events]
//Background and Video events
0,0,"easy.jpg",0,0
//Break Periods
//Storyboard Layer 0 (Background)
//Storyboard Layer 1 (Fail)
//Storyboard Layer 2 (Pass)
//Storyboard Layer 3 (Foreground)
//Storyboard Sound Samples

[TimingPoints]
1043,480,4,2,1,60,1,0
8723,-100,4,2,1,70,0,0
16403,-100,4,2,1,60,0,0
31763,-100,4,2,1,70,0,0
47123,-100,4,2,1,60,0,0
54803,-100,4,2,1,70,0,0
64403,-100,4,2,1,80,0,1
98963,-100,4,2,1,60,0,0
102803,-100,4,2,1,70,0,0
118163,-100,4,2,1,50,0,0
118643,-100,4,2,1,45,0,0
119123,-100,4,2,1,40,0,0
119603,-100,4,2,1,30,0,0
119843,-100,4,2,1,20,0,0
120083,-100,4,2,1,10,0,0
120323,-100,4,2,1,5,0,0

[Colours]
Combo1 : 251,213,114
Combo2 : 137,102,156
Combo3 : 233,168,140
Combo4 : 189,33,94

[HitObjects]
152,94,1043,6,0,L|152:194,1,100,2|2,3:0|0:3,0:0:0:0:
206,275,2003,2,0,P|134:290|72:251,2,150,2|0|2,0:3|0:0|0:3,0:0:0:0:
251,189,3923,2,0,L|378:186,1,100,2|2,0:3|0:3,0:0:0:0:
404,270,4883,6,0,L|277:273,1,100,2|2,3:0|3:0,0:0:0:0:
251,189,5843,2,0,B|251:89|251:89|284:36,2,150,2|0|6,3:0|3:0|3:2,0:0:0:0:
206,277,7763,2,0,P|159:292|110:284,1,100,10|10,0:0|0:0,0:0:0:0:
10,285,8723,6,0,P|55:200|151:193,1,200,6|2,3:2|0:0,0:0:0:0:
206,277,10163,1,10,0:0:0:0:
262,357,10643,2,0,P|302:269|251:189,1,200,2|2,3:2|0:0,0:0:0:0:
206,277,12083,1,10,0:0:0:0:
262,357,12563,6,0,B|361:366|361:366|411:339,1,150,10|10,0:0|0:0,0:0:0:0:
454,254,13763,1,4,0:3:0:0:
394,173,14243,2,0,B|295:164|295:164|251:189,1,150,4|8,3:2|0:0,0:0:0:0:
206,277,15443,2,0,L|94:272,1,100,10|8,0:0|0:0,0:0:0:0:
53,190,16403,6,0,L|153:195,1,100,4|0,3:2|3:0,0:0:0:0:
250,188,17363,2,0,P|298:245|294:318,1,150,0|0,3:0|0:0,0:0:0:0:
206,277,18563,1,0,0:0:0:0:
153,195,19043,2,0,P|148:120|166:47,1,150,0|0,0:0|3:0,0:0:0:0:
264,41,20243,6,0,P|268:116|251:189,2,150,0|0|0,3:0|0:0|3:0,0:0:0:0:
166,47,22163,2,0,P|82:57|8:33,2,150,0|0|0,3:0|0:0|3:0,0:0:0:0:
264,41,24083,6,0,L|366:43,1,100,0|0,3:0|3:0,0:0:0:0:
454,86,25043,2,0,P|466:160|456:236,2,150,0|0|0,3:0|0:0|3:0,0:0:0:0:
364,42,26963,2,0,L|264:41,1,100,0|0,3:0|3:0,0:0:0:0:
272,140,27923,6,0,L|372:142,1,100,0|0,3:0|3:0,0:0:0:0:
380,241,28883,2,0,L|280:239,1,100,0|0,3:0|3:0,0:0:0:0:
189,196,29843,2,0,P|184:269|230:327,2,150,0|4|8,3:0|3:2|0:0,0:0:0:0:
272,139,31763,6,0,P|234:107|186:96,1,100,6|8,3:2|0:0,0:0:0:0:
127,12,32723,2,0,P|88:74|98:147,1,150,2|0,0:0|0:0,0:0:0:0:
189,196,33923,1,0,0:0:0:0:
272,139,34403,2,0,P|347:130|421:141,1,150,2|10,0:0|0:0,0:0:0:0:
428,242,35603,6,0,P|354:250|280:239,2,150,2|0|8,3:2|0:0|0:0,0:0:0:0:
510,186,37523,2,0,B|511:87|511:87|462:17,2,150,2|2|10,3:2|0:0|0:0,0:0:0:0:
509,286,39443,6,0,P|477:319|421:335,1,100,2|8,3:2|0:0,0:0:0:0:
326,346,40403,2,0,B|227:345|227:345|171:317,2,150,0|0|8,0:0|0:0|0:0,0:0:0:0:
354,250,42323,2,0,L|348:150,1,100,0|10,0:0|0:0,0:0:0:0:
249,134,43283,6,0,L|254:233,1,100,2|8,3:2|0:0,0:0:0:0:
155,217,44243,2,0,L|149:117,1,100,0|10,0:0|0:0,0:0:0:0:
49,100,45203,2,0,L|57:249,2,150,0|6|8,3:0|3:2|0:0,0:0:0:0:
149,117,47123,6,0,L|157:266,2,150,4|0|8,3:2|3:0|0:0,0:0:0:0:
249,134,49043,2,0,L|257:283,2,150,0|0|8,3:0|3:0|0:0,0:0:0:0:
339,91,50963,2,0,P|286:40|212:39,2,150,0|0|8,3:0|3:0|0:0,0:0:0:0:
352,191,52883,2,0,L|357:290,1,100,0|8,3:0|0:0,0:0:0:0:
302,375,53843,2,0,P|269:338|223:317,1,100,0|8,3:0|0:0,0:0:0:0:
127,346,54803,6,0,L|17:335,1,100,4|8,3:2|0:0,0:0:0:0:
51,238,55763,2,0,L|151:248,1,100,0|8,3:0|0:0,0:0:0:0:
175,150,56723,2,0,L|75:140,1,100,0|8,3:0|0:0,0:0:0:0:
99,42,57683,2,0,L|198:51,1,100,0|8,3:0|0:0,0:0:0:0:
272,122,58643,6,0,L|371:113,1,100,0|8,3:0|0:0,0:0:0:0:
437,36,59603,2,0,P|470:102|451:173,2,150,0|4|8,3:0|3:2|0:0,0:0:0:0:
339,17,61523,2,0,L|240:26,1,100,0|8,3:0|0:0,0:0:0:0:
174,102,62483,6,0,B|150:121|126:157|138:208|165:235|165:235|197:271|193:304|189:343|152:371,1,300,4|10,3:2|0:0,0:0:0:0:
59,342,64403,6,0,L|51:242,1,100,6|8,3:2|0:0,0:0:0:0:
51,141,65363,2,0,L|59:42,1,100,2|8,0:0|0:0,0:0:0:0:
159,42,66323,2,0,B|152:142|152:142|120:205,2,150,2|2|10,3:2|0:0|0:0,0:0:0:0:
257,27,68243,6,0,P|304:40|352:29,1,100,2|8,3:2|0:0,0:0:0:0:
414,109,69203,2,0,P|378:143|363:191,1,100,0|10,0:0|0:0,0:0:0:0:
362,291,70163,2,0,P|430:263|462:197,2,150,0|6|8,3:0|3:2|0:0,0:0:0:0:
280,237,72083,6,0,L|173:239,1,100,6|10,3:2|0:0,0:0:0:0:
111,314,73043,2,0,P|84:272|80:222,1,100,2|10,0:0|0:0,0:0:0:0:
144,143,74003,2,0,P|74:120|7:150,2,150,2|2|10,3:2|3:2|0:0,0:0:0:0:
180,238,75923,6,0,P|219:208|242:164,1,100,6|8,3:2|0:0,0:0:0:0:
211,69,76883,2,0,P|261:67|305:88,1,100,2|10,0:0|0:0,0:0:0:0:
340,182,77843,2,0,B|440:178|440:178|486:139,2,150,6|6|8,3:2|3:2|0:0,0:0:0:0:
242,164,79763,6,0,P|246:214|273:255,1,100,6|8,3:2|0:0,0:0:0:0:
346,322,80723,2,0,P|305:348|255:352,1,100,2|10,0:0|0:0,0:0:0:0:
159,335,81683,2,0,B|59:336|59:336|-4:297,2,150,2|2|10,3:2|0:0|0:0,0:0:0:0:
170,235,83603,6,0,L|70:235,1,100,2|8,3:2|0:0,0:0:0:0:
81,135,84563,2,0,L|181:135,1,100,0|10,0:0|0:0,0:0:0:0:
261,194,85523,2,0,P|278:122|245:57,2,150,0|6|10,3:0|3:2|0:0,0:0:0:0:
170,235,87443,6,0,P|201:273|246:293,1,100,6|8,3:2|0:0,0:0:0:0:
340,255,88403,2,0,L|447:258,1,100,0|10,0:0|0:0,0:0:0:0:
507,183,89363,2,0,B|509:83|509:83|469:33,2,150,2|6|10,3:2|3:2|0:0,0:0:0:0:
439,257,91283,6,0,L|340:255,1,100,6|8,3:2|0:0,0:0:0:0:
247,293,92243,2,0,L|147:290,1,100,0|10,0:0|0:0,0:0:0:0:
51,322,93203,2,0,P|55:249|107:197,2,150,0|6|8,3:0|3:2|0:0,0:0:0:0:
147,290,95123,6,0,L|196:291,1,50,14|10,0:0|0:0,0:0:0:0:
290,253,95843,2,0,L|340:255,1,50,10|10,0:0|0:0,0:0:0:0:
405,119,96803,2,0,L|255:115,1,150,6|10,3:2|0:0,0:0:0:0:
168,62,98003,2,0,P|154:110|163:159,1,100,0|8,0:0|0:0,0:0:0:0:
246,217,98963,6,0,P|208:248|160:261,1,100,4|2,3:2|3:0,0:0:0:0:
75,209,99923,2,0,L|76:48,2,150,2|0|6,3:0|3:0|3:2,0:0:0:0:
72,309,101843,2,0,P|107:345|154:361,1,100,10|10,0:0|0:0,0:0:0:0:
243,317,102803,6,0,P|349:297|437:333,1,200,6|2,3:2|0:0,0:0:0:0:
498,255,104243,1,10,0:0:0:0:
502,155,104723,2,0,P|396:175|308:139,1,200,2|2,3:2|2:0,0:0:0:0:
247,217,106163,1,10,0:0:0:0:
177,287,106643,6,0,P|148:220|172:151,1,150,10|10,0:0|0:0,0:0:0:0:
237,76,107843,1,4,0:3:0:0:
312,142,108323,2,0,P|382:163|448:130,1,150,6|8,3:2|0:0,0:0:0:0:
465,32,109523,2,0,P|416:37|375:64,1,100,10|12,0:0|0:0,0:0:0:0:
312,142,110483,6,0,P|311:260|330:333,1,150,6|6,3:2|3:2,0:0:0:0:
388,361,111683,1,2,3:2:0:0:
412,264,112163,1,6,3:2:0:0:
256,192,112403,12,0,120323,0:0:0:0:
