osu file format v14

[General]
AudioFilename: otome.mp3
AudioLeadIn: 0
PreviewTime: 63623
Countdown: 0
SampleSet: Soft
StackLeniency: 0.4
Mode: 0
LetterboxInBreaks: 0
WidescreenStoryboard: 0

[Editor]
DistanceSpacing: 0.6
BeatDivisor: 4
GridSize: 4
TimelineZoom: 1.6

[Metadata]
Title:Mirai Melody
TitleUnicode:ミライメロディ
Artist:yozurino*
ArtistUnicode:yozurino*
Creator:lit120
Version:Delis' Insane
Source:オトメ*ドメイン
Tags:otome domain qualia palette ぱれっと eroge ending visual novel yozuca lotta rino -Hakurei- Delis
BeatmapID:1265934
BeatmapSetID:598911

[Difficulty]
HPDrainRate:6
CircleSize:4
OverallDifficulty:7
ApproachRate:8
SliderMultiplier:1.7
SliderTickRate:1

[Events]
//Background and Video events
0,0,"delis.jpg",0,0
//Break Periods
//Storyboard Layer 0 (Background)
//Storyboard Layer 1 (Fail)
//Storyboard Layer 2 (Pass)
//Storyboard Layer 3 (Foreground)
//Storyboard Sound Samples

[TimingPoints]
1043,480,4,2,2,40,1,0
4883,-100,4,2,2,50,0,0
8723,-100,4,2,2,60,0,0
16403,-100,4,2,2,50,0,0
47123,-125,4,2,2,50,0,0
54803,-100,4,2,2,60,0,0
55403,-100,4,3,0,60,0,0
55883,-100,4,2,2,60,0,0
58283,-100,4,3,0,60,0,0
58643,-100,4,2,2,60,0,0
61163,-100,4,3,0,60,0,0
61643,-100,4,2,2,60,0,0
64403,-100,4,2,2,70,0,1
98603,-100,4,2,2,50,0,1
98963,-100,4,2,2,60,0,0
107483,-100,4,3,0,60,0,0
108203,-100,4,2,2,60,0,0
112403,-100,4,2,2,5,0,0

[Colours]
Combo1 : 239,206,113
Combo2 : 217,136,91
Combo3 : 87,187,208
Combo4 : 211,150,195

[HitObjects]
144,288,1043,6,0,L|136:184,1,85,2|0,0:0|0:0,0:0:0:0:
137,203,1403,1,0,0:0:0:0:
137,203,1523,1,2,0:0:0:0:
240,136,1763,1,2,0:0:0:0:
248,232,2003,1,0,0:0:0:0:
336,176,2243,2,0,B|383:177|433:165,1,85,2|0,0:0|0:0,0:0:0:0:
352,40,2723,6,0,B|272:32|176:56,1,170,2|2,0:0|0:0,0:0:0:0:
96,32,3443,2,0,B|48:80|72:160|144:168,1,170,2|0,0:0|0:0,0:0:0:0:
28,296,4163,1,0,0:0:0:0:
36,256,4283,1,0,0:0:0:0:
44,216,4403,1,4,0:0:0:0:
192,288,4883,5,4,0:0:0:0:
264,352,5123,1,0,0:0:0:0:
264,352,5243,1,0,0:0:0:0:
264,352,5363,2,0,L|360:336,1,85,2|0,0:0|0:0,0:0:0:0:
416,280,5843,2,0,B|440:240|416:184,1,85,2|2,0:0|0:0,0:0:0:0:
312,96,6323,1,0,0:0:0:0:
244,40,6563,6,0,B|192:84|212:172|288:184,1,170,4|0,0:0|0:0,0:0:0:0:
156,164,7283,2,0,B|116:140|52:148,1,85,4|0,0:0|0:0,0:0:0:0:
58,152,7643,1,0,0:0:0:0:
43,160,7763,1,12,0:0:0:0:
128,288,8003,5,0,0:0:0:0:
165,307,8123,1,0,0:0:0:0:
207,307,8243,1,10,0:0:0:0:
244,287,8363,1,0,0:0:0:0:
275,257,8483,1,0,0:0:0:0:
317,250,8603,1,0,0:0:0:0:
353,272,8723,2,0,B|400:312|481:268|472:200,1,170,4|4,0:0|0:3,0:0:0:0:
400,136,9443,5,0,0:0:0:0:
400,136,9563,1,0,0:0:0:0:
400,136,9683,2,0,B|392:96|400:40,1,85,2|0,0:0|0:0,0:0:0:0:
236,172,10163,1,8,0:3:0:0:
328,224,10403,5,2,0:0:0:0:
328,224,10523,1,0,0:0:0:0:
328,224,10643,1,2,0:0:0:0:
240,276,10883,1,0,0:0:0:0:
236,172,11123,2,0,B|228:120|240:72,1,85,8|0,0:3|0:0,0:0:0:0:
100,144,11603,2,0,B|104:192|96:240,1,85,2|0,0:0|0:0,0:0:0:0:
32,324,12083,1,4,0:3:0:0:
192,244,12323,1,0,0:0:0:0:
16,184,12563,5,8,0:0:0:0:
168,128,12803,1,8,0:0:0:0:
156,280,13043,1,0,0:0:0:0:
64,80,13283,1,12,0:0:0:0:
168,36,13523,1,8,0:3:0:0:
212,40,13643,1,4,0:3:0:0:
248,64,13763,1,0,0:0:0:0:
264,104,13883,1,8,0:0:0:0:
260,148,14003,1,8,0:0:0:0:
352,92,14243,6,0,B|408:56|472:80|496:144,1,170,4|2,0:0|0:0,0:0:0:0:
400,188,14963,1,8,0:0:0:0:
252,96,15203,1,10,0:0:0:0:
252,288,15443,1,4,0:0:0:0:
160,280,15683,1,0,3:0:0:0:
160,280,15803,1,8,0:0:0:0:
160,280,15923,2,0,L|179:212,1,42.5,4|0,0:0|0:0,0:0:0:0:
96,200,16163,2,0,L|144:164,1,42.5
112,104,16403,6,0,B|160:96|208:100,1,85,4|0,0:0|0:0,0:0:0:0:
288,140,16883,1,2,0:0:0:0:
328,56,17123,1,0,0:0:0:0:
196,100,17363,1,2,0:0:0:0:
344,192,17603,1,0,0:0:0:0:
180,252,17843,1,2,0:0:0:0:
304,320,18083,1,0,0:0:0:0:
256,196,18323,6,0,B|252:148|244:88,1,85,2|0,0:0|0:0,0:0:0:0:
84,232,18803,2,0,B|88:280|96:340,1,85,2|0,0:0|0:0,0:0:0:0:
212,344,19283,1,0,0:0:0:0:
256,196,19523,1,2,0:0:0:0:
92,96,19763,5,2,0:0:0:0:
132,112,19883,1,0,0:0:0:0:
176,108,20003,1,0,0:0:0:0:
212,88,20123,1,0,0:0:0:0:
232,52,20243,2,0,B|272:32|324:44,1,85,2|0,0:0|0:0,0:0:0:0:
344,128,20723,2,0,B|392:132|424:168,1,85,2|0,0:0|0:0,0:0:0:0:
440,200,21083,1,0,0:0:0:0:
440,200,21203,1,2,0:0:0:0:
296,332,21443,1,0,0:0:0:0:
264,208,21683,1,2,0:0:0:0:
372,244,21923,5,0,0:0:0:0:
372,244,22043,1,0,0:0:0:0:
372,244,22163,1,2,0:0:0:0:
204,304,22403,1,0,0:0:0:0:
152,144,22643,1,2,0:0:0:0:
204,304,22883,1,0,0:0:0:0:
324,152,23123,1,2,0:0:0:0:
324,152,23243,1,0,0:0:0:0:
324,152,23363,2,0,B|280:128|228:136,1,85,0|2,0:0|0:0,0:0:0:0:
128,228,23843,5,0,0:0:0:0:
128,228,24083,2,0,L|112:116,1,85,2|0,0:0|0:0,0:0:0:0:
256,284,24563,2,0,L|160:304,1,85,2|0,0:0|0:0,0:0:0:0:
296,188,25043,2,0,B|344:180|388:204,1,85,2|0,0:0|0:0,0:0:0:0:
444,344,25523,2,0,B|396:352|352:328,1,85,2|0,0:0|0:0,0:0:0:0:
196,176,26003,5,2,0:0:0:0:
228,272,26243,1,0,0:0:0:0:
292,152,26483,1,2,0:0:0:0:
320,244,26723,1,0,0:0:0:0:
140,256,26963,2,0,B|96:252|52:240,1,85,2|0,0:0|0:0,0:0:0:0:
32,104,27443,1,2,0:0:0:0:
144,140,27683,5,0,0:0:0:0:
144,140,27803,1,0,0:0:0:0:
144,140,27923,1,2,0:0:0:0:
328,88,28163,1,0,0:0:0:0:
372,272,28403,1,2,0:0:0:0:
188,324,28643,1,0,0:0:0:0:
216,144,28883,5,2,0:0:0:0:
171,265,29123,1,0,0:0:0:0:
292,309,29363,1,2,0:0:0:0:
337,188,29603,1,2,0:0:0:0:
224,48,29843,6,0,B|184:24|136:32,1,85,2|2,0:0|0:0,0:0:0:0:
168,196,30323,1,8,0:0:0:0:
216,276,30563,2,0,B|168:320|88:296|84:224,1,170,4|8,0:0|0:0,0:0:0:0:
24,112,31283,5,8,0:0:0:0:
36,92,31403,1,8,0:0:0:0:
48,72,31523,1,8,0:0:0:0:
60,52,31643,1,8,0:0:0:0:
72,36,31763,2,0,B|188:32|280:32,1,170,4|8,0:0|0:0,0:0:0:0:
288,128,32483,5,0,0:0:0:0:
288,128,32603,1,0,0:0:0:0:
288,128,32723,2,0,B|248:140|188:136,1,85,2|0,0:0|3:0,0:0:0:0:
112,128,33203,1,8,0:0:0:0:
96,272,33443,1,2,0:0:0:0:
236,288,33683,1,0,3:0:0:0:
184,192,33923,5,2,0:0:0:0:
320,288,34163,1,8,0:0:0:0:
176,352,34403,1,2,0:0:0:0:
184,192,34643,1,0,0:0:0:0:
184,192,34763,1,0,0:0:0:0:
184,192,34883,2,0,L|192:92,1,85,0|8,3:2|0:0,0:0:0:0:
372,204,35363,5,2,0:0:0:0:
372,204,35603,2,0,B|416:208|456:216,1,85,0|0,3:0|0:0,0:0:0:0:
368,300,36083,1,8,0:0:0:0:
280,148,36323,1,2,0:0:0:0:
276,284,36563,1,0,0:0:0:0:
276,284,36683,1,0,0:0:0:0:
276,284,36803,1,0,3:0:0:0:
164,328,37043,1,8,0:0:0:0:
132,168,37283,5,2,0:0:0:0:
276,196,37523,2,0,B|332:204|384:208,1,85,2|0,3:2|0:0,0:0:0:0:
424,124,38003,2,0,B|368:116|316:112,1,85,8|2,0:0|0:0,0:0:0:0:
316,80,38363,1,0,0:0:0:0:
276,92,38483,1,0,0:0:0:0:
236,84,38603,1,8,0:0:0:0:
204,60,38723,1,0,3:0:0:0:
112,184,38963,1,8,0:0:0:0:
164,260,39203,5,0,0:0:0:0:
164,260,39323,1,0,0:0:0:0:
164,260,39443,2,0,L|152:360,1,85,2|0,3:2|0:0,0:0:0:0:
336,316,39923,2,0,L|348:216,1,85,8|2,0:0|0:0,0:0:0:0:
244,304,40403,1,2,0:0:0:0:
272,136,40643,1,0,3:0:0:0:
244,304,40883,1,8,0:0:0:0:
136,200,41123,2,0,B|92:196|52:180,1,85,2|0,0:0|3:0,0:0:0:0:
152,40,41603,6,0,B|196:48|240:60,1,85,2|8,0:0|0:0,0:0:0:0:
260,192,42083,1,2,0:0:0:0:
344,228,42323,2,0,L|452:208,1,85,2|0,0:0|3:0,0:0:0:0:
364,132,42803,1,8,0:0:0:0:
276,324,43043,5,0,0:0:0:0:
276,324,43163,1,0,0:0:0:0:
276,324,43283,1,0,3:0:0:0:
224,188,43523,1,2,0:0:0:0:
380,284,43763,1,8,0:0:0:0:
292,240,44003,5,2,0:0:0:0:
348,88,44243,1,2,0:0:0:0:
388,204,44483,1,0,3:0:0:0:
276,324,44723,5,8,0:0:0:0:
172,296,44963,1,2,0:0:0:0:
84,344,45203,2,0,L|-8:316,1,85,0|4,3:0|0:0,0:0:0:0:
108,176,45683,1,8,0:0:0:0:
108,176,45923,2,0,B|208:196|284:224,1,170,4|0,0:0|0:0,0:0:0:0:
320,140,46643,2,0,L|312:96,2,42.5,8|8|0,0:0|0:0|0:0,0:0:0:0:
364,268,47123,6,0,B|408:272|448:260,2,68,4|0|0,0:0|0:0|0:0,0:0:0:0:
300,328,47843,2,0,B|228:312|160:344,1,136,2|2,0:0|0:0,0:0:0:0:
96,296,48563,1,8,0:0:0:0:
96,212,48803,1,2,0:0:0:0:
96,212,49043,2,0,L|108:136,1,68,4|0,0:0|0:0,0:0:0:0:
192,200,49523,1,0,0:0:0:0:
284,188,49763,2,0,B|364:172|412:236,1,136,2|10,0:0|0:0,0:0:0:0:
456,296,50483,2,0,B|424:320|376:308,1,68,8|2,0:0|0:0,0:0:0:0:
356,120,50963,5,4,0:0:0:0:
432,84,51203,2,0,B|440:132|436:164,1,68,2|2,0:0|0:0,0:0:0:0:
380,216,51683,2,0,B|436:160|516:196,1,136,2|2,0:0|0:0,0:0:0:0:
480,268,52403,1,8,0:0:0:0:
404,312,52643,1,2,0:0:0:0:
404,312,52883,2,0,B|356:300|304:304,1,68,2|0,0:0|0:0,0:0:0:0:
192,344,53363,2,0,B|232:344|272:352,1,68,8|0,0:0|0:0,0:0:0:0:
340,208,53843,1,2,0:0:0:0:
232,264,54083,1,0,3:0:0:0:
244,136,54323,1,8,0:0:0:0:
360,152,54563,6,0,L|340:208,1,34,8|8,0:0|0:0,0:0:0:0:
340,208,54803,2,0,B|396:244|464:212|468:144,1,170,4|8,0:0|0:0,0:0:0:0:
304,88,55523,1,0,3:0:0:0:
304,88,55643,1,0,3:0:0:0:
304,88,55763,1,0,3:0:0:0:
216,108,56003,1,0,3:0:0:0:
128,132,56243,2,0,B|92:112|32:112,1,85,8|0,0:0|0:0,0:0:0:0:
188,296,56723,6,0,B|200:256|196:196,1,85,0|0,3:0|0:0,0:0:0:0:
20,312,57203,2,0,B|76:336|116:340,1,85,8|2,0:0|0:2,0:0:0:0:
288,260,57683,1,0,3:0:0:0:
280,168,57923,1,0,3:0:0:0:
196,136,58163,1,10,0:0:0:0:
124,184,58403,5,0,0:0:0:0:
124,184,58523,1,0,0:0:0:0:
124,184,58643,2,0,L|144:276,1,85,4|0,0:0|0:0,0:0:0:0:
372,184,59123,2,0,L|352:276,1,85,8|0,0:0|0:0,0:0:0:0:
208,204,59603,1,2,0:0:0:0:
304,132,59843,1,4,0:0:0:0:
200,92,60083,1,8,0:0:0:0:
304,216,60323,6,0,B|308:280|248:328|188:304,1,170,4|0,0:0|3:0,0:0:0:0:
100,176,61043,1,8,0:0:0:0:
36,244,61283,1,0,0:0:0:0:
36,244,61403,1,0,0:0:0:0:
36,244,61523,1,2,0:2:0:0:
180,192,61763,1,2,0:2:0:0:
36,132,62003,1,8,0:0:0:0:
36,132,62123,1,8,0:0:0:0:
36,132,62243,1,8,0:0:0:0:
36,132,62363,1,8,0:0:0:0:
36,132,62483,1,12,0:0:0:0:
104,52,62723,5,8,0:3:0:0:
142,33,62843,1,0,0:0:0:0:
184,30,62963,1,8,0:3:0:0:
224,42,63083,1,0,0:0:0:0:
258,66,63203,1,8,0:3:0:0:
295,86,63323,1,0,0:0:0:0:
337,88,63443,1,8,0:3:0:0:
376,71,63563,1,0,0:0:0:0:
396,32,63683,1,4,3:3:0:0:
468,212,63923,1,2,3:0:0:0:
388,156,64163,5,8,0:0:0:0:
388,156,64283,1,8,0:0:0:0:
388,156,64403,2,0,L|376:252,1,85,4|0,0:0|0:0,0:0:0:0:
208,264,64883,1,10,0:2:0:0:
156,184,65123,1,2,0:2:0:0:
156,184,65243,1,0,0:0:0:0:
156,184,65363,2,0,B|144:140|152:88,1,85,2|0,0:2|3:0,0:0:0:0:
292,216,65843,2,0,B|304:260|296:312,1,85,10|2,0:2|0:2,0:0:0:0:
112,340,66323,5,2,3:2:0:0:
196,276,66563,1,2,0:0:0:0:
112,340,66803,1,10,0:0:0:0:
80,200,67043,1,2,0:0:0:0:
80,200,67523,1,0,3:0:0:0:
24,332,67763,1,8,0:0:0:0:
200,244,68003,5,0,0:0:0:0:
200,244,68123,1,0,0:0:0:0:
200,244,68243,2,0,B|248:232|296:240,1,85,2|0,3:2|0:0,0:0:0:0:
376,260,68723,1,8,0:0:0:0:
440,196,68963,1,0,0:0:0:0:
440,196,69083,2,0,L|416:92,1,85,8|0,0:0|0:0,0:0:0:0:
412,80,69443,1,0,3:0:0:0:
344,176,69683,1,8,0:0:0:0:
304,80,69923,1,0,0:0:0:0:
168,336,70163,5,2,3:2:0:0:
184,156,70403,1,0,0:3:0:0:
268,236,70643,1,8,0:0:0:0:
56,268,70883,1,4,0:2:0:0:
56,268,71363,5,2,3:0:0:0:
92,244,71483,1,0,0:0:0:0:
136,240,71603,1,10,0:0:0:0:
176,256,71723,1,0,0:2:0:0:
212,280,71843,1,2,0:2:0:0:
252,288,71963,1,0,0:2:0:0:
292,280,72083,1,6,0:0:0:0:
356,208,72323,6,0,B|364:164|360:120,1,85,0|8,0:0|0:0,0:0:0:0:
216,56,72803,1,0,0:0:0:0:
216,56,72923,1,8,0:0:0:0:
216,56,73043,2,0,B|208:100|212:144,1,85,0|0,0:0|3:0,0:0:0:0:
112,196,73523,2,0,B|68:200|24:188,1,85,8|0,0:0|0:0,0:0:0:0:
256,332,74003,5,2,0:0:0:0:
368,276,74243,1,2,0:0:0:0:
264,208,74483,1,10,0:0:0:0:
152,268,74723,2,0,B|140:320|152:360,1,85,2|2,0:0|0:0,0:0:0:0:
184,176,75203,5,8,0:0:0:0:
170,159,75323,1,0,0:0:0:0:
151,148,75443,1,8,0:0:0:0:
130,143,75563,1,8,0:0:0:0:
108,141,75683,1,8,0:3:0:0:
87,145,75803,1,4,0:3:0:0:
67,153,75923,1,4,0:0:0:0:
20,84,76163,1,0,0:0:0:0:
172,252,76403,5,8,0:0:0:0:
68,272,76643,1,0,0:0:0:0:
68,272,76763,1,8,0:0:0:0:
68,272,76883,1,0,0:0:0:0:
140,336,77123,5,0,3:0:0:0:
128,176,77363,1,8,0:0:0:0:
264,236,77603,1,8,0:0:0:0:
264,236,77723,1,8,0:0:0:0:
264,236,77843,2,0,B|312:228|364:228,1,85,4|0,0:0|0:0,0:0:0:0:
456,160,78323,1,8,0:0:0:0:
440,52,78563,2,0,B|424:116|356:136|296:96,1,170,4|0,0:0|3:0,0:0:0:0:
228,32,79283,1,8,0:0:0:0:
120,120,79523,5,8,0:3:0:0:
120,120,79643,1,4,0:3:0:0:
120,120,79763,2,0,B|168:100|216:104,1,85,4|0,0:0|0:0,0:0:0:0:
280,264,80243,1,10,0:0:0:0:
208,324,80483,1,0,0:0:0:0:
167,337,80603,1,8,0:0:0:0:
124,328,80723,1,0,0:0:0:0:
92,300,80843,1,8,0:0:0:0:
84,260,80963,1,8,0:0:0:0:
148,192,81203,1,8,0:0:0:0:
132,100,81443,5,2,0:0:0:0:
132,100,81563,1,0,0:0:0:0:
132,100,81683,2,2,B|92:68|40:56,1,85,2|0,0:2|0:0,0:1:0:0:
224,224,82163,1,8,0:0:0:0:
296,176,82403,2,2,B|312:112|288:28,1,127.5,2|8,0:0|0:0,0:1:0:0:
293,49,82883,1,0,3:0:0:0:
212,120,83123,1,8,0:0:0:0:
360,232,83363,5,0,0:0:0:0:
360,232,83483,1,0,0:0:0:0:
360,232,83603,2,0,B|409:256|465:240,1,85,2|0,3:2|0:0,0:0:0:0:
264,316,84083,1,8,0:0:0:0:
172,348,84323,1,2,0:0:0:0:
172,348,84443,1,8,0:0:0:0:
172,348,84563,1,0,0:0:0:0:
172,348,84683,1,8,0:0:0:0:
172,348,84803,2,0,L|88:336,1,85,2|8,0:0|0:0,0:0:0:0:
4,364,85283,1,2,0:0:0:0:
188,232,85523,5,2,0:0:0:0:
236,68,85763,1,2,0:0:0:0:
112,180,86003,1,8,0:0:0:0:
280,140,86243,1,4,0:0:0:0:
192,208,86483,1,0,0:0:0:0:
256,292,86723,5,0,0:0:0:0:
256,292,86843,1,0,0:0:0:0:
256,292,86963,2,0,B|300:300|352:292,1,85,10|10,0:0|0:0,0:0:0:0:
448,176,87443,1,4,0:0:0:0:
216,208,87683,1,0,0:0:0:0:
216,208,87803,1,0,0:0:0:0:
216,208,87923,2,0,B|172:212|120:204,1,85,10|2,0:0|0:0,0:0:0:0:
72,136,88403,1,2,0:0:0:0:
232,72,88643,6,0,B|284:60|336:76,1,85,2|8,0:0|0:0,0:0:0:0:
388,256,89123,2,0,B|336:268|284:252,1,85,2|0,0:0|0:0,0:0:0:0:
152,328,89603,1,2,0:0:0:0:
304,256,89843,1,10,0:0:0:0:
160,172,90083,2,0,B|132:100|184:40,1,127.5,4|8,0:0|0:0,0:0:0:0:
175,51,90563,1,0,0:0:0:0:
288,168,90803,1,10,0:0:0:0:
220,240,91043,5,8,0:3:0:0:
220,240,91163,1,4,0:3:0:0:
220,240,91283,1,4,0:0:0:0:
316,292,91523,1,2,0:0:0:0:
232,348,91763,1,8,0:0:0:0:
376,148,92003,5,2,0:0:0:0:
300,208,92243,1,2,0:0:0:0:
388,252,92483,1,2,3:2:0:0:
208,60,92723,5,10,0:0:0:0:
292,124,92963,1,2,0:2:0:0:
200,164,93203,1,4,0:3:0:0:
388,252,93443,6,0,B|392:204|396:164,1,85,4|8,0:0|0:0,0:0:0:0:
272,236,93923,2,0,B|216:256|196:336|244:380,1,170,4|2,0:0|0:0,0:1:0:0:
320,328,94643,1,8,0:0:0:0:
328,132,94883,5,8,0:3:0:0:
328,132,95003,1,4,0:3:0:0:
328,132,95123,1,2,0:3:0:0:
208,148,95363,1,2,0:3:0:0:
144,44,95603,1,8,0:0:0:0:
276,232,95843,5,2,0:3:0:0:
152,216,96083,1,2,0:3:0:0:
88,320,96323,1,0,0:0:0:0:
36,216,96563,5,8,0:0:0:0:
256,328,96803,1,4,0:0:0:0:
256,328,97283,1,2,0:0:0:0:
236,136,97523,1,8,0:0:0:0:
352,228,97763,5,0,0:0:0:0:
320,244,97883,1,8,0:0:0:0:
288,248,98003,1,0,0:0:0:0:
256,248,98123,1,8,0:0:0:0:
224,236,98243,1,8,0:0:0:0:
196,216,98363,1,0,0:0:0:0:
164,208,98483,2,0,L|153:158,2,42.5,8|8|8,0:0|0:0|0:0,0:0:0:0:
153,231,98843,1,8,0:0:0:0:
141,253,98963,1,4,0:0:0:0:
340,312,99203,5,0,0:0:0:0:
340,312,99323,1,0,0:0:0:0:
340,312,99443,2,0,B|340:264|336:212,1,85,2|0,3:2|0:0,0:0:0:0:
236,284,99923,2,0,B|232:236|236:188,1,85,2|2,3:2|0:2,0:0:0:0:
312,148,100403,1,0,3:0:0:0:
160,92,100643,6,0,B|100:120|88:204|144:240,1,170,4|2,3:2|3:2,0:0:0:0:
96,316,101363,2,0,B|56:352|8:344,1,85,4|0,3:2|3:0,0:0:0:0:
28,248,101843,1,4,3:2:0:0:
216,344,102083,5,0,3:0:0:0:
257,336,102203,1,0,3:0:0:0:
298,329,102323,1,12,0:0:0:0:
340,323,102443,1,8,0:0:0:0:
381,315,102563,1,8,0:3:0:0:
422,306,102683,1,4,0:3:0:0:
463,294,102803,2,0,B|467:206|471:102,1,170,4|8,0:0|0:0,0:0:0:0:
268,80,103643,5,8,0:0:0:0:
268,80,103763,2,0,B|312:88|368:84,1,85,0|0,0:0|3:0,0:0:0:0:
200,204,104243,2,0,B|156:196|100:200,1,85,8|0,0:0|0:0,0:0:0:0:
80,208,104603,1,0,0:0:0:0:
80,208,104723,1,0,3:0:0:0:
260,312,104963,6,0,B|308:312|372:324,1,85,0|8,0:0|0:0,0:0:0:0:
448,152,105563,1,8,0:0:0:0:
448,152,105683,2,0,B|360:156,1,85,0|0,0:0|3:0,0:0:0:0:
260,104,106163,1,8,0:0:0:0:
164,168,106403,5,0,0:0:0:0:
164,168,106523,1,0,0:0:0:0:
164,168,106643,2,0,B|112:176|68:168,2,85,8|8|0,0:0|0:0|0:0,0:0:0:0:
288,308,107363,1,8,0:0:0:0:
384,272,107603,1,8,0:0:0:0:
360,236,107723,1,4,0:0:0:0:
324,212,107843,1,8,0:0:0:0:
280,208,107963,1,8,0:0:0:0:
240,216,108083,1,4,0:0:0:0:
120,316,108323,6,0,B|60:332|2:266|32:196,1,170,4|8,0:0|0:0,0:0:0:0:
144,100,109043,1,8,0:0:0:0:
156,228,109283,1,8,0:0:0:0:
308,260,109523,2,0,B|352:236|360:180|316:132,1,127.5,4|0,0:2|0:0,0:0:0:0:
308,136,110003,2,0,B|293:87|327:42|392:39,1,127.5,4|0,1:0|0:0,0:0:0:0:
408,48,110483,5,4,0:0:0:0:
248,32,110723,1,0,0:0:0:0:
272,208,110963,1,8,0:0:0:0:
84,164,111203,2,0,B|108:108|192:96|232:144,1,170,4|0,0:0|0:0,0:0:0:0:
176,280,111923,1,8,0:0:0:0:
176,280,112163,1,4,0:0:0:0:
256,192,112403,12,0,120323,0:0:0:0:
