osu file format v7

[General]
AudioFilename: Circus Disk - Christmas Days op.mp3
AudioLeadIn: 1000
PreviewTime: 23081
Countdown: 1
SampleSet: Soft
StackLeniency: 0.7
Mode: 0
LetterboxInBreaks: 1

[Editor]
DistanceSpacing: 1
BeatDivisor: 4
GridSize: 8

[Metadata]
Title:Santa Claus ni Yoyaku Shite!
Artist:yozuca*, Rino, et al
Creator:saymun
Version:Normal
Source:Circus Disc: Christmas Days
Tags:Da Capo Misato Aki Hashimoto Miyuku

[Difficulty]
HPDrainRate:4
CircleSize:4
OverallDifficulty:5
SliderMultiplier:1.6
SliderTickRate:0.5

[Events]
//Background and Video events
Video,-200,"Circus Disk - Christmas Days.AVI"
0,0,"bg.jpg"
//Break Periods
//Storyboard Layer 0 (Background)
//Storyboard Layer 1 (Fail)
//Storyboard Layer 2 (Pass)
//Storyboard Layer 3 (Foreground)
//Storyboard Sound Samples
//Background Colour Transformations
3,100,0,0,0

[TimingPoints]
2162,526.315789473684,4,2,0,100,1,0
5712,-100,4,1,0,100,0,0
5975,-100,4,2,0,100,0,0
19396,-100,4,1,0,100,0,0
19791,-100,4,2,0,100,0,0
20317,-100,4,1,0,100,0,0
20712,-100,4,2,0,100,0,0
22620,-100,4,1,0,100,0,0
22752,-100,4,2,0,100,0,0
39396,-100,4,1,0,100,0,0
40712,-100,4,2,0,100,0,0
42028,-100,4,1,0,100,0,0
42817,-100,4,2,0,100,0,0
44133,-100,4,1,0,100,0,0
45975,-100,4,2,0,100,0,0
59002,-100,4,2,0,100,0,1
75778,-100,4,2,0,100,0,0
75844,-100,4,2,0,100,0,1
92686,-100,4,2,0,100,0,0

[Colours]
Combo1 : 0,204,0
Combo2 : 200,38,38
Combo3 : 255,255,255

[HitObjects]
256,72,2162,1,2
136,192,2688,1,2
256,312,3214,1,2
376,192,3740,1,2
256,208,4267,12,8,5846
96,104,6372,5,4
256,104,6898,2,0,B|368:104,1,80,2|0
360,184,7425,2,0,B|256:184,1,80,2|0
256,264,7951,2,0,B|368:264,1,80,2|0
400,304,8477,6,0,B|400:208,1,80,2|0
328,192,9004,2,0,B|328:288,1,80,2|0
256,304,9530,2,0,B|256:200,1,80,2|0
184,192,10056,2,0,B|184:296,1,80,2|0
112,304,10583,5,4
32,168,11109,2,0,B|112:80,1,80,2|0
168,128,11635,2,0,B|104:200,1,80,2|0
152,256,12161,2,0,B|232:168,1,80,2|0
240,272,12688,6,0,B|152:192,1,80,2|0
208,144,13214,2,0,B|296:224,1,80,2|0
344,168,13740,2,0,B|256:88,1,80,2|0
312,40,14267,2,0,B|400:120,1,80,2|0
423,157,14793,6,0,B|424:248|320:256,1,160,2|0
256,208,15583,1,0
192,256,15846,2,0,B|88:248|88:152,1,160,2|0
232,88,16898,6,0,B|288:64|336:104,1,80,2|0
264,152,17425,2,0,B|208:176|160:136,1,80,2|0
152,80,17951,1,2
56,208,18477,1,8
208,232,19004,6,0,B|256:256|312:216,1,80,2|2
360,200,19530,1,0
360,200,19662,1,0
296,152,19925,2,0,B|248:128|192:168,1,80,2|2
144,176,20451,1,0
144,176,20583,1,0
112,248,20846,1,4
256,312,21372,5,2
376,312,21767,1,2
320,208,22161,2,0,B|320:40,1,160,2|8
160,48,23214,5,4
232,192,23740,1,0
296,336,24267,2,0,B|400:336,2,80,2|0|0
232,288,25056,1,0
168,336,25319,6,0,B|56:320|88:200,1,160,2|2
152,184,26109,1,0
216,136,26372,2,0,B|336:136,3,80,2|0|2|0
376,136,27425,5,2
376,296,27951,1,0
216,296,28477,1,2
136,296,28740,1,0
112,216,29004,1,0
176,168,29267,1,0
240,208,29530,6,0,B|344:216|360:112,1,160,2|2
304,64,30319,1,0
224,88,30583,2,0,B|136:88,3,80,2|0|2|0
80,136,31635,6,0,B|40:208|72:296,1,160,4|0
144,320,32425,1,0
144,320,32556,2,0,B|248:288|344:328,1,200,0|0
376,256,33477,1,0
416,184,33740,6,0,B|384:80|256:104,1,160,2|0
224,64,34530,1,0
224,64,34661,2,0,B|96:48|80:184,1,200
112,240,35583,1,0
152,312,35846,6,0,B|232:344|336:304,2,160,4|0|4
200,248,37161,1,0
280,248,37425,1,0
240,176,37688,1,0
320,176,37951,6,0,B|424:168|424:48,1,160,2|2
344,56,38740,1,2
264,72,39004,1,2
104,72,39530,5,8
256,192,40056,5,0
256,192,40319,1,0
256,192,40583,1,0
360,312,40977,6,0,B|456:312,2,80,2|0|2
320,312,41635,2,0,B|200:312,1,80,0|4
256,192,42161,5,0
256,192,42424,1,0
256,192,42688,1,0
152,72,43083,6,0,B|56:72,2,80,2|0|2
192,72,43740,2,0,B|312:72,1,80,0|4
352,72,44267,5,0
352,232,44793,1,0
192,232,45319,1,0
192,72,45846,1,0
352,72,46372,6,0,B|416:64|448:120,1,80,2|0
368,144,46898,2,0,B|320:144|288:192,1,80,2|0
360,224,47425,2,0,B|424:216|456:272,2,80,2|0|4
200,192,48477,5,2
160,120,48740,1,0
80,120,49004,1,0
40,192,49267,1,0
80,264,49530,1,2
160,264,49793,1,0
120,192,50056,1,0
312,192,50583,5,2
352,120,50846,1,0
432,120,51110,1,0
472,192,51373,1,0
432,264,51636,1,2
352,264,51899,1,0
392,192,52162,1,0
256,272,52688,5,4
256,192,52951,1,4
256,112,53214,1,4
344,192,53609,6,0,B|344:280,2,80,2|0|2
344,152,54267,2,0,B|344:64,1,80,0|0
256,208,54793,12,4,56635
256,72,56898,5,2
136,192,57424,1,2
256,312,57950,1,2
376,192,58476,1,2
256,72,59004,6,0,B|208:56|160:80,4,80,4|0|0|0|2
296,144,60319,1,0
256,216,60583,1,0
224,144,60846,1,0
184,216,61109,2,0,B|104:216|96:112,2,120,2|0|2
408,304,63214,6,0,B|377:320|329:304,1,80,6|0
256,280,63740,1,0
192,232,64004,1,0
216,152,64267,1,2
296,152,64530,1,0
320,232,64793,2,0,B|350:215|398:231,1,80,0|0
424,152,65319,2,0,B|416:80|328:72,2,120,2|0|2
184,120,66898,5,0
120,72,67161,1,0
56,120,67425,1,2
80,200,67688,1,0
160,200,67951,2,0,B|248:200,2,80,2|0|4
296,280,69004,5,2
360,328,69267,1,0
424,280,69531,1,2
400,200,69794,1,0
320,200,70057,2,0,B|232:200,2,80,2|0|4
112,88,71372,5,0
88,168,71635,2,0,B|72:232|104:272,1,80,2|0
160,288,72161,2,0,B|176:224|144:184,1,80,0|0
192,136,72688,2,0,B|224:64|320:88,2,120,2|0|0
264,168,73740,6,0,B|376:168,1,80,2|0
392,232,74267,2,0,B|312:232,1,80,2|0
264,296,74793,2,0,B|344:296,1,80,2|0
392,360,75319,2,0,B|312:360,1,80,2|0
232,360,75846,6,0,B|184:376|144:352,4,80,4|0|0|0|2
272,296,77161,1,0
192,296,77425,1,0
232,224,77688,1,0
152,224,77951,2,0,B|72:224|80:128,2,120,2|0|0
256,104,80056,6,0,B|200:104|192:40,2,80,6|0|0
328,136,80846,1,0
400,168,81109,2,0,B|456:168|464:232,2,80,2|0|0
328,208,81898,1,0
256,176,82161,2,0,B|184:152|112:184,2,120,4|0|2
72,328,83740,5,2
152,328,84004,1,0
232,328,84267,2,0,B|312:360|408:320,1,160,2|4
384,168,85319,2,0,B|304:136|208:176,1,160,2|4
72,192,86372,5,2
144,96,86767,1,2
216,192,87161,1,4
440,192,88214,5,0
408,264,88477,2,0,B|328:288|248:264,2,160,2|0|2
328,176,89925,1,0
256,80,90319,1,0
176,96,90583,6,0,B|152:184|184:272,1,160,2|4
333,253,91635,2,0,B|360:184|336:96,1,160,2|4
88,192,92688,5,2
144,136,92951,1,2
200,192,93214,2,0,B|264:224|336:184,1,120,2|2
368,128,93872,2,0,B|304:96|232:136,1,120,2|2
200,64,94530,1,8
128,96,94793,5,2
88,160,95056,1,2
128,232,95319,2,0,B|176:296|256:280,1,120,2|2
304,240,95977,2,0,B|256:176|176:192,1,120,2|4
