osu file format v10

[General]
AudioFilename: Misato Aki - Santa Claus ni Yoyaku Shite.mp3
AudioLeadIn: 2000
PreviewTime: 57865
Countdown: 0
SampleSet: Soft
StackLeniency: 0.4
Mode: 0
LetterboxInBreaks: 0

[Editor]
DistanceSpacing: 1
BeatDivisor: 4
GridSize: 4

[Metadata]
Title:Santa Claus ni Yoyaku Shite!
TitleUnicode:サンタクロースに予約して!
Artist:yozuca*, Rino, et al
ArtistUnicode:yozuca*, Rino, et al
Creator:Andrea
Version:Andrea-Claus
Source:C.D. Christmas Days ~Circus Disc Christmas Days~
Tags:Da Capo Misato Aki Hashimoto Miyuki Saten-san osuplayer111
BeatmapID:201186
BeatmapSetID:69864

[Difficulty]
HPDrainRate:6
CircleSize:4
OverallDifficulty:6
ApproachRate:7
SliderMultiplier:1.8
SliderTickRate:2

[Events]
//Background and Video events
0,0,"Moe.jpg"
//Break Periods
//Storyboard Layer 0 (Background)
//Storyboard Layer 1 (Fail)
//Storyboard Layer 2 (Pass)
//Storyboard Layer 3 (Foreground)
//Storyboard Sound Samples
//Background Colour Transformations
3,100,255,64,64

[TimingPoints]
1155,526.315789473684,4,2,1,80,1,0
3260,-100,4,2,1,50,0,0
4839,-100,4,2,1,80,0,0
20102,-100,4,2,2,80,0,0
20365,-100,4,2,1,80,0,0
38786,-100,4,2,2,5,0,0
39049,-100,4,2,2,80,0,0
39839,-100,4,2,2,5,0,0
39970,-100,4,2,2,80,0,0
45628,-100,4,2,1,80,0,0
54312,-100,4,2,2,80,0,0
57470,-100,4,2,1,80,0,0
57997,-100,4,2,1,80,0,1
59181,-100,4,2,2,80,0,1
59312,-100,4,2,1,80,0,1
72339,-100,4,2,2,80,0,1
74707,-100,4,2,1,80,0,0
74839,-100,4,2,1,80,0,1
76023,-100,4,2,2,80,0,1
76154,-100,4,2,1,80,0,1
80233,-100,4,2,2,80,0,1
80365,-100,4,2,1,80,0,1
89576,-100,4,2,1,80,0,0
91944,-100,4,2,2,80,0,0
94576,-100,4,2,1,80,0,0
97602,-100,4,2,1,5,0,0

[Colours]
Combo1 : 0,255,0
Combo2 : 215,40,40
Combo3 : 255,255,255

[HitObjects]
40,192,1155,1,2,0:0:0
256,344,1681,1,2,0:0:0
472,192,2207,1,2,0:0:0
256,40,2733,1,2,0:0:0
256,192,3260,12,8,4839,0:0:0
216,48,5365,6,0,P|184:136,1,90,4|2,0:0|0:0,0:0:0
296,48,5891,2,0,P|328:136,1,90,0|2,0:0|0:0,0:0:0
326,132,6286,1,0,0:0:0
256,192,6549,1,2,0:0:0
256,280,6812,2,0,P|256:336,1,45
168,304,7207,6,0,P|128:304|88:272,1,90,2|0,0:0|0:0,0:0:0
48,192,7733,1,2,0:0:0
89,109,7997,2,0,P|128:80|168:80,1,90,0|2,0:0|0:0,0:0:0
168,80,8391,1,0,0:0:0
256,104,8654,1,2,0:0:0
344,80,8918,1,0,0:0:0
344,80,9049,2,0,P|384:80|422:109,1,90,0|2,0:0|0:0,0:0:0
464,192,9576,5,4,0:0:0
422,274,9839,2,0,P|384:304|344:304,1,90,2|0,0:0|0:0,0:0:0
352,216,10365,2,0,P|328:176,1,45,2|0,0:0|0:0,0:0:0
256,120,10760,1,2,0:0:0
183,177,11023,2,0,P|160:216,1,45
208,296,11418,1,2,0:0:0
256,224,11681,5,0,0:0:0
304,296,11944,2,0,P|344:296|376:336,1,90,2|0,0:0|0:0,0:0:0
464,328,12470,2,0,P|464:280,1,45,2|0,0:0|0:0,0:0:0
464,192,12865,1,2,0:0:0
464,56,13128,2,0,P|464:104,1,45
376,104,13523,1,2,0:0:0
324,176,13786,6,0,P|256:126|188:177,1,180,4|0,0:0|0:0,0:0:0
256,240,14576,1,2,0:0:0
256,240,14839,2,0,P|256:60,1,180
168,60,15628,2,0,P|112:136,1,90,2|4,0:0|0:0,0:0:0
344,60,16154,2,0,P|400:136,1,90,2|0,0:0|0:0,0:0:0
256,328,16681,2,0,P|256:232,1,90,2|0,0:0|0:0,0:0:0
256,148,17207,1,2,0:0:0
336,192,17470,6,0,P|336:240|360:272,1,90,0|2,0:0|0:0,0:0:0
176,192,17997,2,0,P|176:240|152:272,1,90,4|2,0:0|0:0,0:0:0
92,204,18523,2,0,P|48:176,1,45,0|2,0:0|0:0,0:0:0
256,148,18918,2,0,P|256:52,1,90,0|2,0:0|0:0,0:0:0
420,204,19444,2,0,P|464:176,1,45,0|2,0:0|0:0,0:0:0
328,192,19839,6,0,P|256:246|256:246|184:192,1,180,2|4,0:0|0:0,0:0:0
256,80,20760,1,4,0:0:0
328,192,21154,1,4,0:0:0
256,304,21681,5,8,0:0:0
256,304,21944,1,0,0:0:0
256,304,22207,2,0,P|164:304|104:244,2,180,4|0|0,0:0|0:0|0:0,0:0:0
348,300,23523,1,2,0:0:0
412,236,23786,1,0,0:0:0
412,148,24049,1,2,0:0:0
348,84,24312,6,0,P|256:84|200:148,2,180
412,148,25628,2,0,P|456:148|480:112,1,90,2|0,0:0|0:0,0:0:0
412,236,26154,2,0,P|456:236|480:272,1,90,2|0,0:0|0:0,0:0:0
416,336,26681,1,2,0:0:0
340,288,26944,6,0,P|256:256|256:256|172:288,1,180
128,208,27733,2,0,P|216:176,1,90,2|0,0:0|0:0,0:0:0
384,208,28260,2,0,P|296:176,1,90,2|0,0:0|0:0,0:0:0
256,24,28786,2,0,P|256:116,1,90,2|0,0:0|0:0,0:0:0
256,114,29312,1,2,0:0:0
256,360,29576,2,0,P|256:268,1,90,0|2,0:0|0:0,0:0:0
256,270,30102,1,0,0:0:0
212,192,30365,6,0,P|180:160|180:160|180:112,1,90,2|4,0:0|0:0,0:0:0
300,192,30891,2,0,P|332:160|332:160|332:112,1,90,2|0,0:0|0:0,0:0:0
256,68,31418,2,0,P|256:120,1,45,2|0,0:0|0:0,0:0:0
300,192,31812,1,2,0:0:0
256,316,32076,2,0,P|256:264,1,45
212,192,32470,1,2,0:0:0
180,108,32733,6,0,P|232:108|256:68|256:68|288:108|332:108,1,180
300,192,33523,2,0,P|328:236,1,45,2|0,0:0|0:0,0:0:0
256,288,33918,1,2,0:0:0
187,229,34181,2,0,P|212:192,1,45
256,112,34576,1,2,0:0:0
188,52,34839,6,0,P|216:16|216:16|256:48|296:16|296:16|324:52,2,180,4|0|4,0:0|0:0|0:0,0:0:0
148,132,36154,2,0,P|192:132|216:172,1,90,2|0,0:0|0:0,0:0:0
364,132,36681,2,0,P|320:132|296:172,1,90,2|4,0:0|0:0,0:0:0
256,252,37207,1,2,0:0:0
188,312,37470,1,0,0:0:0
256,372,37733,1,2,0:0:0
324,312,37997,1,4,0:0:0
256,12,38523,6,0,P|256:192,1,180,8|2,0:0|0:0,0:0:0
256,192,39312,1,0,0:0:0
196,260,39576,2,0,P|240:260|256:284|256:284|268:260|316:260,1,135,2|0,0:0|0:0,0:0:0
376,192,40233,1,0,0:0:0
336,112,40497,2,0,P|292:80,1,45
212,84,40891,1,0,0:0:0
256,164,41154,6,0,P|256:260,1,90,2|0,0:0|0:0,0:0:0
256,344,41681,1,2,0:0:0
120,328,42076,1,0,0:0:0
56,272,42339,1,0,0:0:0
120,192,42602,2,0,P|75:192,1,45
56,112,42997,1,0,0:0:0
120,56,43260,6,0,P|176:56|176:56|224:88|224:88|292:88,1,180,4|0,0:0|0:0,0:0:0
392,328,44312,1,4,0:0:0
392,328,44576,1,0,0:0:0
392,328,44839,2,0,P|336:328|336:328|288:296|288:296|220:296,2,180,0|4|0,0:0|0:0|0:0,0:0:0
416,240,46154,1,2,0:0:0
448,156,46418,1,4,0:0:0
360,156,46681,2,0,P|316:156|284:124,1,90,2|0,0:0|0:0,0:0:0
236,48,47207,5,2,0:0:0
212,48,47339,1,0,0:0:0
188,48,47470,1,4,0:0:0
128,112,47733,1,2,0:0:0
112,132,47865,1,0,0:0:0
96,152,47997,1,0,0:0:0
80,172,48128,1,0,0:0:0
64,192,48260,1,2,0:0:0
48,212,48391,1,0,0:0:0
32,232,48523,1,0,0:0:0
96,296,48786,2,0,P|132:328,1,45,2|0,0:0|0:0,0:0:0
292,348,49312,5,2,0:0:0
308,328,49444,1,0,0:0:0
324,308,49576,1,4,0:0:0
340,288,49707,1,0,0:0:0
356,268,49839,1,2,0:0:0
372,248,49970,1,0,0:0:0
388,228,50102,1,0,0:0:0
404,208,50233,1,0,0:0:0
420,188,50365,1,2,0:0:0
436,168,50497,1,0,0:0:0
452,148,50628,1,0,0:0:0
384,88,50891,2,0,P|340:56,1,45,2|0,0:0|0:0,0:0:0
188,224,51681,5,4,0:0:0
256,284,51944,1,2,0:0:0
324,224,52207,2,0,P|324:160|276:112,1,135,4|0,0:0|0:0,0:0:0
184,112,52865,2,0,P|144:112|108:80,1,90,2|0,0:0|0:0,0:0:0
108,80,53260,2,0,P|16:80,1,90,0|2,0:0|0:0,0:0:0
16,168,53786,1,0,0:0:0
76,232,54049,6,4,P|144:232|144:232|196:280,1,135
436,232,54839,2,4,P|368:232|368:232|316:280,1,135
256,128,55628,1,4,0:0:0
256,40,55891,5,2,0:0:0
40,192,56418,1,2,0:0:0
256,344,56944,1,2,0:0:0
472,192,57470,1,8,0:0:0
256,192,57997,5,4,0:0:0
212,112,58260,1,2,0:0:0
300,112,58523,1,0,0:0:0
256,36,58786,1,2,0:0:0
256,36,58918,2,0,P|320:36|372:80,1,135,0|2,0:0|0:0,0:0:0
432,148,59576,1,0,0:0:0
432,236,59839,1,2,0:0:0
372,304,60102,2,0,P|320:348|256:348,1,135
255,347,60628,6,0,P|188:288,1,90,0|2,0:0|0:0,0:0:0
28,208,61154,2,0,P|95:267,1,90,0|2,0:0|0:0,0:0:0
160,208,61681,2,0,P|220:136,1,90,0|2,0:0|0:0,0:0:0
352,208,62207,2,0,P|292:136,1,90,4|2,0:0|0:0,0:0:0
256,56,62733,1,0,0:0:0
348,52,62997,6,0,P|376:88,1,45,2|0,0:0|0:0,0:0:0
164,52,63391,2,0,P|136:88,1,45,0|2,0:0|0:0,0:0:0
184,152,63786,1,0,0:0:0
256,192,64049,1,2,0:0:0
328,152,64312,1,0,0:0:0
256,108,64576,6,0,P|256:60,2,45,2|0|0,0:0|0:0|0:0,0:0:0
256,192,65102,1,2,0:0:0
176,240,65365,2,0,P|256:282|256:282|336:240,1,180
384,316,66154,2,0,P|300:360,1,90,2|4,0:0|0:0,0:0:0
128,316,66681,2,0,P|212:360,1,90,2|0,0:0|0:0,0:0:0
256,100,67207,2,0,P|256:200,1,90,2|0,0:0|0:0,0:0:0
88,120,67997,5,0,0:0:0
36,192,68260,1,2,0:0:0
88,264,68523,2,0,P|180:264|240:324,1,180,4|0,0:0|0:0,0:0:0
328,320,69312,1,2,0:0:0
388,252,69576,1,0,0:0:0
388,164,69839,5,2,0:0:0
388,164,69970,1,0,0:0:0
388,164,70102,2,0,P|320:96,1,90,0|2,0:0|0:0,0:0:0
256,160,70628,2,0,P|256:252,1,90,4|2,0:0|0:0,0:0:0
124,164,71154,2,0,P|192:96,1,90,0|2,0:0|0:0,0:0:0
187,100,71549,1,0,0:0:0
187,100,71681,1,0,0:0:0
256,160,71944,5,2,0:0:0
256,160,72076,2,0,P|256:304,1,135,0|2,0:0|0:0,0:0:0
328,352,72733,2,0,P|352:264,1,90,0|2,0:0|0:0,0:0:0
184,352,73260,2,0,P|160:264,1,90,0|2,0:0|0:0,0:0:0
140,176,73786,2,0,P|184:176|216:144,1,90,0|2,0:0|0:0,0:0:0
372,176,74312,2,0,P|328:176|296:144,1,90,0|2,0:0|0:0,0:0:0
364,88,74839,5,4,0:0:0
300,24,75102,1,2,0:0:0
212,24,75365,1,0,0:0:0
148,88,75628,1,2,0:0:0
148,88,75760,2,0,P|80:88|40:136,1,135,0|2,0:0|0:0,0:0:0
40,228,76418,1,0,0:0:0
100,292,76681,1,2,0:0:0
156,224,76944,2,0,P|228:224|268:268,1,135
267,267,77470,5,0,0:0:0
304,348,77733,2,0,P|396:348,1,90,2|0,0:0|0:0,0:0:0
484,348,78260,1,2,0:0:0
484,260,78523,2,0,P|404:268|416:192,1,180,0|4,0:0|0:0,0:0:0
480,140,79312,1,2,0:0:0
396,112,79576,1,0,0:0:0
316,140,79839,1,2,0:0:0
316,140,79970,2,0,P|268:140|256:116|256:116|244:140|196:140,1,135,0|2,0:0|0:0,0:0:0
116,112,80628,2,0,P|72:112|44:148,1,90,0|2,0:0|0:0,0:0:0
44,238,81154,6,0,P|72:272|116:272,1,90,0|2,0:0|0:0,0:0:0
140,260,81549,1,0,0:0:0
160,248,81681,1,0,0:0:0
220,316,81944,1,2,0:0:0
308,316,82207,2,0,P|400:316|460:256,1,180
396,192,82997,1,2,0:0:0
459,126,83260,6,0,P|400:68|308:68,1,180,4|0,0:0|0:0,0:0:0
256,140,84049,1,2,0:0:0
204,68,84312,2,0,P|160:68|160:68|128:100,1,90,4|2,0:0|0:0,0:0:0
60,160,84839,1,4,0:0:0
176,300,85365,5,4,0:0:0
256,192,85760,1,4,0:0:0
336,300,86154,1,4,0:0:0
452,160,86681,1,2,0:0:0
452,160,86944,1,0,0:0:0
384,100,87207,5,2,0:0:0
384,100,87339,1,0,0:0:0
384,100,87470,2,0,P|352:68|352:68|308:68,1,90,4|2,0:0|0:0,0:0:0
256,140,87997,1,0,0:0:0
128,100,88260,2,0,P|160:68|160:68|204:68,1,90,2|0,0:0|0:0,0:0:0
184,192,88786,2,0,P|216:228,1,45,2|0,0:0|0:0,0:0:0
328,192,89181,2,0,P|296:228,1,45,0|2,0:0|0:0,0:0:0
256,304,89576,5,4,0:0:0
44,192,90102,1,2,0:0:0
256,80,90628,1,4,0:0:0
468,192,91154,1,2,0:0:0
92,124,91681,6,0,P|42:192|93:260,1,180,4|2,0:0|0:0,0:0:0
420,124,92733,2,0,P|470:192|419:260,1,180,4|2,0:0|0:0,0:0:0
256,332,93786,5,4,0:0:0
256,332,94049,1,2,0:0:0
256,332,94312,2,0,P|256:192,1,135
164,196,94970,1,2,0:0:0
212,120,95233,1,0,0:0:0
212,120,95365,1,0,0:0:0
300,120,95628,1,2,0:0:0
348,196,95891,1,0,0:0:0
256,196,96154,6,0,P|256:292,2,90,2|0|2,0:0|0:0|0:0,0:0:0
256,172,96812,1,0,0:0:0
212,92,97076,1,2,0:0:0
300,92,97339,1,0,0:0:0
300,92,97470,1,4,0:0:0
256,192,97602,12,0,101154,0:0:0
