osu file format v5

[General]
AudioFilename: 11 - Sakura Amaneku Sekai -TV Size-.mp3
AudioLeadIn: 0
PreviewTime: -1
Countdown: 0
SampleSet: Normal
StackLeniency: 0.7
Mode: 0
LetterboxInBreaks: 1
EditorBookmarks: 4306,18108,34671,46073,49193,53274

[Metadata]
Title:Sakura Amaneku Sekai -TV Size-
Artist:yozuca*
Creator:chaltier
Version:Normal
Source:D.C.II & D.C.II S.S. Vocal Album - dolce 3
Tags:

[Difficulty]
HPDrainRate:4
CircleSize:3
OverallDifficulty:5
SliderMultiplier:2
SliderTickRate:1

[Events]
//Background and Video events
0,0,"D.C.II.S.S. OP Single Booklet 04 texturized & darken.jpg"
//Break Periods
2,31870,33591
2,49153,51744
//Storyboard Layer 0 (Background)
//Storyboard Layer 1 (Failing)
//Storyboard Layer 2 (Passing)
//Storyboard Layer 3 (Foreground)
//Storyboard Sound Samples
//Background Colour Transformations
3,100,163,162,255

[TimingPoints]
466,480.076812289966,4,1,0,53,1

[HitObjects]
160,192,4306,2,0,L|384:192,1,200
192,288,5986,6,0,L|96:64,3,200,0|0|0|0
352,96,8387,6,0,L|448:288,2,200
160,96,9827,5,0
224,160,10067,1,0
288,224,10307,2,0,L|384:320,1,100,0|4
160,192,11747,5,0
256,192,11987,1,0
352,192,12227,1,0
160,256,13668,5,0
192,160,13908,1,0
224,64,14148,1,0
320,64,14388,2,4,L|224:352,1,300
96,192,15588,6,0,L|224:192,2,100
416,192,17508,6,4,L|288:192,2,100,4|4|4
64,96,19669,5,0
160,96,19909,1,0
128,192,20149,2,0,L|352:192,1,200
352,96,21349,6,0,L|128:96,3,200
160,288,23269,5,0
256,288,23509,1,0
352,288,23749,2,0,L|224:128,1,200
160,192,25189,6,0,L|384:192,6,200
352,192,29270,6,0,L|128:192,5,200
64,192,34791,6,0,L|192:192,3,100
448,192,36711,6,0,L|320:192,3,100
153,190,38632,6,0,L|228:316,3,100,2|0|2|0
304,278,39592,2,0,L|379:152,3,100,2|0|2|0
306,104,40552,2,0,L|178:104,4,100,2|0|2|0|2
352,96,42952,6,2,L|128:96,4,200,2|2|2|2|2
256,160,45353,1,0
160,224,45593,1,0
64,288,45833,1,0
352,352,46553,6,2,L|512:160,1,200
352,32,47513,2,2,L|128:32,1,200
32,192,48473,2,2,L|160:352,1,200
160,96,52794,6,8,L|384:96,2,200
64,288,54234,1,0
256,288,54714,2,8,L|453:284|480:64,1,400
288,64,56154,1,0
96,96,56634,2,8,L|124:296|352:320,1,400
448,160,58075,2,8,L|264:80|64:160,1,400
160,352,59515,2,8,L|384:352,2,200,8|8|8
64,160,60955,1,0
256,64,61435,1,0
448,160,61915,1,0
352,320,62395,1,0
160,320,62875,1,0
96,224,63116,5,0
32,128,63356,1,0
224,128,63836,2,0,L|448:128,7,200
480,224,67436,5,0
448,320,67676,1,0
352,320,67916,1,0
352,320,68036,2,2,L|156:289|96:128,1,350
288,96,69357,6,2,L|96:224,3,200
416,96,71517,5,0
416,192,71757,2,8,L|192:192,2,200
224,96,73197,6,0,L|352:96,3,100
320,192,74157,2,0,L|448:192,3,100
352,288,75117,2,0,L|224:288,3,100
160,192,77038,5,0
256,192,77278,1,0
352,192,77518,1,0
64,192,78478,5,2
160,192,78718,2,2,L|384:192,6,200
160,288,81839,5,8
256,288,82079,1,8
352,288,82319,1,8
384,96,82799,5,0
288,96,83039,1,0
192,96,83279,1,0
128,192,83519,2,0,L|352:192,6,200
192,288,86639,1,0
288,288,86879,1,0
384,288,87119,1,0
256,192,87239,12,4,89280
