osu file format v9

[General]
AudioFilename: kioku no umi.mp3
AudioLeadIn: 0
PreviewTime: 61513
Countdown: 0
SampleSet: Soft
StackLeniency: 0.7
Mode: 0
LetterboxInBreaks: 0

[Editor]
Bookmarks: 16245,31983,45754,55590,63459,78705,94934,104770,120508,136737,144114,151000,167721,183459
DistanceSpacing: 0.9
BeatDivisor: 4
GridSize: 4

[Metadata]
Title:Kioku no Umi
Artist:yozuca*
Creator:S h i o n
Version:Collab
Source:School Days
Tags:Kiiwa wmfchris sekai saionji makoto ito kotonoha katsura Overflow TNK nice boat

[Difficulty]
HPDrainRate:6
CircleSize:4
OverallDifficulty:6
ApproachRate:8
SliderMultiplier:1.9
SliderTickRate:2

[Events]
//Background and Video events
0,0,"bg.jpg"
//Break Periods
2,101066,104042
//Storyboard Layer 0 (Background)
//Storyboard Layer 1 (Fail)
//Storyboard Layer 2 (Pass)
//Storyboard Layer 3 (Foreground)
Sprite,Foreground,BottomCentre,"KIIWA.png",320,480 F,0,16000,16245,0,1 F,0,16245,31737,1 F,0,31737,31983,1,0 F,0,31983,45508,0 F,0,45508,45754,0,1 F,0,45754,55344,1 F,0,55344,55590,1,0 F,0,55590,63213,0 F,0,63213,63459,0,1 F,0,63459,78459,1 F,0,78459,78705,1,0 F,0,78705,94688,0 F,0,94688,94934,0,1 F,0,94934,104524,1 F,0,104524,104770,1,0 F,0,104770,120262,0 F,0,120262,120508,0,1 F,0,120508,136000,1 F,0,136491,136737,1,0 F,0,136737,143868,0 F,0,143868,144114,0,1 F,0,144114,150754,1 F,0,150754,151000,1,0 F,0,151000,167475,0 F,0,167475,167721,0,1 F,0,167721,183459,1 F,0,183459,183705,1,0
Sprite,Foreground,BottomCentre,"SHION.png",320,480 F,0,31737,31983,0,1 F,0,31983,45508,1 F,0,45508,45754,1,0 F,0,45754,55344,0 F,0,55344,55590,0,1 F,0,55590,63213,1 F,0,63213,63459,1,0 F,0,63459,78459,0 F,0,78459,78705,0,1 F,0,78705,94688,1 F,0,94688,94934,1,0 F,0,94934,104524,0 F,0,104524,104770,0,1 F,0,104770,120262,1 F,0,120262,120508,1,0 F,0,120508,136000,0 F,0,136491,136737,0,1 F,0,136737,143868,1 F,0,143868,144114,1,0 F,0,144114,150754,0 F,0,150754,151000,0,1 F,0,151000,167475,1 F,0,167475,167721,1,0
Sprite,Foreground,Centre,"circle.png",283,472 L,0,85 R,0,16245,18213,0,6.283168 S,0,16245,,0.2
//Storyboard Sound Samples
//Background Colour Transformations
3,100,163,162,255

[TimingPoints]
16268,491.803278688525,4,2,0,60,1,0
22907,-100,4,2,0,50,0,0
23153,-100,4,2,0,25,0,0
23399,-100,4,2,0,40,0,0
23645,-100,4,2,0,50,0,0
23890,-100,4,2,0,60,0,0
30284,-100,4,1,0,50,0,0
30530,-100,4,2,0,75,0,0
30776,-100,4,2,0,50,0,0
31022,-100,4,1,0,50,0,0
31636,-100,4,1,0,25,0,0
31759,-100,4,1,0,50,0,0
32005,-100,4,2,0,50,0,0
32128,-100,4,2,0,75,0,0
32497,-100,4,1,0,50,0,0
32743,-100,4,2,0,75,0,0
33481,-100,4,1,0,50,0,0
33727,-100,4,2,0,75,0,0
33972,-100,4,1,0,50,0,0
34218,-100,4,2,0,75,0,0
34464,-100,4,1,0,50,0,0
34710,-100,4,2,0,75,0,0
34956,-100,4,1,0,50,0,0
35079,-100,4,2,0,75,0,0
35448,-100,4,1,0,50,0,0
35571,-100,4,2,0,75,0,0
35940,-100,4,1,0,50,0,0
36063,-100,4,2,0,75,0,0
36431,-100,4,1,0,50,0,0
36677,-100,4,2,0,75,0,0
36923,-100,4,1,0,50,0,0
37169,-100,4,2,0,75,0,0
37415,-100,4,1,0,50,0,0
37661,-100,4,2,0,75,0,0
37907,-100,4,1,0,50,0,0
38153,-100,4,2,0,75,0,0
38399,-100,4,1,0,50,0,0
38645,-100,4,2,0,75,0,0
38890,-100,4,1,0,50,0,0
39136,-100,4,2,0,75,0,0
39382,-100,4,1,0,50,0,0
39628,-100,4,2,0,75,0,0
39874,-100,4,1,0,50,0,0
39997,-100,4,2,0,75,0,0
40366,-100,4,1,0,50,0,0
40612,-100,4,2,0,75,0,0
40858,-100,4,1,0,50,0,0
40981,-100,4,2,0,75,0,0
41349,-100,4,1,0,50,0,0
41472,-100,4,2,0,75,0,0
41841,-100,4,1,0,50,0,0
42087,-100,4,2,0,75,0,0
42333,-100,4,1,0,50,0,0
42579,-100,4,2,0,75,0,0
42825,-100,4,1,0,50,0,0
43071,-100,4,2,0,75,0,0
43317,-100,4,1,0,50,0,0
43440,-100,4,2,0,75,0,0
45530,-100,4,2,0,60,0,0
45776,-100,4,1,0,50,0,0
46022,-100,4,2,0,75,0,0
46268,-100,4,1,0,50,0,0
47251,-100,4,2,0,75,0,0
47497,-100,4,1,0,50,0,0
47743,-100,4,2,0,60,0,0
47989,-100,4,2,0,75,0,0
48727,-100,4,1,0,50,0,0
48849,-100,4,2,0,75,0,0
50694,-100,4,1,0,50,0,0
50940,-100,4,1,0,25,0,0
51186,-100,4,2,0,75,0,0
51431,-100,4,1,0,25,0,0
51677,-100,4,2,0,60,0,0
51923,-100,4,2,0,75,0,0
52661,-100,4,1,0,50,0,0
52784,-100,4,2,0,75,0,0
54628,-100,4,1,0,25,0,0
54874,-100,4,1,0,30,0,0
55120,-100,4,1,0,35,0,0
55366,-100,4,1,0,40,0,0
55612,-133.333333333333,4,1,0,50,0,0
55735,-133.333333333333,4,2,0,75,0,0
57825,-133.333333333333,4,2,0,30,0,0
58071,-133.333333333333,4,2,0,75,0,0
58317,-133.333333333333,4,2,0,30,0,0
58563,-133.333333333333,4,2,0,75,0,0
60284,-133.333333333333,4,1,0,40,0,0
60530,-133.333333333333,4,1,0,50,0,0
60776,-133.333333333333,4,2,0,75,0,0
61022,-133.333333333333,4,2,0,60,0,0
61513,-133.333333333333,4,1,0,50,0,0
62497,-100,4,2,0,75,0,0
63481,-100,4,2,0,75,0,1
69628,-100,4,2,0,50,0,1
69874,-100,4,1,0,50,0,1
70120,-100,4,2,0,75,0,1
70366,-100,4,1,0,50,0,1
70489,-100,4,2,0,75,0,1
70612,-100,4,1,0,50,0,1
71349,-100,4,2,0,75,0,1
77497,-100,4,1,0,50,0,1
77620,-100,4,2,0,75,0,1
77743,-100,4,1,0,50,0,1
78727,-100,4,2,0,75,0,0
79218,-100,4,2,0,75,0,1
85612,-100,4,1,0,50,0,1
85858,-100,4,2,0,75,0,1
86595,-100,4,1,0,70,0,1
86657,-100,4,2,0,75,0,1
91759,-100,4,1,0,40,0,1
92251,-100,4,2,0,75,0,1
94833,-100,4,2,0,65,0,1
94956,-100,4,2,0,75,0,0
99505,-100,4,2,0,65,0,0
99874,-100,4,2,0,55,0,0
100243,-100,4,2,0,50,0,0
100612,-100,4,2,0,40,0,0
100981,-100,4,2,0,30,0,0
104792,-100,4,1,0,50,0,0
104915,-100,4,2,0,75,0,0
105284,-100,4,1,0,50,0,0
105407,-100,4,2,0,75,0,0
105776,-100,4,1,0,50,0,0
105899,-100,4,2,0,75,0,0
106268,-100,4,1,0,50,0,0
106390,-100,4,2,0,75,0,0
106636,-100,4,1,0,50,0,0
106882,-100,4,2,0,75,0,0
107251,-100,4,1,0,50,0,0
107374,-100,4,2,0,75,0,0
107743,-100,4,1,0,50,0,0
107866,-100,4,2,0,75,0,0
108235,-100,4,1,0,50,0,0
108358,-100,4,2,0,75,0,0
108727,-100,4,1,0,50,0,0
108849,-100,4,2,0,75,0,0
109218,-100,4,1,0,50,0,0
109341,-100,4,2,0,75,0,0
110202,-100,4,1,0,50,0,0
110325,-100,4,2,0,75,0,0
110571,-100,4,1,0,50,0,0
110817,-100,4,2,0,75,0,0
111186,-100,4,1,0,50,0,0
111308,-100,4,2,0,75,0,0
111677,-100,4,1,0,50,0,0
111800,-100,4,2,0,75,0,0
112169,-100,4,1,0,50,0,0
112292,-100,4,2,0,75,0,0
112661,-100,4,1,0,50,0,0
112784,-100,4,2,0,75,0,0
113030,-100,4,1,0,50,0,0
113276,-100,4,2,0,75,0,0
114136,-100,4,1,0,50,0,0
114259,-100,4,2,0,75,0,0
114628,-100,4,1,0,50,0,0
114751,-100,4,2,0,75,0,0
115120,-100,4,1,0,50,0,0
115243,-100,4,2,0,75,0,0
115612,-100,4,1,0,50,0,0
115735,-100,4,2,0,75,0,0
116104,-100,4,1,0,50,0,0
116227,-100,4,2,0,75,0,0
116595,-100,4,1,0,50,0,0
116718,-100,4,2,0,75,0,0
117087,-100,4,1,0,50,0,0
117210,-100,4,2,0,75,0,0
117579,-100,4,1,0,50,0,0
117702,-100,4,2,0,75,0,0
118071,-100,4,1,0,50,0,0
118194,-100,4,2,0,75,0,0
118563,-100,4,1,0,50,0,0
118686,-100,4,2,0,75,0,0
119054,-100,4,1,0,50,0,0
119300,-100,4,2,0,75,0,0
119546,-100,4,1,0,50,0,0
120161,-100,4,1,0,30,0,0
120284,-100,4,1,0,50,0,0
120530,-100,4,2,0,50,0,0
121022,-100,4,2,0,75,0,0
134300,-100,4,1,0,50,0,0
134546,-100,4,2,0,75,0,0
134792,-100,4,1,0,50,0,0
136268,-100,4,2,0,60,0,0
137251,-100,4,1,0,50,0,0
137374,-100,4,2,0,75,0,0
139218,-100,4,1,0,50,0,0
139464,-100,4,1,0,30,0,0
139710,-100,4,2,0,75,0,0
139956,-100,4,1,0,30,0,0
140202,-100,4,2,0,60,0,0
141186,-100,4,1,0,50,0,0
141308,-100,4,2,0,75,0,0
143153,-100,4,1,0,25,0,0
143399,-100,4,1,0,30,0,0
143645,-100,4,1,0,35,0,0
143890,-100,4,1,0,40,0,0
144136,-133.333333333333,4,1,0,50,0,0
144259,-133.333333333333,4,2,0,60,0,0
148808,-133.333333333333,4,1,0,40,0,0
149054,-133.333333333333,4,1,0,50,0,0
149300,-133.333333333333,4,2,0,75,0,0
149546,-133.333333333333,4,1,0,50,0,0
149792,-133.333333333333,4,2,0,75,0,0
150038,-133.333333333333,4,1,0,50,0,0
151022,-100,4,2,0,75,0,0
152005,-100,4,2,0,75,0,1
153972,-100,4,2,0,70,0,1
154095,-100,4,2,0,75,0,1
159382,-100,4,1,0,50,0,1
159505,-100,4,2,0,75,0,1
166268,-100,4,1,0,50,0,1
167251,-100,4,1,0,50,0,0
167743,-100,4,2,0,75,0,1
174751,-100,4,1,0,50,0,1
174874,-100,4,2,0,75,0,1
174997,-100,4,1,0,50,0,1
175120,-100,4,2,0,75,0,1
175612,-100,4,2,0,85,0,1
175735,-100,4,2,0,75,0,1
180284,-100,4,1,0,50,0,1
181145,-100,4,2,0,75,0,1
182005,-100,4,1,0,20,0,1
182251,-100,4,1,0,30,0,1
182497,-100,4,1,0,40,0,1
182743,-100,4,1,0,50,0,1
182989,-100,4,1,0,60,0,1
183235,-100,4,1,0,70,0,1
183481,-100,4,2,0,75,0,0

[Colours]
Combo1 : 255,74,74
Combo2 : 221,221,221
Combo3 : 255,151,151
Combo4 : 158,158,158

[HitObjects]
272,120,16267,6,0,B|264:184|368:232|424:168,1,190,4|2
360,112,17005,2,0,B|344:56|288:40,1,95
272,120,17497,2,0,B|236:76|152:120,1,95,0|2
100,72,17989,2,0,B|192:104|152:216,1,142.5
136,224,18481,5,0
136,224,18727,1,2
200,280,18972,5,0
72,168,19218,1,0
200,280,19464,5,0
272,232,19710,2,0,B|317:209|345:158,1,95,2|0
280,104,20202,2,0,B|296:168|376:208|448:176,1,190,0|2
512,144,20940,2,0,B|432:136|400:240|440:296,1,190
456,360,21677,2,0,B|352:352,1,95,2|0
272,344,22169,5,0
361,352,22415,1,0
182,335,22661,5,2
182,335,22907,1,2
182,335,23153,1,0
92,326,23399,5,0
144,256,23645,1,2
196,186,23890,1,0
256,112,24136,6,0,B|280:56|392:56|416:120,1,190,0|2
256,272,24874,2,0,B|232:328|120:328|96:264,1,190,0|0
176,236,25612,5,2
256,192,25858,2,0,B|360:120,1,95
256,192,26349,2,0,B|266:318,1,95,0|2
256,192,26841,2,0,B|141:137,1,95
96,112,27333,1,0
170,151,27579,1,2
96,112,27825,1,0
256,192,28071,6,0,B|296:152|408:168|416:240,1,190,0|2
488,192,28808,1,0
352,288,29054,2,0,B|344:256|296:248|272:280,1,95
216,344,29546,2,0,B|96:360,1,95,2|0
40,376,30038,5,0
112,272,30284,1,0
216,344,30530,1,2
200,256,30776,5,0
184,168,31022,1,0
280,288,31268,5,0
368,288,31513,2,0,B|432:288,2,47.5,0|0|0
368,288,32005,6,0,B|320:248|296:160|352:88,1,190,4|0
408,64,32743,2,0,B|392:128|304:176|248:128,1,190
184,96,33481,1,0
14,31,33727,6,0,B|104:64,1,95
184,96,34218,1,0
256,248,34464,1,0
216,176,34710,1,0
232,328,34956,2,0,B|288:360|328:304,1,95
216,176,35448,2,0,B|149:166|120:224,1,95
147,347,35940,6,0,B|151:311|111:263|58:248,1,142.5
32,280,36431,1,0
112,240,36677,2,0,B|160:256|208:224,1,95
312,104,37169,2,0,B|262:103|226:139,1,95
192,308,37661,2,0,B|244:284|256:228,1,95
312,104,38153,5,0
253,239,38399,1,0
312,104,38645,1,0
184,168,38890,5,0
320,192,39136,1,0
456,216,39382,1,0
456,216,39628,1,0
448,56,39874,6,0,B|392:8|312:32|296:120,1,190
256,176,40612,1,0
280,256,40858,2,0,B|328:280|376:232,1,95
420,172,41349,2,0,B|372:196|340:268|396:364,1,190
448,280,42087,5,0
344,144,42333,1,0
448,280,42579,1,0
368,240,42825,5,0
368,240,43071,1,0
277,222,43317,2,0,B|224:192|190:227,1,95
256,192,43808,12,4,45530
208,152,45776,5,0
200,240,46022,1,2
272,96,46267,6,0,B|320:56,2,47.5
208,152,46759,2,0,B|160:192,2,47.5,0|0|0
288,176,47251,5,2
363,208,47497,1,0
440,160,47743,6,0,B|384:152|320:240|360:296,1,190,6|2
359,295,48481,1,0
432,344,48727,2,0,B|408:384|288:392|272:304,1,190,0|2
248,232,49464,1,0
248,144,49710,6,0,B|256:80|296:40,1,95
408,24,50202,2,0,B|400:88|360:128,1,95,2|0
336,192,50694,1,0
374,111,50940,5,0
248,144,51186,1,2
121,176,51431,1,0
0,208,51677,6,0,B|-16:280|88:328|136:280,1,190,4|2
192,232,52415,1,0
264,184,52661,2,0,B|352:152|440:200,1,142.5
440,200,53153,5,2
368,248,53399,1,0
280,256,53645,1,0
192,232,53890,1,0
136,168,54136,6,0,B|104:112|136:40|-16:96|120:160,1,190,2|0
192,232,54874,1,0
304,264,55120,1,0
416,272,55366,1,0
416,272,55612,6,0,B|460:235|436:155|401:153,1,142.499995753169,4|0
256,32,56595,2,0,B|211:68|235:148|270:150,1,142.499995753169,2|0
360,152,57333,1,0
280,96,57579,6,0,B|248:44|200:64,1,71.2499978765846,2|0
112,96,58071,2,0,B|76:124|96:184,1,71.2499978765846,2|0
124,264,58563,2,0,B|156:320|216:204|260:296,1,142.499995753169,2|0
360,208,59546,1,4
360,208,60038,5,0
336,124,60284,1,0
256,88,60530,1,0
176,124,60776,1,0
152,208,61022,1,0
152,208,61513,6,0,B|112:148|40:188,2,106.874996814877,2|2|2
136,292,62497,2,0,B|96:328|49:319,1,95,2|0
136,292,62989,2,0,B|194:252|242:288,1,95,2|0
376,344,63481,6,0,B|424:336|440:256|400:200|336:216,1,190,4|0
248,176,64218,1,2
248,176,64341,2,0,B|192:184|160:80|224:64,1,142.5,2|0
296,16,64956,5,0
104,96,65202,1,0
152,208,65448,6,0,B|208:232|224:336|192:376,1,190,4|0
240,280,66186,1,2
240,280,66308,2,0,B|304:296|344:240|336:176,1,142.5,2|0
360,104,66923,5,0
336,203,67169,1,0
376,296,67415,2,0,B|416:320|448:304|480:216|328:152|312:280|272:288|216:224|256:192|280:240,1,285,4|2
271,227,68276,1,2
216,136,68522,1,0
216,136,68645,1,0
168,44,68890,2,0,B|228:20,2,47.5
68,80,69382,5,4
168,44,69628,5,4
228,264,69874,1,0
376,80,70120,1,2
376,80,70243,2,0,B|416:40,3,47.5
409,46,70858,5,0
488,240,71104,1,0
392,280,71349,6,0,B|336:320|232:280|240:208,1,190,4|0
232,120,72087,1,2
232,120,72210,2,0,B|232:56|312:8|312:88|272:80,1,142.5,2|0
176,56,72825,2,0,B|104:48|56:8,1,95
85,28,73317,5,4
256,232,73808,1,4
426,28,74300,1,4
256,232,74792,5,0
256,232,75038,1,0
216,328,75284,2,0,B|208:264|304:216|384:272,1,190,4|0
256,232,76022,2,0,B|232:176|144:152|96:200,1,190
192,160,76759,6,0,B|216:64,1,95
112,104,77251,1,2
112,104,77374,2,0,B|56:128,3,47.5,2|0|0|0
215,68,77989,2,0,B|271:44,4,47.5
215,68,78727,6,0,B|212:140|256:196|332:216,1,190,2|4
420,220,79464,1,0
444,116,79710,1,0
312,148,79956,5,2
312,148,80079,2,0,B|255:180|247:228|271:284,1,142.5
316,360,80694,1,0
380,276,80940,1,0
260,216,81186,6,0,B|216:176|144:212,1,95,4|0
52,272,81677,1,0
136,336,81923,1,2
136,336,82046,1,0
176,208,82292,1,0
176,208,82415,1,0
279,220,82661,2,0,B|280:272|240:304,1,95
124,216,83153,6,0,B|48:168|88:68,1,142.5,4|0
116,52,83645,1,0
212,148,83890,1,2
212,148,84013,2,0,B|258:164|314:157|346:89,1,142.5,2|0
260,36,84628,5,0
316,296,84874,2,0,B|344:316|384:316,2,47.5,0|0|4
284,168,85366,5,0
316,296,85612,1,0
236,228,85858,1,2
218,219,85981,1,0
200,211,86104,1,0
184,203,86227,1,0
167,195,86349,1,2
150,187,86472,1,0
133,179,86595,2,0,B|80:150|48:176|48:176|32:188,1,95
40,304,87087,6,0,B|100:320|156:300|192:204,1,190,4|0
444,80,87825,2,0,B|384:56|336:76|320:156,1,142.5,4|0
328,180,88317,2,0,B|280:160|252:116,1,95,2|0
200,32,88808,1,2
56,192,89054,6,0,B|96:168|132:108,1,95,4|0
376,136,89546,2,0,B|350:91|288:72,1,95,4|0
172,130,90038,2,0,B|160:176|120:208,1,95,4|0
272,160,90530,6,0,B|278:206|328:248,1,95,2|0
344,344,91022,2,0,B|336:272|400:216|456:216,1,190,4|0
456,216,91759,2,0,B|456:120,1,95
256,192,92497,12,0,94464
184,160,94956,5,4
264,176,95202,1,2
280,256,95448,1,2
200,296,95694,1,2
200,296,96186,5,2
144,232,96431,1,0
72,192,96677,1,0
72,192,96923,5,2
144,232,97169,1,2
224,208,97415,1,2
248,128,97661,1,2
248,128,98153,5,2
304,192,98399,1,2
304,192,98890,6,0,B|392:160|400:256|272:256|360:136,1,190,2|2
352,147,99628,1,2
352,147,100120,5,2
352,147,100366,1,2
352,147,100858,5,0
96,208,104792,38,0,B|84:128|152:76|228:84,1,190
192,168,105530,2,0,B|256:176|295:91,1,95
207,84,106022,2,0,B|164:20|92:72,2,95
272,192,106759,2,0,B|312:236|384:180,1,95
432,156,107251,5,0
316,88,107497,1,0
224,184,107743,1,0
288,300,107989,5,0
420,282,108235,2,0,B|476:262|472:210,1,95
464,120,108727,2,0,B|400:152|384:228|424:288,1,190
496,368,109464,2,0,B|456:312|384:296|328:336,1,190
244,348,110202,2,0,B|156:308,1,95
56,220,110694,6,0,B|76:156|144:140,1,95
228,80,111186,1,0
316,180,111431,1,0
404,280,111677,1,0
404,280,111923,1,0
424,196,112169,6,0,B|431:146|392:92,1,95
344,40,112661,1,0
320,196,112907,1,0
304,112,113153,1,0
304,112,113399,2,0,B|268:56|168:40|120:96,1,190
56,52,114136,5,0
36,136,114382,2,0,B|68:176|140:208,1,95
160,360,114874,2,0,B|185:358|112:352|72:296,1,95
56,176,115366,2,0,B|88:216|144:240,1,95
216,240,115858,5,0
357,266,116104,2,0,B|373:306|357:342|301:342,1,95
323,339,116595,2,0,B|347:267|435:259|509:301,1,190,0|0
428,356,117333,5,0
376,296,117579,2,0,B|316:216,1,95
264,143,118071,2,0,B|320:223,1,95
376,296,118563,5,0
224,184,118808,1,2
412,184,119054,1,0
318,220,119300,5,2
352,144,119546,1,0
424,96,119792,1,0
352,48,120038,2,0,B|312:24,2,47.5
256,96,120530,6,0,B|208:128|104:80|104:24,1,190,4|2
152,128,121267,2,0,B|104:232,1,95
152,334,121759,2,0,B|192:248,2,95,0|2|0
120,256,122497,2,0,B|124:306|208:333|248:302,1,142.5
272,296,122989,1,2
256,208,123235,5,0
288,384,123481,1,0
272,296,123727,5,0
336,240,123972,1,2
328,152,124218,1,0
328,152,124464,2,0,B|288:184|336:280|400:272|424:256,1,190,0|2
416,168,125202,2,0,B|496:112,1,95
328,152,125694,2,0,B|208:232,1,142.5
176,256,126186,1,0
120,192,126431,5,0
232,320,126677,1,0
120,192,126923,5,2
232,320,127169,1,0
152,336,127415,5,0
96,272,127661,1,0
120,192,127907,2,0,B|144:128|88:48|32:48,1,190,2|0
40,136,128645,1,0
120,192,128890,2,0,B|216:168,1,95,2|0
299,215,129382,2,0,B|392:192,1,95
416,112,129874,2,0,B|352:144|400:256|472:232,1,190,2|0
416,304,130612,2,0,B|352:376,2,95,0|2|0
352,375,131349,5,0
416,304,131595,1,0
344,256,131841,1,2
280,328,132087,1,0
256,192,132333,12,4,134054
128,184,134300,5,0
96,104,134546,1,2
96,104,134792,2,0,B|72:32,2,47.5
128,184,135284,2,0,B|152:256,2,47.5
96,104,135776,5,0
148,228,136022,1,0
252,312,136267,1,4
252,312,136759,5,0
368,248,137005,1,0
272,328,137251,2,0,B|224:344|184:304,1,95,0|0
60,224,137743,2,0,B|100:180|176:200,1,95,2|0
146,194,138235,5,0
328,88,138727,1,2
264,144,138972,1,0
192,96,139218,1,0
328,88,139464,1,0
384,152,139710,1,2
416,232,139956,1,0
472,296,140202,6,0,B|496:256|512:216|496:144|464:96,1,190,4|2
384,152,140940,2,0,B|384:248,1,95
336,320,141431,2,0,B|392:352|456:304,2,95,0|2|0
304,240,142169,6,0,B|264:204|208:204|168:240,1,142.5,0|0
144,264,142661,1,2
208,320,142907,1,0
336,320,143153,5,0
400,264,143399,1,0
400,264,143645,1,0
400,264,143890,1,0
400,264,144136,2,0,B|440:248|440:160|392:144,1,142.499995753169,4|0
248,80,145120,2,0,B|208:96|208:184|256:200,1,142.499995753169,2|0
312,176,145858,1,0
200,232,146104,6,0,B|128:272,1,71.2499978765846,2|0
56,208,146595,2,0,B|128:168,1,71.2499978765846,2|0
200,240,147087,6,0,B|128:280,1,71.2499978765846,2|0
56,216,147579,2,0,B|128:176,1,71.2499978765846,0|0
200,248,148071,5,4
352,176,148808,5,0
296,96,149054,1,0
200,96,149300,1,0
144,176,149546,1,0
200,256,149792,1,0
296,256,150038,6,0,B|408:256,2,106.874996814877,2|2|2
200,256,151022,2,0,B|200:144,2,95
200,256,152005,6,0,B|255:263|319:227|322:142,1,190,4|0
208,72,152743,1,2
208,72,152866,2,0,B|168:72|112:112|107:164,1,142.5,2|0
92,264,153481,5,0
52,168,153727,1,0
156,88,153972,2,0,B|208:56|292:56|336:128,1,190,4|0
452,108,154710,1,2
453,110,154834,2,0,B|404:72|337:77|321:125,1,142.5,2|0
280,208,155448,5,0
232,300,155694,1,0
232,300,155940,2,0,B|156:284,2,47.5,4|0|0
232,300,156431,1,0
168,80,156677,1,2
168,80,156800,2,0,B|104:80|72:112|64:192,1,142.5,2|0
88,264,157415,5,0
144,176,157661,1,0
112,76,157907,2,0,B|87:47|60:36,2,47.5,4|0|0
191,146,158399,1,2
191,146,158645,5,2
216,136,158768,1,0
240,136,158890,1,0
264,144,159013,1,0
280,160,159136,1,2
296,176,159259,1,0
312,192,159382,2,0,B|332:228|357:234|391:232,1,95,0|0
464,152,159874,6,0,B|416:184|400:264|432:328,1,190,4|0
504,248,160612,2,0,B|452:188|370:192|320:238,1,190,4|0
256,320,161349,2,0,B|232:352|192:352|168:320,1,95,2|0
256,320,161841,5,4
80,48,162333,1,4
432,48,162825,1,4
256,144,163317,37,0
256,144,163563,1,0
320,64,163808,38,0,B|300:136|365:207|444:179,1,190,4|0
512,224,164546,2,0,B|456:184|376:216|376:304,1,190
224,344,165284,2,0,B|266:315|288:248,1,95,2|0
320,176,165776,37,2
296,184,165899,1,0
272,192,166022,1,0
248,192,166145,1,0
224,184,166268,2,0,B|200:176|176:144,2,47.5,0|0|0
280,272,166759,37,0
300,284,166882,1,0
312,304,167005,1,0
416,280,167251,1,0
424,256,167374,1,0
440,240,167497,1,0
344,192,167743,6,0,B|344:128|224:104|200:168,1,190,4|0
160,264,168481,1,2
160,264,168604,2,0,B|192:304|136:368|88:336,1,142.5,2|0
8,248,169218,5,0
80,48,169464,1,0
184,56,169710,6,0,B|256:48|312:120|272:216,1,190,4|0
272,288,170448,1,2
272,288,170571,2,0,B|248:336|320:368|368:344|352:280,1,142.5,2|0
384,208,171186,1,0
424,112,171431,1,0
504,40,171677,6,0,B|480:96|352:88|352:0,1,190,4|0
280,88,172415,2,0,B|192:96|160:200|192:264,1,190,2|0
192,328,173153,1,0
272,264,173399,1,0
272,264,173522,2,0,B|312:232,1,47.5,0|4
400,176,173890,5,2
336,96,174136,1,0
309,234,174382,1,0
336,96,174628,1,2
336,96,174751,2,0,B|367:55,2,47.5
272,16,175120,5,2
224,112,175366,1,0
128,144,175612,2,0,B|56:176|-16:136|-8:64,1,190,4|2
32,160,176349,2,0,B|-8:264,2,95,0|2|0
64,64,177087,1,2
64,64,177333,1,0
128,144,177579,6,0,B|120:224|176:256,1,95,4|0
278,326,178071,2,0,B|351:293|351:229,1,95,4|0
361,105,178563,2,0,B|296:58|240:90,1,95,4|0
128,144,179054,5,2
361,105,179300,1,0
278,326,179546,1,4
278,326,180284,5,0
278,326,180530,1,0
176,360,181022,6,0,B|128:296|64:280,1,95
8,264,181513,2,0,B|56:320|136:240|56:184,1,142.5,6|0
80,184,182005,5,0
96,120,182251,1,0
160,80,182497,1,0
240,96,182743,1,0
304,168,182989,1,0
408,176,183235,1,0
480,88,183481,5,4
