osu file format v14

[General]
AudioFilename: Nightcore - Diamond Smile.mp3
AudioLeadIn: 0
PreviewTime: 123496
Countdown: 0
SampleSet: Normal
StackLeniency: 0.7
Mode: 1
LetterboxInBreaks: 0
WidescreenStoryboard: 0

[Editor]
DistanceSpacing: 0.8
BeatDivisor: 16
GridSize: 8
TimelineZoom: 6.099998

[Metadata]
Title:Diamond Smile
TitleUnicode:Diamond Smile
Artist:you feat.nayuta
ArtistUnicode:you feat.nayuta
Creator:Nanatsu
Version:Happy Oni
Source:
Tags:C88 Nizikawa J-NERATION J-Core
BeatmapID:798128
BeatmapSetID:363525

[Difficulty]
HPDrainRate:4.7
CircleSize:5
OverallDifficulty:5.5
ApproachRate:5
SliderMultiplier:1.4
SliderTickRate:1

[Events]
//Background and Video events
0,0,"BG.jpg",0,100
//Break Periods
//Storyboard Layer 0 (Background)
//Storyboard Layer 1 (Fail)
//Storyboard Layer 2 (Pass)
//Storyboard Layer 3 (Foreground)
//Storyboard Sound Samples

[TimingPoints]
510,342.857142857143,4,1,0,70,1,0
21710,-133.333333333333,4,1,0,70,0,0
22052,-74.0740740740741,4,1,0,80,0,0
22167,-100,4,1,0,80,0,0
32995,-133.333333333333,4,1,0,80,0,0
33167,-100,4,1,0,80,0,0
43967,-114.942528735632,4,1,0,80,0,0
44310,-133.333333333333,4,1,0,80,0,0
54595,-66.6666666666667,4,1,0,80,0,0
54938,-100,4,1,0,85,0,0
79967,-71.4285714285714,4,1,0,85,0,0
80138,-105.263157894737,4,1,0,85,0,0
90938,-100,4,1,0,85,0,0
101567,-66.6666666666667,4,1,0,80,0,0
101738,-100,4,1,0,80,0,0
101995,-100,4,1,0,80,0,1
122567,-100,4,1,0,80,0,0
122681,-102.040816326531,4,1,0,80,0,0
122852,-105.263157894737,4,1,0,80,0,0
123024,-108.459869848156,4,1,0,80,0,0
123195,-112.359550561798,4,1,0,80,0,0
123367,-116.279069767442,4,1,0,80,0,0
123538,-66.6666666666667,4,1,0,80,0,0
123938,-100,4,1,0,80,0,1
144510,-100,4,1,0,80,0,0
144767,-90.9090909090909,4,1,0,80,0,0
145110,-83.3333333333333,4,1,0,80,0,0
145281,-76.9230769230769,4,1,0,80,0,0
145624,-71.4285714285714,4,1,0,80,0,0
145967,-66.6666666666667,4,1,0,80,0,0
146138,-62.5,4,1,0,80,0,0
148538,-100,4,1,0,80,0,0
167738,-76.9230769230769,4,1,0,85,0,0
167910,-200,4,1,0,85,0,0
178367,-133.333333333333,4,1,0,85,0,0
189681,-100,4,1,0,80,0,0
211624,-71.4285714285714,4,1,0,80,0,0
211795,-105.263157894737,4,1,0,85,0,0
222595,-100,4,1,0,80,0,0
233224,-57.1428571428571,4,1,0,80,0,0
233395,-100,4,1,0,80,0,0
233652,-100,4,1,0,80,0,1
254224,-100,4,1,0,80,0,0
254310,-102.040816326531,4,1,0,80,0,0
254481,-105.263157894737,4,1,0,80,0,0
254652,-108.459869848156,4,1,0,80,0,0
254824,-112.359550561798,4,1,0,80,0,0
254995,-116.279069767442,4,1,0,80,0,0
255167,-66.6666666666667,4,1,0,80,0,0
255595,-100,4,1,0,80,0,1
276167,-100,4,1,0,80,0,0
299395,-66.6666666666667,4,1,0,55,0,0
299567,-133.333333333333,4,1,0,55,0,0
310367,-200,4,1,0,55,0,0

[HitObjects]
304,272,510,5,4,0:0:0:0:
256,240,681,1,8,0:0:0:0:
216,208,852,1,0,0:0:0:0:
160,224,1024,1,8,0:0:0:0:
160,224,1110,1,8,0:0:0:0:
200,184,1195,1,0,0:0:0:0:
176,184,1281,1,8,0:0:0:0:
152,184,1367,1,0,0:0:0:0:
96,200,1538,1,0,0:0:0:0:
96,200,1624,1,0,0:0:0:0:
152,184,1710,1,8,0:0:0:0:
128,176,1881,1,0,0:0:0:0:
128,176,2052,1,8,0:0:0:0:
96,200,2224,1,0,0:0:0:0:
96,200,2395,1,8,0:0:0:0:
96,200,2481,1,8,0:0:0:0:
72,184,2567,1,0,0:0:0:0:
72,184,2652,1,8,0:0:0:0:
72,184,2738,1,8,0:0:0:0:
72,184,2910,1,0,0:0:0:0:
72,184,2995,1,8,0:0:0:0:
72,184,3081,1,8,0:0:0:0:
72,184,3252,1,0,0:0:0:0:
16,184,3424,1,8,0:0:0:0:
72,184,3595,1,0,0:0:0:0:
72,184,3767,1,8,0:0:0:0:
96,168,3852,1,8,0:0:0:0:
112,144,3938,1,0,0:0:0:0:
96,168,4024,1,8,0:0:0:0:
64,168,4110,1,0,0:0:0:0:
96,168,4281,1,0,0:0:0:0:
96,168,4367,1,0,0:0:0:0:
96,168,4452,1,8,0:0:0:0:
72,184,4624,1,0,0:0:0:0:
72,184,4795,1,8,0:0:0:0:
128,200,4967,1,0,0:0:0:0:
80,168,5138,1,8,0:0:0:0:
104,184,5224,1,8,0:0:0:0:
120,208,5310,1,0,0:0:0:0:
136,232,5395,1,8,0:0:0:0:
104,184,5481,1,8,0:0:0:0:
136,176,5652,1,8,0:0:0:0:
136,176,5738,1,8,0:0:0:0:
80,192,5824,1,0,0:0:0:0:
104,184,5995,1,0,0:0:0:0:
104,184,6081,1,0,0:0:0:0:
72,184,6167,1,8,0:0:0:0:
72,184,6338,1,0,0:0:0:0:
200,176,6510,1,8,0:0:0:0:
72,184,6595,5,0,0:0:0:0:
72,184,6681,1,0,0:0:0:0:
72,184,6767,1,8,0:0:0:0:
80,192,6852,1,0,0:0:0:0:
112,144,7024,1,8,0:0:0:0:
80,192,7195,1,0,0:0:0:0:
80,192,7281,1,0,0:0:0:0:
80,192,7367,1,8,0:0:0:0:
32,168,7538,1,0,0:0:0:0:
32,224,7710,1,8,0:0:0:0:
24,200,7795,1,0,0:0:0:0:
80,192,7881,1,8,0:0:0:0:
24,200,7967,1,8,0:0:0:0:
80,192,8052,1,0,0:0:0:0:
24,200,8224,1,8,0:0:0:0:
80,192,8395,1,0,0:0:0:0:
80,192,8481,1,0,0:0:0:0:
24,200,8567,1,8,0:0:0:0:
80,192,8738,1,0,0:0:0:0:
136,184,8910,1,8,0:0:0:0:
80,168,9081,1,0,0:0:0:0:
80,168,9252,1,8,0:0:0:0:
104,176,9338,1,8,0:0:0:0:
136,184,9424,1,0,0:0:0:0:
112,192,9510,1,8,0:0:0:0:
80,192,9595,1,0,0:0:0:0:
80,192,9767,1,0,0:0:0:0:
80,192,9852,1,0,0:0:0:0:
80,168,9938,1,8,0:0:0:0:
56,160,10110,1,0,0:0:0:0:
112,160,10281,1,8,0:0:0:0:
160,160,10367,1,8,0:0:0:0:
104,184,10452,1,0,0:0:0:0:
160,160,10624,1,8,0:0:0:0:
104,176,10795,1,0,0:0:0:0:
104,176,10881,1,0,0:0:0:0:
112,152,10967,1,8,0:0:0:0:
56,160,11052,1,0,0:0:0:0:
64,184,11138,1,8,0:0:0:0:
64,184,11224,1,8,0:0:0:0:
120,184,11310,1,0,0:0:0:0:
96,184,11481,1,4,0:0:0:0:
64,184,11652,1,0,0:0:0:0:
88,168,11824,1,8,0:0:0:0:
88,168,11995,1,0,0:0:0:0:
88,168,12081,1,0,0:0:0:0:
88,168,12167,1,8,0:0:0:0:
88,168,12338,1,0,0:0:0:0:
112,160,12424,1,8,0:0:0:0:
88,168,12510,1,8,0:0:0:0:
112,160,12595,1,0,0:0:0:0:
88,168,12681,1,8,0:0:0:0:
72,184,12852,1,0,0:0:0:0:
144,176,13024,1,8,0:0:0:0:
184,216,13195,1,0,0:0:0:0:
160,208,13281,1,8,0:0:0:0:
184,216,13367,1,8,0:0:0:0:
184,216,13452,1,0,0:0:0:0:
160,208,13538,1,0,0:0:0:0:
104,200,13710,1,8,0:0:0:0:
160,208,13881,1,0,0:0:0:0:
104,200,13967,1,0,0:0:0:0:
104,200,14052,1,8,0:0:0:0:
160,208,14224,1,4,0:0:0:0:
208,176,14395,1,8,0:0:0:0:
208,176,14567,1,8,0:0:0:0:
184,216,14738,1,0,0:0:0:0:
208,232,14824,1,0,0:0:0:0:
208,232,14910,1,8,0:0:0:0:
184,224,14995,1,0,0:0:0:0:
160,216,15081,1,8,0:0:0:0:
168,160,15252,1,0,0:0:0:0:
168,160,15338,1,0,0:0:0:0:
160,216,15424,1,8,0:0:0:0:
168,160,15595,1,0,0:0:0:0:
200,208,15767,1,8,0:0:0:0:
168,160,15938,1,0,0:0:0:0:
200,208,16110,1,8,0:0:0:0:
168,160,16195,1,8,0:0:0:0:
168,160,16281,1,0,0:0:0:0:
168,160,16367,1,8,0:0:0:0:
200,208,16453,1,0,0:0:0:0:
168,160,16624,1,8,0:0:0:0:
168,160,16710,1,8,0:0:0:0:
200,208,16795,1,0,0:0:0:0:
168,160,16967,1,4,0:0:0:0:
200,208,17139,1,0,0:0:0:0:
168,208,17310,1,8,0:0:0:0:
112,216,17481,1,8,0:0:0:0:
168,208,17652,1,0,0:0:0:0:
112,216,17738,1,8,0:0:0:0:
112,216,17824,1,0,0:0:0:0:
112,216,17910,1,8,0:0:0:0:
168,208,17995,1,0,0:0:0:0:
200,216,18081,1,0,0:0:0:0:
168,208,18167,1,8,0:0:0:0:
168,160,18338,1,4,0:0:0:0:
168,208,18510,1,0,0:0:0:0:
120,176,18681,1,8,0:0:0:0:
120,176,18852,1,8,0:0:0:0:
80,136,19024,1,0,0:0:0:0:
80,136,19110,1,0,0:0:0:0:
80,136,19195,1,8,0:0:0:0:
80,136,19281,1,8,0:0:0:0:
40,176,19367,1,0,0:0:0:0:
80,136,19452,1,0,0:0:0:0:
80,136,19538,1,8,0:0:0:0:
40,176,19710,1,0,0:0:0:0:
40,176,19795,1,0,0:0:0:0:
40,176,19881,1,0,0:0:0:0:
40,176,19967,1,0,0:0:0:0:
40,176,20052,1,8,0:0:0:0:
40,176,20138,1,8,0:0:0:0:
40,176,20224,1,8,0:0:0:0:
40,176,20310,1,8,0:0:0:0:
40,176,20395,1,0,0:0:0:0:
40,176,20481,1,0,0:0:0:0:
40,176,20567,1,0,0:0:0:0:
40,176,20652,1,0,0:0:0:0:
40,176,20738,1,8,0:0:0:0:
40,176,20824,1,8,0:0:0:0:
40,176,20910,1,8,0:0:0:0:
40,176,20995,1,8,0:0:0:0:
40,176,21081,1,0,0:0:0:0:
256,240,21767,1,0,0:0:0:0:
232,224,21852,1,0,0:0:0:0:
208,216,21938,1,0,0:0:0:0:
152,216,22110,1,12,0:0:0:0:
40,200,22452,1,8,0:0:0:0:
88,200,22624,1,0,0:0:0:0:
88,200,22795,1,8,0:0:0:0:
88,200,22967,1,0,0:0:0:0:
88,200,23052,1,0,0:0:0:0:
64,184,23138,1,8,0:0:0:0:
64,184,23224,1,0,0:0:0:0:
96,184,23310,1,8,0:0:0:0:
56,144,23481,1,0,0:0:0:0:
88,200,23567,1,0,0:0:0:0:
88,200,23652,1,8,0:0:0:0:
144,208,23824,1,0,0:0:0:0:
200,216,23995,1,8,0:0:0:0:
144,208,24167,1,0,0:0:0:0:
88,200,24338,1,8,0:0:0:0:
88,200,24423,1,8,0:0:0:0:
64,184,24509,1,0,0:0:0:0:
64,184,24595,1,8,0:0:0:0:
96,184,24681,1,0,0:0:0:0:
56,144,24852,1,8,0:0:0:0:
88,200,24938,1,8,0:0:0:0:
88,200,25023,1,0,0:0:0:0:
88,200,25195,1,8,0:0:0:0:
144,200,25367,1,0,0:0:0:0:
144,200,25538,1,8,0:0:0:0:
144,200,25710,1,0,0:0:0:0:
144,200,25795,1,0,0:0:0:0:
144,200,25881,1,8,0:0:0:0:
64,184,25967,1,0,0:0:0:0:
64,184,26052,1,8,0:0:0:0:
80,128,26224,1,0,0:0:0:0:
72,152,26310,1,0,0:0:0:0:
72,152,26395,1,8,0:0:0:0:
88,200,26567,1,0,0:0:0:0:
144,200,26739,1,8,0:0:0:0:
144,200,26910,1,0,0:0:0:0:
144,200,27081,1,8,0:0:0:0:
144,200,27167,1,8,0:0:0:0:
144,200,27253,1,0,0:0:0:0:
64,184,27339,1,8,0:0:0:0:
64,184,27424,1,0,0:0:0:0:
80,128,27596,1,8,0:0:0:0:
72,152,27682,1,8,0:0:0:0:
72,152,27767,1,0,0:0:0:0:
120,176,27938,1,8,0:0:0:0:
144,184,28024,1,8,0:0:0:0:
64,184,28110,1,0,0:0:0:0:
64,184,28195,1,0,0:0:0:0:
64,184,28281,1,8,0:0:0:0:
112,216,28452,1,0,0:0:0:0:
136,232,28538,1,0,0:0:0:0:
136,232,28624,1,8,0:0:0:0:
112,216,28795,1,0,0:0:0:0:
136,232,28881,1,0,0:0:0:0:
136,232,28967,1,8,0:0:0:0:
64,184,29138,1,8,0:0:0:0:
64,184,29224,1,8,0:0:0:0:
64,184,29310,1,0,0:0:0:0:
64,184,29481,1,8,0:0:0:0:
88,168,29567,1,8,0:0:0:0:
112,160,29652,1,0,0:0:0:0:
80,160,29738,1,0,0:0:0:0:
88,168,29824,1,8,0:0:0:0:
88,168,29910,1,8,0:0:0:0:
144,160,29995,1,0,0:0:0:0:
144,160,30167,1,8,0:0:0:0:
144,160,30252,1,8,0:0:0:0:
144,160,30338,1,0,0:0:0:0:
144,160,30424,1,0,0:0:0:0:
144,160,30510,1,8,0:0:0:0:
144,160,30681,1,0,0:0:0:0:
144,160,30852,1,8,0:0:0:0:
144,160,31024,1,0,0:0:0:0:
144,160,31195,1,8,0:0:0:0:
144,160,31281,1,8,0:0:0:0:
144,160,31367,1,0,0:0:0:0:
144,160,31452,1,8,0:0:0:0:
144,160,31538,1,8,0:0:0:0:
144,160,31710,1,0,0:0:0:0:
144,160,31795,1,0,0:0:0:0:
144,160,31881,1,8,0:0:0:0:
144,160,32052,1,0,0:0:0:0:
144,160,32224,1,8,0:0:0:0:
144,160,32310,1,8,0:0:0:0:
144,160,32395,1,0,0:0:0:0:
144,160,32481,1,8,0:0:0:0:
144,160,32567,1,0,0:0:0:0:
144,160,32652,1,8,0:0:0:0:
144,160,32738,1,0,0:0:0:0:
40,112,33081,1,8,0:0:0:0:
136,168,33424,1,4,0:0:0:0:
168,216,33595,1,8,0:0:0:0:
168,216,33681,1,8,0:0:0:0:
144,208,33767,1,0,0:0:0:0:
88,200,33938,1,8,0:0:0:0:
32,200,34110,1,0,0:0:0:0:
32,200,34195,1,0,0:0:0:0:
32,200,34281,1,8,0:0:0:0:
32,200,34367,1,0,0:0:0:0:
32,200,34452,1,8,0:0:0:0:
88,200,34623,1,0,0:0:0:0:
136,176,34795,1,8,0:0:0:0:
152,152,34881,1,8,0:0:0:0:
152,152,34967,1,0,0:0:0:0:
88,144,35052,1,8,0:0:0:0:
112,136,35138,1,0,0:0:0:0:
88,144,35310,1,8,0:0:0:0:
32,144,35481,1,0,0:0:0:0:
8,152,35567,1,0,0:0:0:0:
8,152,35652,1,8,0:0:0:0:
8,152,35738,1,0,0:0:0:0:
8,152,35824,1,8,0:0:0:0:
8,152,35995,1,0,0:0:0:0:
8,152,36081,1,0,0:0:0:0:
136,176,36167,1,8,0:0:0:0:
152,152,36338,1,8,0:0:0:0:
152,152,36424,1,8,0:0:0:0:
112,136,36510,1,0,0:0:0:0:
88,144,36682,1,8,0:0:0:0:
32,144,36853,1,0,0:0:0:0:
8,152,36939,1,0,0:0:0:0:
8,152,37024,1,8,0:0:0:0:
8,152,37110,1,8,0:0:0:0:
8,152,37196,1,0,0:0:0:0:
8,152,37367,1,8,0:0:0:0:
8,152,37538,1,0,0:0:0:0:
8,152,37710,1,0,0:0:0:0:
104,216,37881,1,8,0:0:0:0:
80,200,37967,1,8,0:0:0:0:
56,184,38052,1,8,0:0:0:0:
32,192,38138,1,8,0:0:0:0:
32,192,38224,1,0,0:0:0:0:
144,168,38567,1,8,0:0:0:0:
192,232,38738,1,8,0:0:0:0:
192,232,38910,1,4,0:0:0:0:
192,232,39081,1,0,0:0:0:0:
192,232,39167,1,0,0:0:0:0:
192,232,39252,1,8,0:0:0:0:
192,232,39424,1,0,0:0:0:0:
192,232,39595,1,8,0:0:0:0:
192,232,39767,1,0,0:0:0:0:
192,232,39852,1,0,0:0:0:0:
192,232,39938,1,8,0:0:0:0:
192,232,40110,1,8,0:0:0:0:
192,232,40281,1,4,0:0:0:0:
192,232,40452,1,0,0:0:0:0:
224,144,40624,1,8,0:0:0:0:
120,192,40710,1,8,0:0:0:0:
128,216,40795,1,0,0:0:0:0:
144,160,40967,1,8,0:0:0:0:
120,168,41052,1,8,0:0:0:0:
120,168,41138,1,0,0:0:0:0:
136,152,41224,1,0,0:0:0:0:
120,168,41310,1,8,0:0:0:0:
120,168,41481,1,8,0:0:0:0:
120,168,41652,1,0,0:0:0:0:
120,168,41738,1,0,0:0:0:0:
120,168,41824,1,0,0:0:0:0:
120,168,41910,1,0,0:0:0:0:
120,168,41995,1,8,0:0:0:0:
120,168,42081,1,8,0:0:0:0:
120,168,42167,1,8,0:0:0:0:
120,168,42252,1,8,0:0:0:0:
120,168,42338,1,0,0:0:0:0:
120,168,42424,1,0,0:0:0:0:
120,168,42510,1,0,0:0:0:0:
120,168,42595,1,0,0:0:0:0:
120,168,42681,1,8,0:0:0:0:
120,168,42767,1,8,0:0:0:0:
120,168,42853,1,8,0:0:0:0:
120,168,42938,1,8,0:0:0:0:
120,168,43024,1,0,0:0:0:0:
176,264,43367,2,0,B|336:240|240:240,1,140
168,216,44052,5,0,0:0:0:0:
56,208,44395,1,12,0:0:0:0:
216,256,44910,1,8,0:0:0:0:
120,200,45252,1,8,0:0:0:0:
120,200,45595,1,0,0:0:0:0:
120,200,45938,1,0,0:0:0:0:
120,200,46110,1,8,0:0:0:0:
120,200,46281,1,0,0:0:0:0:
80,176,46795,1,0,0:0:0:0:
192,160,47138,1,8,0:0:0:0:
80,176,47481,1,8,0:0:0:0:
120,200,47652,1,0,0:0:0:0:
232,232,47995,1,0,0:0:0:0:
120,200,48338,1,8,0:0:0:0:
8,200,48681,1,8,0:0:0:0:
64,200,48852,1,8,0:0:0:0:
64,200,49024,1,0,0:0:0:0:
224,248,49538,1,0,0:0:0:0:
120,200,49881,1,4,0:0:0:0:
200,272,50224,1,8,0:0:0:0:
160,232,50395,1,8,0:0:0:0:
168,288,50567,1,0,0:0:0:0:
200,272,51081,1,0,0:0:0:0:
160,232,51424,1,8,0:0:0:0:
48,216,51767,1,8,0:0:0:0:
416,272,51938,1,0,0:0:0:0:
264,176,52452,1,0,0:0:0:0:
208,184,52624,1,8,0:0:0:0:
208,184,52795,1,8,0:0:0:0:
152,184,52967,1,0,0:0:0:0:
144,240,53138,1,8,0:0:0:0:
192,264,53310,1,0,0:0:0:0:
72,152,53481,1,8,0:0:0:0:
120,184,53567,1,8,0:0:0:0:
120,184,53652,1,8,0:0:0:0:
64,176,53824,1,8,0:0:0:0:
8,176,53995,1,4,0:0:0:0:
80,208,54681,1,12,0:0:0:0:
32,192,55024,1,0,0:0:0:0:
32,192,55367,1,4,0:0:0:0:
8,176,55538,1,8,0:0:0:0:
32,192,55710,1,0,0:0:0:0:
8,176,55881,1,8,0:0:0:0:
8,176,55967,1,8,0:0:0:0:
8,176,56052,1,0,0:0:0:0:
8,176,56224,1,8,0:0:0:0:
176,208,56310,1,8,0:0:0:0:
8,176,56395,1,0,0:0:0:0:
264,168,56567,1,8,0:0:0:0:
192,168,56738,1,8,0:0:0:0:
64,176,56910,1,0,0:0:0:0:
64,176,56995,1,0,0:0:0:0:
64,176,57081,1,8,0:0:0:0:
64,176,57167,1,0,0:0:0:0:
64,176,57252,1,8,0:0:0:0:
8,168,57424,1,0,0:0:0:0:
64,176,57595,1,0,0:0:0:0:
8,176,57767,1,8,0:0:0:0:
8,176,57852,1,8,0:0:0:0:
64,176,57938,1,0,0:0:0:0:
120,192,58110,1,4,0:0:0:0:
64,176,58281,1,8,0:0:0:0:
64,176,58452,1,8,0:0:0:0:
120,176,58624,1,0,0:0:0:0:
120,176,58710,1,0,0:0:0:0:
120,176,58795,1,8,0:0:0:0:
120,176,58967,1,0,0:0:0:0:
120,176,59138,1,8,0:0:0:0:
120,176,59224,1,8,0:0:0:0:
96,160,59310,1,0,0:0:0:0:
96,160,59481,1,8,0:0:0:0:
64,176,59652,1,0,0:0:0:0:
64,176,59738,1,0,0:0:0:0:
64,176,59824,1,8,0:0:0:0:
64,176,59910,1,0,0:0:0:0:
64,176,59995,1,8,0:0:0:0:
64,176,60167,1,0,0:0:0:0:
64,176,60338,1,0,0:0:0:0:
64,176,60510,1,8,0:0:0:0:
64,176,60595,1,0,0:0:0:0:
64,176,60681,1,8,0:0:0:0:
64,176,60852,1,4,0:0:0:0:
120,168,61024,1,0,0:0:0:0:
120,168,61195,1,8,0:0:0:0:
120,168,61367,1,0,0:0:0:0:
120,168,61452,1,0,0:0:0:0:
120,168,61538,1,8,0:0:0:0:
120,168,61710,1,8,0:0:0:0:
120,168,61881,1,0,0:0:0:0:
56,200,62052,1,8,0:0:0:0:
56,200,62138,1,0,0:0:0:0:
56,200,62224,1,8,0:0:0:0:
104,168,62395,1,0,0:0:0:0:
104,168,62481,1,0,0:0:0:0:
104,168,62567,1,8,0:0:0:0:
104,168,62652,1,0,0:0:0:0:
104,168,62738,1,8,0:0:0:0:
104,168,62910,1,0,0:0:0:0:
144,128,63081,1,0,0:0:0:0:
56,200,63252,1,8,0:0:0:0:
56,200,63338,1,8,0:0:0:0:
104,184,63424,1,0,0:0:0:0:
56,200,63595,1,4,0:0:0:0:
56,200,63767,1,0,0:0:0:0:
56,200,63852,1,8,0:0:0:0:
56,200,63938,1,0,0:0:0:0:
104,184,64110,1,8,0:0:0:0:
56,200,64196,1,8,0:0:0:0:
56,200,64281,1,0,0:0:0:0:
56,200,64453,1,0,0:0:0:0:
56,200,64624,1,8,0:0:0:0:
56,200,64709,1,0,0:0:0:0:
56,200,64795,1,8,0:0:0:0:
56,200,64967,1,0,0:0:0:0:
16,160,65138,1,0,0:0:0:0:
16,160,65224,1,0,0:0:0:0:
16,160,65310,1,8,0:0:0:0:
16,160,65395,1,0,0:0:0:0:
16,160,65481,1,8,0:0:0:0:
16,160,65652,1,0,0:0:0:0:
16,160,65824,1,8,0:0:0:0:
72,168,65995,1,4,0:0:0:0:
40,160,66338,1,8,0:0:0:0:
40,160,66510,1,0,0:0:0:0:
40,160,66595,1,8,0:0:0:0:
40,160,66681,1,8,0:0:0:0:
40,160,66852,1,0,0:0:0:0:
40,160,67024,1,8,0:0:0:0:
40,160,67110,1,8,0:0:0:0:
40,160,67195,1,0,0:0:0:0:
40,160,67281,1,8,0:0:0:0:
40,160,67367,1,0,0:0:0:0:
40,160,67538,1,8,0:0:0:0:
96,168,67710,1,0,0:0:0:0:
120,168,67795,1,0,0:0:0:0:
152,168,67881,1,8,0:0:0:0:
176,168,67967,1,0,0:0:0:0:
176,168,68052,1,8,0:0:0:0:
176,168,68224,1,0,0:0:0:0:
176,168,68395,1,8,0:0:0:0:
176,168,68481,1,8,0:0:0:0:
176,168,68567,1,0,0:0:0:0:
120,168,68738,1,4,0:0:0:0:
96,168,69081,1,8,0:0:0:0:
40,184,69252,1,0,0:0:0:0:
40,184,69338,1,0,0:0:0:0:
40,184,69424,1,8,0:0:0:0:
40,184,69595,1,8,0:0:0:0:
40,184,69681,1,0,0:0:0:0:
40,184,69767,1,8,0:0:0:0:
96,168,69938,1,0,0:0:0:0:
96,168,70110,1,8,0:0:0:0:
96,168,70195,1,8,0:0:0:0:
96,168,70281,1,0,0:0:0:0:
152,176,70452,1,8,0:0:0:0:
40,184,70624,1,0,0:0:0:0:
40,184,70710,1,0,0:0:0:0:
40,184,70795,1,8,0:0:0:0:
40,184,70881,1,8,0:0:0:0:
64,168,70967,1,0,0:0:0:0:
120,152,71138,1,8,0:0:0:0:
120,152,71310,1,8,0:0:0:0:
40,184,71481,1,4,0:0:0:0:
96,176,71824,1,8,0:0:0:0:
16,176,71995,1,0,0:0:0:0:
16,176,72081,1,0,0:0:0:0:
168,248,72167,1,8,0:0:0:0:
16,176,72338,1,8,0:0:0:0:
16,176,72424,1,8,0:0:0:0:
16,176,72510,1,0,0:0:0:0:
64,200,72681,1,8,0:0:0:0:
96,160,72852,1,8,0:0:0:0:
96,176,73024,1,0,0:0:0:0:
120,192,73110,1,0,0:0:0:0:
120,192,73195,1,8,0:0:0:0:
96,184,73281,1,8,0:0:0:0:
72,176,73367,1,0,0:0:0:0:
16,176,73538,1,8,0:0:0:0:
56,216,73710,1,0,0:0:0:0:
144,152,73795,1,0,0:0:0:0:
0,200,73881,1,8,0:0:0:0:
56,208,74052,1,8,0:0:0:0:
56,208,74138,1,8,0:0:0:0:
96,160,74224,1,0,0:0:0:0:
96,160,74395,1,8,0:0:0:0:
256,168,74567,1,0,0:0:0:0:
256,168,74652,1,0,0:0:0:0:
256,168,74738,1,8,0:0:0:0:
256,168,74824,1,8,0:0:0:0:
232,184,74910,1,0,0:0:0:0:
176,216,74995,1,0,0:0:0:0:
232,184,75081,1,8,0:0:0:0:
224,176,75167,1,8,0:0:0:0:
224,176,75252,1,0,0:0:0:0:
144,192,75338,1,0,0:0:0:0:
144,192,75424,1,8,0:0:0:0:
96,184,75595,1,0,0:0:0:0:
104,176,75681,1,0,0:0:0:0:
96,184,75767,1,8,0:0:0:0:
96,184,75938,1,4,0:0:0:0:
192,232,76281,1,0,0:0:0:0:
192,232,76624,1,8,0:0:0:0:
192,232,76795,1,0,0:0:0:0:
192,232,77138,1,0,0:0:0:0:
112,176,77481,1,0,0:0:0:0:
192,232,77652,1,0,0:0:0:0:
256,192,77824,12,0,79710,0:0:0:0:
192,184,80052,5,12,0:0:0:0:
112,200,80310,1,0,0:0:0:0:
176,200,80395,1,8,0:0:0:0:
144,280,80567,1,8,0:0:0:0:
88,192,80738,1,0,0:0:0:0:
112,200,80824,1,8,0:0:0:0:
64,176,80995,1,8,0:0:0:0:
88,192,81081,1,0,0:0:0:0:
88,192,81252,1,0,0:0:0:0:
144,184,81424,1,8,0:0:0:0:
168,208,81595,1,8,0:0:0:0:
200,240,81681,1,0,0:0:0:0:
264,216,81852,1,0,0:0:0:0:
120,216,81938,1,8,0:0:0:0:
208,232,82110,1,8,0:0:0:0:
160,192,82195,1,8,0:0:0:0:
88,192,82281,1,0,0:0:0:0:
112,184,82367,1,0,0:0:0:0:
88,192,82452,1,8,0:0:0:0:
88,192,82624,1,0,0:0:0:0:
48,152,82795,1,8,0:0:0:0:
88,192,82967,1,0,0:0:0:0:
88,192,83052,1,8,0:0:0:0:
144,216,83224,1,0,0:0:0:0:
144,216,83310,1,8,0:0:0:0:
120,240,83481,1,8,0:0:0:0:
104,216,83567,1,0,0:0:0:0:
56,192,83738,1,8,0:0:0:0:
72,168,83824,1,8,0:0:0:0:
72,168,83995,1,8,0:0:0:0:
184,144,84167,1,0,0:0:0:0:
184,144,84338,1,8,0:0:0:0:
184,144,84424,1,8,0:0:0:0:
56,192,84510,1,0,0:0:0:0:
56,192,84595,1,8,0:0:0:0:
104,168,84681,1,0,0:0:0:0:
104,168,84852,1,8,0:0:0:0:
104,168,85024,1,8,0:0:0:0:
128,176,85110,1,8,0:0:0:0:
104,168,85195,1,0,0:0:0:0:
128,176,85281,1,0,0:0:0:0:
104,168,85367,1,8,0:0:0:0:
128,176,85452,1,0,0:0:0:0:
104,168,85538,1,8,0:0:0:0:
152,192,85710,1,0,0:0:0:0:
152,240,85795,1,8,0:0:0:0:
200,208,85967,1,8,0:0:0:0:
176,224,86052,1,8,0:0:0:0:
120,208,86224,1,0,0:0:0:0:
96,200,86310,1,8,0:0:0:0:
96,200,86481,1,8,0:0:0:0:
152,192,86567,1,0,0:0:0:0:
152,192,86738,1,8,0:0:0:0:
96,200,86910,1,0,0:0:0:0:
152,200,87081,1,8,0:0:0:0:
184,200,87167,1,0,0:0:0:0:
96,200,87338,1,0,0:0:0:0:
264,176,87424,1,8,0:0:0:0:
72,184,87595,1,8,0:0:0:0:
88,160,87681,1,8,0:0:0:0:
96,176,87767,1,0,0:0:0:0:
96,200,87852,1,0,0:0:0:0:
72,192,87938,1,8,0:0:0:0:
72,184,88110,1,0,0:0:0:0:
96,200,88281,1,8,0:0:0:0:
152,200,88452,1,0,0:0:0:0:
152,200,88538,1,8,0:0:0:0:
152,200,88710,1,8,0:0:0:0:
152,200,88796,1,0,0:0:0:0:
152,200,88967,1,0,0:0:0:0:
152,200,89053,1,8,0:0:0:0:
152,200,89138,1,0,0:0:0:0:
152,200,89224,1,8,0:0:0:0:
152,200,89310,1,8,0:0:0:0:
152,200,89481,1,8,0:0:0:0:
152,200,89652,1,0,0:0:0:0:
152,200,89738,1,0,0:0:0:0:
64,128,89824,1,8,0:0:0:0:
152,200,89995,1,0,0:0:0:0:
64,128,90167,1,8,0:0:0:0:
64,128,90252,1,8,0:0:0:0:
152,200,90338,1,8,0:0:0:0:
64,128,90424,1,8,0:0:0:0:
152,200,90510,1,0,0:0:0:0:
64,128,90595,1,0,0:0:0:0:
64,128,90681,1,8,0:0:0:0:
64,128,90767,1,0,0:0:0:0:
152,200,90852,1,8,0:0:0:0:
152,200,91024,1,4,0:0:0:0:
152,200,91195,1,8,0:0:0:0:
152,200,91281,1,8,0:0:0:0:
152,200,91367,1,0,0:0:0:0:
152,200,91538,1,8,0:0:0:0:
152,200,91710,1,0,0:0:0:0:
152,200,91795,1,0,0:0:0:0:
152,200,91881,1,8,0:0:0:0:
152,200,91967,1,8,0:0:0:0:
152,200,92052,1,0,0:0:0:0:
152,200,92224,1,8,0:0:0:0:
152,200,92395,1,4,0:0:0:0:
152,200,92567,1,8,0:0:0:0:
152,200,92652,1,8,0:0:0:0:
152,200,92738,1,0,0:0:0:0:
152,200,92910,1,8,0:0:0:0:
152,200,93081,1,0,0:0:0:0:
152,200,93167,1,0,0:0:0:0:
152,200,93252,1,8,0:0:0:0:
152,200,93424,1,0,0:0:0:0:
152,200,93510,1,0,0:0:0:0:
152,200,93595,1,8,0:0:0:0:
152,200,93767,1,4,0:0:0:0:
152,200,93938,1,8,0:0:0:0:
152,200,94024,1,8,0:0:0:0:
152,200,94110,1,0,0:0:0:0:
152,200,94281,1,8,0:0:0:0:
152,200,94452,1,0,0:0:0:0:
152,200,94538,1,0,0:0:0:0:
152,200,94624,1,8,0:0:0:0:
152,200,94710,1,0,0:0:0:0:
152,200,94795,1,8,0:0:0:0:
152,200,94967,1,12,0:0:0:0:
152,200,95138,1,0,0:0:0:0:
152,200,95310,1,0,0:0:0:0:
152,200,95395,1,0,0:0:0:0:
152,200,95481,1,8,0:0:0:0:
152,200,95652,1,0,0:0:0:0:
152,200,95824,1,8,0:0:0:0:
152,200,95995,1,0,0:0:0:0:
152,200,96081,1,8,0:0:0:0:
152,200,96167,1,8,0:0:0:0:
152,200,96252,1,0,0:0:0:0:
152,200,96338,1,8,0:0:0:0:
152,200,96510,1,4,0:0:0:0:
152,200,96681,1,8,0:0:0:0:
152,200,96767,1,0,0:0:0:0:
152,200,96852,1,8,0:0:0:0:
152,200,97024,1,0,0:0:0:0:
152,200,97195,1,0,0:0:0:0:
152,200,97281,1,8,0:0:0:0:
152,200,97367,1,0,0:0:0:0:
152,200,97452,1,8,0:0:0:0:
152,200,97538,1,8,0:0:0:0:
152,200,97710,1,8,0:0:0:0:
152,200,97881,1,4,0:0:0:0:
152,200,98052,1,8,0:0:0:0:
176,208,98138,1,8,0:0:0:0:
152,200,98224,1,0,0:0:0:0:
120,160,98395,1,8,0:0:0:0:
72,184,98567,1,0,0:0:0:0:
72,184,98652,1,0,0:0:0:0:
104,136,98738,1,8,0:0:0:0:
72,184,98824,1,0,0:0:0:0:
88,192,98910,1,8,0:0:0:0:
120,160,99081,1,8,0:0:0:0:
48,208,99252,1,0,0:0:0:0:
48,208,99338,1,0,0:0:0:0:
48,208,99424,1,0,0:0:0:0:
48,208,99510,1,0,0:0:0:0:
48,208,99595,1,8,0:0:0:0:
48,208,99681,1,8,0:0:0:0:
48,208,99767,1,8,0:0:0:0:
48,208,99853,1,8,0:0:0:0:
48,208,99938,1,0,0:0:0:0:
48,208,100024,1,0,0:0:0:0:
48,208,100110,1,8,0:0:0:0:
48,208,100196,1,8,0:0:0:0:
48,208,100281,1,0,0:0:0:0:
48,208,100367,1,0,0:0:0:0:
48,208,100453,1,8,0:0:0:0:
48,208,100539,1,8,0:0:0:0:
256,192,100624,12,0,101481,0:0:0:0:
280,200,101652,5,12,0:0:0:0:
176,232,101995,1,4,0:0:0:0:
224,256,102167,1,8,0:0:0:0:
248,272,102252,1,8,0:0:0:0:
248,272,102338,1,0,0:0:0:0:
248,272,102424,1,0,0:0:0:0:
248,272,102510,1,8,0:0:0:0:
208,240,102681,1,0,0:0:0:0:
184,224,102767,1,8,0:0:0:0:
160,208,102938,1,8,0:0:0:0:
184,224,103024,1,0,0:0:0:0:
160,208,103110,1,0,0:0:0:0:
184,224,103195,1,8,0:0:0:0:
184,224,103367,1,4,0:0:0:0:
136,192,103538,1,8,0:0:0:0:
112,184,103624,1,8,0:0:0:0:
96,160,103710,1,0,0:0:0:0:
112,144,103795,1,8,0:0:0:0:
96,160,103881,1,0,0:0:0:0:
152,168,104052,1,8,0:0:0:0:
152,168,104138,1,0,0:0:0:0:
208,176,104224,1,8,0:0:0:0:
152,176,104395,1,8,0:0:0:0:
136,192,104481,1,0,0:0:0:0:
96,168,104567,1,8,0:0:0:0:
184,224,104738,1,4,0:0:0:0:
128,216,104910,1,8,0:0:0:0:
104,216,104995,1,8,0:0:0:0:
104,216,105081,1,0,0:0:0:0:
104,216,105167,1,0,0:0:0:0:
56,192,105252,1,8,0:0:0:0:
128,216,105424,1,0,0:0:0:0:
112,192,105510,1,8,0:0:0:0:
112,192,105595,1,0,0:0:0:0:
80,192,105681,1,0,0:0:0:0:
112,192,105767,1,8,0:0:0:0:
112,192,105938,1,12,0:0:0:0:
56,200,106110,1,0,0:0:0:0:
112,200,106281,1,8,0:0:0:0:
136,200,106367,1,8,0:0:0:0:
160,208,106452,1,0,0:0:0:0:
112,200,106624,1,8,0:0:0:0:
160,208,106795,1,0,0:0:0:0:
216,216,106967,1,8,0:0:0:0:
216,192,107052,1,0,0:0:0:0:
160,208,107138,1,8,0:0:0:0:
184,200,107224,1,0,0:0:0:0:
216,192,107310,1,8,0:0:0:0:
184,200,107481,1,4,0:0:0:0:
56,200,107652,1,8,0:0:0:0:
56,200,107738,1,8,0:0:0:0:
56,200,107824,1,0,0:0:0:0:
112,216,107995,1,8,0:0:0:0:
88,208,108167,1,0,0:0:0:0:
112,192,108252,1,8,0:0:0:0:
104,168,108424,1,8,0:0:0:0:
56,200,108510,1,0,0:0:0:0:
208,216,108595,1,0,0:0:0:0:
56,200,108681,1,8,0:0:0:0:
56,200,108852,1,4,0:0:0:0:
80,152,109024,1,8,0:0:0:0:
104,160,109110,1,8,0:0:0:0:
128,168,109195,1,0,0:0:0:0:
104,168,109281,1,8,0:0:0:0:
72,176,109367,1,0,0:0:0:0:
24,184,109538,1,8,0:0:0:0:
48,192,109624,1,0,0:0:0:0:
48,192,109710,1,8,0:0:0:0:
48,192,109881,1,8,0:0:0:0:
48,192,109967,1,0,0:0:0:0:
48,192,110052,1,8,0:0:0:0:
96,168,110224,1,4,0:0:0:0:
144,200,110395,1,8,0:0:0:0:
168,208,110481,1,8,0:0:0:0:
192,208,110567,1,0,0:0:0:0:
192,208,110738,1,8,0:0:0:0:
136,200,110910,1,0,0:0:0:0:
80,184,110995,1,0,0:0:0:0:
80,184,111081,1,8,0:0:0:0:
80,184,111167,1,0,0:0:0:0:
192,208,111252,1,8,0:0:0:0:
192,208,111424,1,12,0:0:0:0:
192,208,111595,1,0,0:0:0:0:
144,208,111767,1,8,0:0:0:0:
144,208,111852,1,8,0:0:0:0:
288,272,111938,1,0,0:0:0:0:
248,232,112110,1,8,0:0:0:0:
248,232,112195,1,0,0:0:0:0:
248,200,112281,1,0,0:0:0:0:
200,208,112367,1,8,0:0:0:0:
176,208,112452,1,8,0:0:0:0:
152,192,112538,1,0,0:0:0:0:
128,184,112624,1,8,0:0:0:0:
128,184,112710,1,0,0:0:0:0:
128,184,112795,1,8,0:0:0:0:
72,192,112967,1,4,0:0:0:0:
112,232,113138,1,8,0:0:0:0:
96,216,113224,1,8,0:0:0:0:
96,216,113310,1,0,0:0:0:0:
96,216,113481,1,8,0:0:0:0:
40,200,113652,1,0,0:0:0:0:
16,192,113738,1,8,0:0:0:0:
16,192,113824,1,8,0:0:0:0:
72,192,113910,1,0,0:0:0:0:
40,200,113995,1,0,0:0:0:0:
40,200,114167,1,8,0:0:0:0:
96,216,114338,1,4,0:0:0:0:
112,232,114510,1,8,0:0:0:0:
96,216,114596,1,8,0:0:0:0:
96,216,114682,1,0,0:0:0:0:
152,224,114852,1,8,0:0:0:0:
104,192,115024,1,8,0:0:0:0:
128,208,115110,1,0,0:0:0:0:
104,192,115195,1,8,0:0:0:0:
56,224,115367,1,8,0:0:0:0:
80,232,115452,1,0,0:0:0:0:
152,224,115538,1,8,0:0:0:0:
96,208,115710,1,4,0:0:0:0:
96,216,115881,1,8,0:0:0:0:
56,224,115967,1,0,0:0:0:0:
80,232,116052,1,0,0:0:0:0:
56,224,116138,1,8,0:0:0:0:
136,248,116224,1,8,0:0:0:0:
56,224,116395,1,0,0:0:0:0:
128,208,116481,1,8,0:0:0:0:
128,208,116567,1,8,0:0:0:0:
56,224,116652,1,0,0:0:0:0:
104,192,116738,1,8,0:0:0:0:
152,192,116910,1,12,0:0:0:0:
152,224,117081,1,0,0:0:0:0:
56,224,117252,1,0,0:0:0:0:
80,232,117338,1,0,0:0:0:0:
80,232,117424,1,8,0:0:0:0:
208,184,117510,1,0,0:0:0:0:
80,176,117595,1,8,0:0:0:0:
128,208,117767,1,0,0:0:0:0:
176,232,117938,1,8,0:0:0:0:
120,216,118024,1,8,0:0:0:0:
128,208,118110,1,0,0:0:0:0:
120,216,118195,1,8,0:0:0:0:
104,200,118281,1,0,0:0:0:0:
152,192,118452,1,4,0:0:0:0:
128,144,118624,1,8,0:0:0:0:
128,144,118710,1,8,0:0:0:0:
128,208,118795,1,0,0:0:0:0:
128,144,118967,1,8,0:0:0:0:
128,208,119138,1,0,0:0:0:0:
128,208,119224,1,8,0:0:0:0:
128,144,119310,1,0,0:0:0:0:
128,208,119395,1,0,0:0:0:0:
128,208,119481,1,8,0:0:0:0:
128,144,119567,1,0,0:0:0:0:
128,144,119652,1,8,0:0:0:0:
128,208,119824,1,4,0:0:0:0:
184,224,119995,1,8,0:0:0:0:
184,224,120081,1,8,0:0:0:0:
152,224,120167,1,0,0:0:0:0:
96,216,120338,1,8,0:0:0:0:
40,216,120510,1,0,0:0:0:0:
40,216,120595,1,0,0:0:0:0:
128,208,120681,1,8,0:0:0:0:
128,208,120767,1,8,0:0:0:0:
72,208,120852,1,0,0:0:0:0:
128,208,121024,1,8,0:0:0:0:
72,192,121195,1,0,0:0:0:0:
48,184,121281,1,0,0:0:0:0:
48,184,121367,1,0,0:0:0:0:
48,184,121452,1,0,0:0:0:0:
48,184,121538,1,8,0:0:0:0:
48,184,121624,1,8,0:0:0:0:
48,184,121710,1,8,0:0:0:0:
48,184,121795,1,8,0:0:0:0:
48,184,121881,1,0,0:0:0:0:
48,184,121967,1,0,0:0:0:0:
48,184,122052,1,8,0:0:0:0:
48,184,122138,1,8,0:0:0:0:
48,184,122224,1,0,0:0:0:0:
48,184,122310,1,0,0:0:0:0:
48,184,122395,1,8,0:0:0:0:
48,184,122481,1,8,0:0:0:0:
72,192,122567,1,0,0:0:0:0:
88,248,122738,1,8,0:0:0:0:
48,184,122910,1,0,0:0:0:0:
120,176,123081,1,8,0:0:0:0:
120,176,123252,1,0,0:0:0:0:
120,176,123424,1,8,0:0:0:0:
120,176,123595,1,12,0:0:0:0:
280,232,123938,1,4,0:0:0:0:
224,232,124110,1,8,0:0:0:0:
224,208,124195,1,8,0:0:0:0:
120,176,124281,1,0,0:0:0:0:
176,192,124452,1,8,0:0:0:0:
144,192,124538,1,8,0:0:0:0:
120,192,124624,1,0,0:0:0:0:
96,200,124710,1,0,0:0:0:0:
120,192,124795,1,8,0:0:0:0:
176,192,124967,1,0,0:0:0:0:
120,184,125138,1,8,0:0:0:0:
144,192,125224,1,0,0:0:0:0:
128,176,125310,1,8,0:0:0:0:
144,192,125481,1,8,0:0:0:0:
120,208,125567,1,8,0:0:0:0:
96,208,125652,1,0,0:0:0:0:
144,192,125824,1,8,0:0:0:0:
120,200,125910,1,8,0:0:0:0:
96,200,125995,1,0,0:0:0:0:
152,200,126167,1,8,0:0:0:0:
152,200,126338,1,4,0:0:0:0:
192,264,126681,1,0,0:0:0:0:
176,208,126852,1,8,0:0:0:0:
168,184,126938,1,8,0:0:0:0:
160,160,127024,1,0,0:0:0:0:
208,184,127195,1,8,0:0:0:0:
96,200,127281,1,8,0:0:0:0:
120,184,127367,1,0,0:0:0:0:
144,168,127452,1,8,0:0:0:0:
120,176,127538,1,8,0:0:0:0:
96,200,127710,1,8,0:0:0:0:
80,176,127795,1,0,0:0:0:0:
96,200,127881,1,8,0:0:0:0:
96,200,127967,1,8,0:0:0:0:
96,200,128052,1,0,0:0:0:0:
96,200,128224,1,8,0:0:0:0:
104,176,128310,1,8,0:0:0:0:
104,144,128395,1,0,0:0:0:0:
56,176,128567,1,8,0:0:0:0:
56,176,128652,1,0,0:0:0:0:
104,144,128738,1,8,0:0:0:0:
56,176,128910,1,8,0:0:0:0:
104,144,129081,1,4,0:0:0:0:
200,200,129424,1,0,0:0:0:0:
152,176,129595,1,8,0:0:0:0:
152,176,129681,1,8,0:0:0:0:
200,200,129767,1,0,0:0:0:0:
200,200,129938,1,0,0:0:0:0:
200,200,130024,1,8,0:0:0:0:
200,200,130110,1,0,0:0:0:0:
200,200,130281,1,8,0:0:0:0:
200,200,130452,1,0,0:0:0:0:
176,192,130538,1,0,0:0:0:0:
200,200,130624,1,8,0:0:0:0:
200,200,130710,1,0,0:0:0:0:
200,200,130795,1,0,0:0:0:0:
200,200,130967,1,8,0:0:0:0:
200,200,131052,1,8,0:0:0:0:
200,200,131138,1,0,0:0:0:0:
200,200,131224,1,0,0:0:0:0:
200,200,131310,1,8,0:0:0:0:
144,184,131481,1,0,0:0:0:0:
112,136,131652,1,8,0:0:0:0:
112,136,131738,1,8,0:0:0:0:
88,152,131824,1,0,0:0:0:0:
88,176,131995,1,0,0:0:0:0:
112,136,132167,1,8,0:0:0:0:
112,136,132252,1,8,0:0:0:0:
112,136,132338,1,0,0:0:0:0:
112,136,132424,1,8,0:0:0:0:
112,136,132510,1,0,0:0:0:0:
112,136,132595,1,8,0:0:0:0:
112,136,132681,1,0,0:0:0:0:
112,136,132767,1,0,0:0:0:0:
112,136,132852,1,8,0:0:0:0:
112,136,133024,1,0,0:0:0:0:
112,136,133110,1,8,0:0:0:0:
112,136,133195,1,0,0:0:0:0:
112,136,133281,1,8,0:0:0:0:
112,136,133367,1,8,0:0:0:0:
112,136,133538,1,0,0:0:0:0:
112,136,133710,1,8,0:0:0:0:
112,136,133795,1,8,0:0:0:0:
112,136,133881,1,0,0:0:0:0:
112,136,134052,1,0,0:0:0:0:
136,152,134138,1,0,0:0:0:0:
112,136,134224,1,8,0:0:0:0:
112,136,134310,1,8,0:0:0:0:
112,136,134395,1,8,0:0:0:0:
112,136,134567,1,4,0:0:0:0:
144,136,134910,1,8,0:0:0:0:
128,152,134995,1,8,0:0:0:0:
128,152,135081,1,0,0:0:0:0:
104,160,135167,1,8,0:0:0:0:
88,184,135252,1,0,0:0:0:0:
144,184,135424,1,8,0:0:0:0:
144,184,135510,1,0,0:0:0:0:
120,184,135595,1,8,0:0:0:0:
96,184,135681,1,8,0:0:0:0:
72,176,135767,1,0,0:0:0:0:
72,176,135938,1,8,0:0:0:0:
96,184,136110,1,8,0:0:0:0:
96,184,136195,1,8,0:0:0:0:
72,176,136281,1,0,0:0:0:0:
72,176,136452,1,8,0:0:0:0:
96,184,136538,1,0,0:0:0:0:
72,176,136624,1,8,0:0:0:0:
96,184,136795,1,8,0:0:0:0:
120,168,136881,1,8,0:0:0:0:
72,176,136967,1,0,0:0:0:0:
96,184,137138,1,8,0:0:0:0:
72,176,137310,1,4,0:0:0:0:
96,184,137652,1,8,0:0:0:0:
96,184,137738,1,8,0:0:0:0:
96,184,137824,1,0,0:0:0:0:
120,192,137910,1,0,0:0:0:0:
144,200,137995,1,8,0:0:0:0:
144,208,138167,1,0,0:0:0:0:
120,192,138252,1,8,0:0:0:0:
120,192,138338,1,0,0:0:0:0:
96,192,138424,1,8,0:0:0:0:
96,192,138510,1,8,0:0:0:0:
72,176,138681,1,0,0:0:0:0:
72,176,138852,1,8,0:0:0:0:
120,192,138938,1,8,0:0:0:0:
120,192,139024,1,0,0:0:0:0:
96,184,139195,1,8,0:0:0:0:
72,176,139281,1,0,0:0:0:0:
72,176,139367,1,8,0:0:0:0:
72,176,139538,1,8,0:0:0:0:
72,176,139624,1,8,0:0:0:0:
72,176,139710,1,0,0:0:0:0:
120,192,139881,1,8,0:0:0:0:
168,216,140052,1,0,0:0:0:0:
168,216,140138,1,0,0:0:0:0:
120,184,140224,1,8,0:0:0:0:
96,184,140395,1,4,0:0:0:0:
200,160,140738,1,0,0:0:0:0:
200,160,141081,1,0,0:0:0:0:
200,160,141424,1,0,0:0:0:0:
96,184,141767,1,4,0:0:0:0:
200,160,141938,1,8,0:0:0:0:
200,160,142110,1,0,0:0:0:0:
200,160,142281,1,8,0:0:0:0:
200,160,142452,1,0,0:0:0:0:
200,160,142624,1,8,0:0:0:0:
200,160,142795,1,0,0:0:0:0:
200,160,142967,1,8,0:0:0:0:
160,200,143138,1,0,0:0:0:0:
184,192,143224,1,8,0:0:0:0:
184,192,143310,1,0,0:0:0:0:
184,192,143395,1,8,0:0:0:0:
160,192,143481,1,0,0:0:0:0:
136,184,143567,1,0,0:0:0:0:
136,184,143652,1,8,0:0:0:0:
136,184,143738,1,8,0:0:0:0:
160,200,143824,1,0,0:0:0:0:
136,184,143910,1,8,0:0:0:0:
136,184,143995,1,0,0:0:0:0:
112,200,144081,1,8,0:0:0:0:
112,200,144167,1,0,0:0:0:0:
112,200,144252,1,0,0:0:0:0:
112,200,144338,1,8,0:0:0:0:
112,200,144424,1,8,0:0:0:0:
88,184,144510,1,0,0:0:0:0:
160,272,144852,1,4,0:0:0:0:
64,216,145195,1,12,0:0:0:0:
64,216,145367,1,4,0:0:0:0:
8,120,145710,1,12,0:0:0:0:
80,200,146052,1,4,0:0:0:0:
168,224,146224,2,14,L|440:216,6,224
208,240,148624,1,0,0:0:0:0:
120,184,148795,1,0,0:0:0:0:
16,184,148967,1,8,0:0:0:0:
120,216,149138,1,8,0:0:0:0:
120,216,149224,1,8,0:0:0:0:
16,208,149310,1,0,0:0:0:0:
64,200,149395,1,8,0:0:0:0:
64,200,149481,1,0,0:0:0:0:
16,208,149652,1,0,0:0:0:0:
120,184,149738,1,0,0:0:0:0:
16,184,149824,1,8,0:0:0:0:
120,168,149995,1,0,0:0:0:0:
72,192,150167,1,8,0:0:0:0:
120,168,150338,1,0,0:0:0:0:
176,160,150510,1,8,0:0:0:0:
176,160,150595,1,8,0:0:0:0:
16,184,150681,1,0,0:0:0:0:
16,184,150767,1,0,0:0:0:0:
176,160,150852,1,8,0:0:0:0:
16,184,151024,1,0,0:0:0:0:
176,160,151110,1,0,0:0:0:0:
176,160,151196,1,8,0:0:0:0:
176,160,151367,1,0,0:0:0:0:
16,184,151538,1,8,0:0:0:0:
176,160,151710,1,0,0:0:0:0:
120,160,151881,1,8,0:0:0:0:
64,152,151967,1,8,0:0:0:0:
64,152,152052,1,0,0:0:0:0:
120,160,152138,1,8,0:0:0:0:
64,152,152224,1,0,0:0:0:0:
120,160,152395,1,0,0:0:0:0:
64,152,152481,1,0,0:0:0:0:
64,152,152567,1,8,0:0:0:0:
16,184,152738,1,0,0:0:0:0:
176,160,152910,1,8,0:0:0:0:
176,160,153081,1,0,0:0:0:0:
176,160,153167,1,0,0:0:0:0:
16,184,153252,1,8,0:0:0:0:
16,184,153338,1,0,0:0:0:0:
176,160,153424,1,8,0:0:0:0:
120,160,153595,1,0,0:0:0:0:
64,152,153766,1,8,0:0:0:0:
120,160,153938,1,0,0:0:0:0:
64,152,154024,1,8,0:0:0:0:
120,160,154109,1,8,0:0:0:0:
64,152,154281,1,0,0:0:0:0:
120,160,154452,1,8,0:0:0:0:
120,160,154538,1,8,0:0:0:0:
64,152,154624,1,0,0:0:0:0:
64,152,154710,1,0,0:0:0:0:
120,160,154795,1,8,0:0:0:0:
64,152,154967,1,0,0:0:0:0:
120,160,155138,1,8,0:0:0:0:
120,160,155224,1,8,0:0:0:0:
64,152,155310,1,0,0:0:0:0:
120,160,155481,1,8,0:0:0:0:
120,160,155567,1,8,0:0:0:0:
64,152,155652,1,0,0:0:0:0:
120,160,155738,1,8,0:0:0:0:
64,152,155824,1,0,0:0:0:0:
120,160,155995,1,8,0:0:0:0:
64,152,156167,1,0,0:0:0:0:
64,152,156252,1,0,0:0:0:0:
120,160,156338,1,8,0:0:0:0:
64,152,156424,1,0,0:0:0:0:
64,152,156510,1,8,0:0:0:0:
64,152,156595,1,8,0:0:0:0:
64,152,156681,1,0,0:0:0:0:
64,152,156767,1,0,0:0:0:0:
112,176,156852,1,8,0:0:0:0:
64,152,156938,1,8,0:0:0:0:
112,176,157024,1,0,0:0:0:0:
168,176,157195,1,8,0:0:0:0:
168,176,157281,1,0,0:0:0:0:
168,176,157367,1,8,0:0:0:0:
168,176,157452,1,8,0:0:0:0:
144,184,157538,1,0,0:0:0:0:
168,176,157624,1,0,0:0:0:0:
168,176,157710,1,8,0:0:0:0:
168,176,157881,1,8,0:0:0:0:
168,176,157967,1,0,0:0:0:0:
168,176,158052,1,8,0:0:0:0:
168,176,158138,1,8,0:0:0:0:
168,176,158224,1,0,0:0:0:0:
168,176,158310,1,8,0:0:0:0:
168,176,158396,1,0,0:0:0:0:
168,176,158567,1,8,0:0:0:0:
168,176,158652,1,8,0:0:0:0:
168,176,158737,1,0,0:0:0:0:
168,176,158823,1,0,0:0:0:0:
152,200,158910,1,8,0:0:0:0:
168,176,158995,1,8,0:0:0:0:
168,176,159081,1,0,0:0:0:0:
168,176,159252,1,8,0:0:0:0:
168,176,159337,1,0,0:0:0:0:
168,176,159424,1,8,0:0:0:0:
168,176,159510,1,8,0:0:0:0:
144,184,159595,1,0,0:0:0:0:
120,200,159681,1,8,0:0:0:0:
120,200,159767,1,0,0:0:0:0:
168,224,159938,1,8,0:0:0:0:
168,224,160024,1,8,0:0:0:0:
168,224,160110,1,0,0:0:0:0:
168,224,160195,1,8,0:0:0:0:
144,216,160281,1,0,0:0:0:0:
120,192,160367,1,8,0:0:0:0:
120,192,160452,1,0,0:0:0:0:
72,168,160624,1,8,0:0:0:0:
72,168,160710,1,0,0:0:0:0:
72,168,160795,1,0,0:0:0:0:
72,168,160881,1,8,0:0:0:0:
64,192,160967,1,0,0:0:0:0:
24,144,161052,1,0,0:0:0:0:
24,144,161138,1,8,0:0:0:0:
120,192,161310,1,0,0:0:0:0:
120,192,161395,1,0,0:0:0:0:
120,192,161481,1,8,0:0:0:0:
120,192,161567,1,8,0:0:0:0:
96,192,161652,1,0,0:0:0:0:
72,168,161738,1,0,0:0:0:0:
72,168,161824,1,8,0:0:0:0:
32,200,161995,1,0,0:0:0:0:
32,200,162081,1,8,0:0:0:0:
32,200,162167,1,8,0:0:0:0:
32,200,162252,1,0,0:0:0:0:
56,208,162338,1,8,0:0:0:0:
112,216,162510,1,0,0:0:0:0:
168,216,162681,1,8,0:0:0:0:
224,224,162852,1,12,0:0:0:0:
56,208,163024,1,0,0:0:0:0:
112,224,163195,1,0,0:0:0:0:
56,208,163367,1,8,0:0:0:0:
112,216,163538,1,8,0:0:0:0:
56,216,163710,1,0,0:0:0:0:
96,208,163881,1,0,0:0:0:0:
96,208,164052,1,8,0:0:0:0:
48,184,164224,1,8,0:0:0:0:
104,192,164395,1,0,0:0:0:0:
48,184,164567,1,0,0:0:0:0:
104,192,164738,1,8,0:0:0:0:
56,208,164910,1,12,0:0:0:0:
96,208,165081,1,0,0:0:0:0:
96,208,165167,1,8,0:0:0:0:
96,208,165252,1,0,0:0:0:0:
96,208,165338,1,8,0:0:0:0:
96,208,165424,1,0,0:0:0:0:
96,208,165510,1,0,0:0:0:0:
96,208,165595,1,8,0:0:0:0:
96,208,165681,1,8,0:0:0:0:
96,208,165767,1,0,0:0:0:0:
96,208,165853,1,8,0:0:0:0:
96,208,165938,1,0,0:0:0:0:
96,208,166024,1,8,0:0:0:0:
80,184,166110,1,0,0:0:0:0:
72,160,166195,1,0,0:0:0:0:
72,160,166281,1,8,0:0:0:0:
72,160,166367,1,8,0:0:0:0:
48,160,166452,1,0,0:0:0:0:
128,192,166710,1,8,0:0:0:0:
128,192,166795,1,0,0:0:0:0:
128,192,166967,1,8,0:0:0:0:
48,160,167052,1,0,0:0:0:0:
48,160,167138,1,0,0:0:0:0:
128,192,167224,1,8,0:0:0:0:
48,160,167310,1,0,0:0:0:0:
128,192,167481,1,8,0:0:0:0:
48,160,167824,1,4,0:0:0:0:
144,240,168338,1,0,0:0:0:0:
128,192,168681,1,8,0:0:0:0:
200,232,169024,1,8,0:0:0:0:
120,216,169367,1,0,0:0:0:0:
160,240,169538,1,0,0:0:0:0:
200,264,169710,1,8,0:0:0:0:
200,232,170224,1,0,0:0:0:0:
200,232,170567,1,8,0:0:0:0:
120,256,170910,1,0,0:0:0:0:
160,272,171081,1,0,0:0:0:0:
160,272,171424,1,8,0:0:0:0:
128,248,171595,1,8,0:0:0:0:
128,248,171767,1,0,0:0:0:0:
200,208,172110,1,8,0:0:0:0:
160,208,172281,1,0,0:0:0:0:
120,208,172452,1,8,0:0:0:0:
200,224,172967,1,0,0:0:0:0:
256,232,173310,1,8,0:0:0:0:
200,216,173652,1,0,0:0:0:0:
176,224,173824,1,0,0:0:0:0:
176,224,174167,1,8,0:0:0:0:
120,216,174510,1,0,0:0:0:0:
120,216,174852,1,8,0:0:0:0:
120,216,175024,1,0,0:0:0:0:
120,216,175195,1,8,0:0:0:0:
16,184,175881,1,8,0:0:0:0:
40,192,176052,1,8,0:0:0:0:
64,200,176224,1,0,0:0:0:0:
88,200,176395,1,0,0:0:0:0:
64,200,176567,1,8,0:0:0:0:
104,232,176910,1,8,0:0:0:0:
104,232,177081,1,0,0:0:0:0:
104,232,177252,1,8,0:0:0:0:
104,232,177595,1,0,0:0:0:0:
104,232,177767,1,0,0:0:0:0:
104,232,177938,1,8,0:0:0:0:
104,232,178452,1,0,0:0:0:0:
152,200,178795,1,8,0:0:0:0:
152,256,179138,1,0,0:0:0:0:
152,256,179310,1,8,0:0:0:0:
152,200,179652,1,0,0:0:0:0:
152,256,179995,1,8,0:0:0:0:
152,200,180338,1,8,0:0:0:0:
152,200,180510,1,8,0:0:0:0:
152,256,180681,1,0,0:0:0:0:
56,176,181195,1,8,0:0:0:0:
96,192,181367,1,0,0:0:0:0:
96,192,181538,1,8,0:0:0:0:
96,192,181881,1,8,0:0:0:0:
96,192,182052,1,0,0:0:0:0:
96,192,182224,1,8,0:0:0:0:
96,192,182395,1,8,0:0:0:0:
96,192,182567,1,0,0:0:0:0:
96,192,182738,1,8,0:0:0:0:
16,168,183081,1,8,0:0:0:0:
56,168,183252,1,0,0:0:0:0:
32,200,183424,1,8,0:0:0:0:
144,248,183938,1,0,0:0:0:0:
224,272,184281,1,8,0:0:0:0:
144,248,184624,1,0,0:0:0:0:
200,280,184795,1,0,0:0:0:0:
200,280,185138,1,8,0:0:0:0:
168,200,185481,1,0,0:0:0:0:
88,208,185824,1,8,0:0:0:0:
8,216,186167,1,0,0:0:0:0:
176,224,186852,1,8,0:0:0:0:
160,184,187024,1,0,0:0:0:0:
88,208,187195,1,0,0:0:0:0:
128,200,187367,1,8,0:0:0:0:
88,208,187538,1,0,0:0:0:0:
128,200,187881,1,0,0:0:0:0:
128,200,188052,1,8,0:0:0:0:
88,192,188738,1,0,0:0:0:0:
168,208,189081,1,8,0:0:0:0:
168,208,189252,1,0,0:0:0:0:
240,256,189424,1,8,0:0:0:0:
200,248,189767,1,4,0:0:0:0:
160,232,189938,1,0,0:0:0:0:
128,208,190110,1,0,0:0:0:0:
128,208,190281,1,0,0:0:0:0:
128,208,190452,1,0,0:0:0:0:
144,192,190967,1,8,0:0:0:0:
216,208,191310,1,8,0:0:0:0:
216,208,191481,1,8,0:0:0:0:
216,208,191652,1,8,0:0:0:0:
216,208,191824,1,8,0:0:0:0:
216,208,191995,1,8,0:0:0:0:
160,232,192510,1,0,0:0:0:0:
160,232,192681,1,0,0:0:0:0:
128,208,192853,1,0,0:0:0:0:
128,208,193024,1,0,0:0:0:0:
128,208,193195,1,0,0:0:0:0:
216,208,193710,1,8,0:0:0:0:
216,208,194053,1,8,0:0:0:0:
216,208,194224,1,8,0:0:0:0:
216,208,194395,1,8,0:0:0:0:
216,208,194567,1,8,0:0:0:0:
216,208,194738,1,8,0:0:0:0:
216,208,194910,1,8,0:0:0:0:
200,248,195252,1,0,0:0:0:0:
160,232,195423,1,0,0:0:0:0:
128,208,195595,1,0,0:0:0:0:
128,208,195766,1,0,0:0:0:0:
128,208,195937,1,0,0:0:0:0:
128,208,196452,1,8,0:0:0:0:
216,208,196795,1,8,0:0:0:0:
216,208,196966,1,8,0:0:0:0:
216,208,197137,1,8,0:0:0:0:
216,208,197309,1,8,0:0:0:0:
216,208,197480,1,8,0:0:0:0:
200,248,197995,1,0,0:0:0:0:
160,232,198166,1,0,0:0:0:0:
128,208,198338,1,0,0:0:0:0:
128,208,198509,1,0,0:0:0:0:
128,208,198680,1,0,0:0:0:0:
128,208,199195,1,12,0:0:0:0:
216,208,199538,1,8,0:0:0:0:
216,208,199709,1,8,0:0:0:0:
216,208,199880,1,8,0:0:0:0:
216,208,200052,1,4,0:0:0:0:
216,208,200395,1,8,0:0:0:0:
200,248,200738,1,4,0:0:0:0:
144,232,200910,1,0,0:0:0:0:
88,216,201081,1,0,0:0:0:0:
88,216,201252,1,0,0:0:0:0:
88,216,201424,1,12,0:0:0:0:
200,248,201938,1,4,0:0:0:0:
88,216,202281,1,0,0:0:0:0:
88,216,202452,1,0,0:0:0:0:
88,216,202624,1,0,0:0:0:0:
88,216,202795,1,12,0:0:0:0:
72,160,203138,1,8,0:0:0:0:
200,248,203481,1,4,0:0:0:0:
144,232,203653,1,0,0:0:0:0:
88,216,203824,1,0,0:0:0:0:
88,216,203995,1,0,0:0:0:0:
88,216,204167,1,12,0:0:0:0:
200,248,204681,1,4,0:0:0:0:
88,216,205024,1,0,0:0:0:0:
88,216,205195,1,0,0:0:0:0:
88,216,205367,1,4,0:0:0:0:
144,232,205538,1,8,0:0:0:0:
88,216,205710,1,0,0:0:0:0:
88,216,205795,1,8,0:0:0:0:
88,216,205967,1,0,0:0:0:0:
88,216,206052,1,8,0:0:0:0:
88,216,206224,1,4,0:0:0:0:
88,216,206567,1,0,0:0:0:0:
88,216,206910,1,8,0:0:0:0:
88,216,207252,1,0,0:0:0:0:
88,216,207595,1,4,0:0:0:0:
88,216,207938,1,0,0:0:0:0:
88,216,208281,1,8,0:0:0:0:
88,216,208452,1,0,0:0:0:0:
88,216,208624,1,8,0:0:0:0:
176,152,208967,1,12,0:0:0:0:
136,192,209138,1,0,0:0:0:0:
136,192,209310,1,0,0:0:0:0:
136,192,209481,1,0,0:0:0:0:
136,192,209652,1,12,0:0:0:0:
80,200,209824,1,0,0:0:0:0:
80,200,209995,1,8,0:0:0:0:
128,232,210167,1,12,0:0:0:0:
32,176,210510,1,8,0:0:0:0:
56,184,210595,1,8,0:0:0:0:
32,176,210681,1,0,0:0:0:0:
56,184,210767,1,0,0:0:0:0:
32,176,210852,1,8,0:0:0:0:
32,176,210938,1,0,0:0:0:0:
32,176,211024,1,8,0:0:0:0:
32,176,211195,1,8,0:0:0:0:
32,176,211281,1,8,0:0:0:0:
32,176,211367,1,8,0:0:0:0:
144,200,211710,1,4,0:0:0:0:
216,248,211967,1,8,0:0:0:0:
96,184,212052,1,0,0:0:0:0:
152,192,212224,1,8,0:0:0:0:
136,216,212310,1,0,0:0:0:0:
200,160,212481,1,8,0:0:0:0:
200,160,212567,1,0,0:0:0:0:
216,192,212652,1,8,0:0:0:0:
160,224,212738,1,0,0:0:0:0:
216,192,212910,1,8,0:0:0:0:
160,184,213081,1,0,0:0:0:0:
152,192,213252,1,8,0:0:0:0:
152,192,213338,1,0,0:0:0:0:
128,184,213510,1,0,0:0:0:0:
232,208,213595,1,8,0:0:0:0:
152,192,213767,1,8,0:0:0:0:
128,200,213852,1,8,0:0:0:0:
152,192,213938,1,0,0:0:0:0:
216,192,214110,1,8,0:0:0:0:
192,184,214195,1,0,0:0:0:0:
200,160,214281,1,8,0:0:0:0:
248,192,214452,1,0,0:0:0:0:
248,192,214624,1,8,0:0:0:0:
248,192,214710,1,0,0:0:0:0:
192,208,214881,1,8,0:0:0:0:
192,208,214967,1,0,0:0:0:0:
168,208,215138,1,8,0:0:0:0:
152,192,215224,1,0,0:0:0:0:
152,192,215310,1,0,0:0:0:0:
168,208,215395,1,8,0:0:0:0:
168,208,215481,1,8,0:0:0:0:
112,216,215652,1,8,0:0:0:0:
104,160,215824,1,0,0:0:0:0:
112,216,215995,1,8,0:0:0:0:
112,216,216081,1,8,0:0:0:0:
56,208,216167,1,0,0:0:0:0:
168,208,216338,1,8,0:0:0:0:
56,208,216510,1,0,0:0:0:0:
112,216,216681,1,8,0:0:0:0:
56,208,216767,1,8,0:0:0:0:
56,208,216852,1,0,0:0:0:0:
56,208,216938,1,0,0:0:0:0:
136,208,217024,1,8,0:0:0:0:
56,208,217110,1,0,0:0:0:0:
56,208,217195,1,8,0:0:0:0:
104,232,217367,1,0,0:0:0:0:
104,232,217452,1,8,0:0:0:0:
104,232,217624,1,0,0:0:0:0:
136,232,217710,1,8,0:0:0:0:
136,232,217881,1,0,0:0:0:0:
136,232,217967,1,8,0:0:0:0:
112,224,218052,1,0,0:0:0:0:
112,224,218138,1,0,0:0:0:0:
112,224,218224,1,8,0:0:0:0:
88,224,218395,1,8,0:0:0:0:
128,184,218567,1,0,0:0:0:0:
160,136,218738,1,8,0:0:0:0:
88,192,218824,1,0,0:0:0:0:
88,192,218995,1,0,0:0:0:0:
88,192,219081,1,8,0:0:0:0:
88,192,219252,1,8,0:0:0:0:
88,192,219338,1,8,0:0:0:0:
88,192,219424,1,0,0:0:0:0:
88,192,219510,1,0,0:0:0:0:
64,184,219595,1,8,0:0:0:0:
88,192,219681,1,8,0:0:0:0:
88,192,219767,1,0,0:0:0:0:
88,192,219938,1,8,0:0:0:0:
88,192,220110,1,0,0:0:0:0:
112,200,220195,1,8,0:0:0:0:
88,192,220367,1,8,0:0:0:0:
112,200,220452,1,0,0:0:0:0:
160,224,220624,1,0,0:0:0:0:
192,224,220710,1,8,0:0:0:0:
160,224,220795,1,0,0:0:0:0:
192,224,220881,1,8,0:0:0:0:
192,224,220967,1,8,0:0:0:0:
160,224,221052,1,0,0:0:0:0:
192,224,221138,1,8,0:0:0:0:
200,168,221310,1,0,0:0:0:0:
200,168,221395,1,0,0:0:0:0:
200,168,221481,1,8,0:0:0:0:
152,192,221652,1,0,0:0:0:0:
176,176,221824,1,8,0:0:0:0:
152,168,221910,1,8,0:0:0:0:
152,168,221995,1,0,0:0:0:0:
176,176,222081,1,8,0:0:0:0:
176,176,222167,1,8,0:0:0:0:
176,176,222252,1,8,0:0:0:0:
152,176,222338,1,0,0:0:0:0:
152,192,222424,1,0,0:0:0:0:
152,192,222510,1,8,0:0:0:0:
152,192,222681,1,4,0:0:0:0:
104,216,222852,1,8,0:0:0:0:
128,224,222938,1,8,0:0:0:0:
104,232,223024,1,0,0:0:0:0:
104,240,223195,1,8,0:0:0:0:
128,224,223367,1,0,0:0:0:0:
104,208,223452,1,0,0:0:0:0:
176,176,223538,1,8,0:0:0:0:
136,184,223624,1,8,0:0:0:0:
120,184,223710,1,0,0:0:0:0:
96,184,223881,1,8,0:0:0:0:
96,184,224052,1,4,0:0:0:0:
96,184,224224,1,8,0:0:0:0:
96,184,224310,1,8,0:0:0:0:
72,184,224395,1,0,0:0:0:0:
104,184,224481,1,8,0:0:0:0:
160,184,224567,1,0,0:0:0:0:
72,184,224738,1,8,0:0:0:0:
112,184,224824,1,0,0:0:0:0:
128,192,224910,1,8,0:0:0:0:
72,184,225081,1,8,0:0:0:0:
128,192,225167,1,0,0:0:0:0:
128,192,225252,1,8,0:0:0:0:
96,184,225424,1,4,0:0:0:0:
72,184,225595,1,8,0:0:0:0:
96,168,225681,1,8,0:0:0:0:
96,184,225767,1,0,0:0:0:0:
104,184,225938,1,8,0:0:0:0:
96,184,226110,1,0,0:0:0:0:
104,184,226195,1,0,0:0:0:0:
96,184,226281,1,8,0:0:0:0:
96,184,226367,1,0,0:0:0:0:
104,184,226452,1,8,0:0:0:0:
96,184,226624,1,12,0:0:0:0:
104,184,226795,1,0,0:0:0:0:
96,184,226967,1,0,0:0:0:0:
96,184,227052,1,8,0:0:0:0:
104,184,227138,1,8,0:0:0:0:
104,184,227224,1,0,0:0:0:0:
152,208,227310,1,8,0:0:0:0:
104,184,227481,1,0,0:0:0:0:
152,200,227652,1,8,0:0:0:0:
120,200,227738,1,0,0:0:0:0:
96,192,227824,1,8,0:0:0:0:
120,200,227910,1,0,0:0:0:0:
96,192,227995,1,8,0:0:0:0:
152,176,228167,1,4,0:0:0:0:
96,192,228338,1,0,0:0:0:0:
40,208,228510,1,8,0:0:0:0:
96,208,228681,1,8,0:0:0:0:
96,264,228852,1,0,0:0:0:0:
96,264,228938,1,0,0:0:0:0:
96,264,229024,1,8,0:0:0:0:
96,264,229110,1,8,0:0:0:0:
96,264,229195,1,0,0:0:0:0:
96,264,229281,1,8,0:0:0:0:
112,240,229367,1,8,0:0:0:0:
96,264,229538,1,4,0:0:0:0:
144,232,229710,1,0,0:0:0:0:
192,200,229881,1,8,0:0:0:0:
240,168,230052,1,8,0:0:0:0:
192,200,230224,1,0,0:0:0:0:
216,184,230310,1,8,0:0:0:0:
216,184,230395,1,8,0:0:0:0:
216,184,230481,1,0,0:0:0:0:
216,184,230567,1,8,0:0:0:0:
216,184,230652,1,0,0:0:0:0:
216,184,230738,1,8,0:0:0:0:
160,184,230910,1,0,0:0:0:0:
136,184,230995,1,0,0:0:0:0:
112,184,231081,1,0,0:0:0:0:
88,176,231167,1,0,0:0:0:0:
64,176,231252,1,8,0:0:0:0:
64,176,231338,1,8,0:0:0:0:
64,176,231424,1,8,0:0:0:0:
64,176,231510,1,8,0:0:0:0:
88,176,231595,1,0,0:0:0:0:
88,176,231681,1,0,0:0:0:0:
88,176,231767,1,8,0:0:0:0:
88,176,231852,1,8,0:0:0:0:
88,176,231938,1,0,0:0:0:0:
88,176,232024,1,0,0:0:0:0:
88,176,232110,1,8,0:0:0:0:
88,176,232195,1,8,0:0:0:0:
256,192,232281,12,0,233138,0:0:0:0:
112,176,233310,5,12,0:0:0:0:
192,248,233652,1,4,0:0:0:0:
144,224,233824,1,8,0:0:0:0:
144,224,233910,1,8,0:0:0:0:
120,216,233995,1,0,0:0:0:0:
120,216,234081,1,8,0:0:0:0:
120,216,234167,1,0,0:0:0:0:
88,216,234338,1,8,0:0:0:0:
72,192,234424,1,0,0:0:0:0:
128,192,234595,1,8,0:0:0:0:
104,200,234681,1,0,0:0:0:0:
136,200,234767,1,0,0:0:0:0:
160,192,234852,1,8,0:0:0:0:
72,192,235024,1,4,0:0:0:0:
72,248,235195,1,8,0:0:0:0:
72,224,235281,1,0,0:0:0:0:
96,208,235367,1,0,0:0:0:0:
120,192,235452,1,8,0:0:0:0:
168,160,235538,1,0,0:0:0:0:
112,160,235710,1,8,0:0:0:0:
136,160,235795,1,8,0:0:0:0:
136,160,235881,1,0,0:0:0:0:
136,160,235967,1,0,0:0:0:0:
136,160,236052,1,8,0:0:0:0:
136,160,236138,1,0,0:0:0:0:
136,160,236224,1,8,0:0:0:0:
72,192,236395,1,4,0:0:0:0:
24,168,236567,1,8,0:0:0:0:
24,168,236652,1,8,0:0:0:0:
120,192,236738,1,0,0:0:0:0:
144,200,236824,1,8,0:0:0:0:
168,208,236910,1,0,0:0:0:0:
192,256,237081,1,8,0:0:0:0:
168,248,237167,1,8,0:0:0:0:
192,248,237252,1,0,0:0:0:0:
192,248,237338,1,8,0:0:0:0:
168,240,237424,1,8,0:0:0:0:
192,256,237595,1,12,0:0:0:0:
144,232,237767,1,0,0:0:0:0:
88,224,237938,1,0,0:0:0:0:
88,224,238024,1,8,0:0:0:0:
88,224,238110,1,8,0:0:0:0:
88,224,238195,1,0,0:0:0:0:
120,192,238281,1,8,0:0:0:0:
120,248,238452,1,0,0:0:0:0:
192,256,238624,1,8,0:0:0:0:
120,192,238710,1,0,0:0:0:0:
192,248,238795,1,8,0:0:0:0:
120,192,238881,1,0,0:0:0:0:
120,192,238967,1,8,0:0:0:0:
88,240,239138,1,4,0:0:0:0:
136,216,239310,1,8,0:0:0:0:
160,224,239395,1,8,0:0:0:0:
192,232,239481,1,0,0:0:0:0:
160,224,239567,1,8,0:0:0:0:
192,232,239652,1,0,0:0:0:0:
136,216,239824,1,8,0:0:0:0:
112,208,239910,1,0,0:0:0:0:
64,192,240081,1,8,0:0:0:0:
88,184,240167,1,0,0:0:0:0:
88,184,240252,1,0,0:0:0:0:
88,184,240338,1,8,0:0:0:0:
144,192,240510,1,4,0:0:0:0:
96,168,240681,1,8,0:0:0:0:
96,168,240767,1,8,0:0:0:0:
96,168,240852,1,0,0:0:0:0:
64,168,240938,1,0,0:0:0:0:
64,168,241024,1,8,0:0:0:0:
64,192,241195,1,8,0:0:0:0:
64,192,241281,1,0,0:0:0:0:
64,192,241367,1,8,0:0:0:0:
64,192,241452,1,8,0:0:0:0:
64,192,241538,1,0,0:0:0:0:
64,192,241624,1,0,0:0:0:0:
64,192,241710,1,8,0:0:0:0:
120,200,241881,1,4,0:0:0:0:
168,224,242052,1,8,0:0:0:0:
144,216,242138,1,0,0:0:0:0:
168,208,242224,1,0,0:0:0:0:
192,200,242310,1,8,0:0:0:0:
192,200,242395,1,0,0:0:0:0:
64,192,242567,1,8,0:0:0:0:
88,192,242652,1,0,0:0:0:0:
144,216,242738,1,8,0:0:0:0:
144,216,242824,1,0,0:0:0:0:
112,216,242910,1,0,0:0:0:0:
112,216,242995,1,8,0:0:0:0:
112,216,243081,1,8,0:0:0:0:
64,240,243252,1,4,0:0:0:0:
144,216,243424,1,8,0:0:0:0:
112,216,243510,1,8,0:0:0:0:
144,216,243595,1,0,0:0:0:0:
88,232,243767,1,8,0:0:0:0:
88,232,243852,1,8,0:0:0:0:
64,216,243938,1,0,0:0:0:0:
64,216,244024,1,8,0:0:0:0:
64,216,244110,1,8,0:0:0:0:
64,216,244195,1,0,0:0:0:0:
144,216,244281,1,8,0:0:0:0:
144,216,244367,1,0,0:0:0:0:
120,208,244452,1,8,0:0:0:0:
176,216,244624,1,4,0:0:0:0:
136,184,244795,1,8,0:0:0:0:
136,184,244881,1,0,0:0:0:0:
136,184,244967,1,0,0:0:0:0:
136,184,245052,1,8,0:0:0:0:
136,184,245138,1,0,0:0:0:0:
136,184,245310,1,8,0:0:0:0:
136,184,245395,1,0,0:0:0:0:
264,224,245481,1,0,0:0:0:0:
136,184,245567,1,8,0:0:0:0:
160,168,245652,1,0,0:0:0:0:
160,168,245738,1,0,0:0:0:0:
160,168,245824,1,8,0:0:0:0:
152,192,245995,1,4,0:0:0:0:
112,232,246167,1,8,0:0:0:0:
136,216,246252,1,0,0:0:0:0:
112,208,246338,1,8,0:0:0:0:
136,184,246424,1,0,0:0:0:0:
136,184,246510,1,8,0:0:0:0:
88,192,246681,1,0,0:0:0:0:
88,192,246767,1,0,0:0:0:0:
152,192,246852,1,8,0:0:0:0:
152,192,246938,1,8,0:0:0:0:
120,192,247024,1,0,0:0:0:0:
88,192,247110,1,0,0:0:0:0:
88,192,247195,1,8,0:0:0:0:
88,192,247367,1,4,0:0:0:0:
88,192,247538,1,8,0:0:0:0:
88,192,247624,1,8,0:0:0:0:
88,192,247710,1,0,0:0:0:0:
88,192,247881,1,8,0:0:0:0:
88,192,248052,1,0,0:0:0:0:
88,192,248138,1,0,0:0:0:0:
88,192,248224,1,8,0:0:0:0:
88,192,248310,1,0,0:0:0:0:
88,192,248395,1,8,0:0:0:0:
88,192,248567,1,12,0:0:0:0:
144,192,248738,1,0,0:0:0:0:
88,192,248910,1,0,0:0:0:0:
88,192,248995,1,8,0:0:0:0:
88,192,249081,1,0,0:0:0:0:
88,192,249167,1,8,0:0:0:0:
88,192,249253,1,8,0:0:0:0:
88,192,249424,1,0,0:0:0:0:
88,192,249595,1,8,0:0:0:0:
88,192,249681,1,0,0:0:0:0:
88,192,249767,1,8,0:0:0:0:
88,192,249852,1,0,0:0:0:0:
88,192,249938,1,8,0:0:0:0:
88,192,250110,1,4,0:0:0:0:
32,208,250281,1,8,0:0:0:0:
56,200,250367,1,0,0:0:0:0:
56,200,250452,1,8,0:0:0:0:
56,200,250624,1,0,0:0:0:0:
104,232,250795,1,8,0:0:0:0:
128,248,250881,1,0,0:0:0:0:
104,232,250967,1,8,0:0:0:0:
56,200,251052,1,0,0:0:0:0:
80,208,251138,1,0,0:0:0:0:
104,216,251224,1,0,0:0:0:0:
80,224,251310,1,8,0:0:0:0:
136,240,251481,1,4,0:0:0:0:
144,184,251652,1,8,0:0:0:0:
56,200,251738,1,8,0:0:0:0:
88,200,251824,1,0,0:0:0:0:
144,200,251995,1,8,0:0:0:0:
144,200,252167,1,0,0:0:0:0:
120,200,252252,1,0,0:0:0:0:
144,200,252338,1,8,0:0:0:0:
144,200,252424,1,8,0:0:0:0:
88,184,252510,1,8,0:0:0:0:
88,184,252595,1,0,0:0:0:0:
88,184,252681,1,8,0:0:0:0:
88,184,252852,1,0,0:0:0:0:
64,176,252938,1,8,0:0:0:0:
64,176,253024,1,0,0:0:0:0:
56,200,253110,1,8,0:0:0:0:
56,200,253195,1,8,0:0:0:0:
56,200,253281,1,0,0:0:0:0:
64,176,253367,1,8,0:0:0:0:
64,176,253452,1,0,0:0:0:0:
64,176,253538,1,0,0:0:0:0:
88,184,253624,1,8,0:0:0:0:
112,192,253710,1,8,0:0:0:0:
112,192,253795,1,0,0:0:0:0:
144,192,253881,1,8,0:0:0:0:
176,192,253967,1,0,0:0:0:0:
88,184,254052,1,8,0:0:0:0:
112,192,254138,1,8,0:0:0:0:
88,184,254224,1,0,0:0:0:0:
88,240,254395,1,8,0:0:0:0:
128,200,254567,1,0,0:0:0:0:
80,224,254738,1,8,0:0:0:0:
80,224,254910,1,0,0:0:0:0:
80,224,255081,1,8,0:0:0:0:
88,240,255252,1,12,0:0:0:0:
56,200,255595,1,0,0:0:0:0:
56,200,255681,1,0,0:0:0:0:
56,200,255767,1,8,0:0:0:0:
56,200,255852,1,0,0:0:0:0:
56,200,255938,1,8,0:0:0:0:
152,264,256110,1,0,0:0:0:0:
104,232,256195,1,8,0:0:0:0:
104,232,256281,1,0,0:0:0:0:
160,240,256367,1,0,0:0:0:0:
104,232,256452,1,8,0:0:0:0:
104,232,256538,1,8,0:0:0:0:
104,232,256624,1,0,0:0:0:0:
104,232,256795,1,8,0:0:0:0:
104,232,256881,1,8,0:0:0:0:
104,232,256967,1,0,0:0:0:0:
176,320,257138,1,8,0:0:0:0:
144,280,257224,1,0,0:0:0:0:
104,240,257310,1,8,0:0:0:0:
152,272,257395,1,8,0:0:0:0:
104,240,257481,1,0,0:0:0:0:
104,240,257652,1,8,0:0:0:0:
88,216,257738,1,0,0:0:0:0:
208,192,257824,1,8,0:0:0:0:
208,192,257995,1,4,0:0:0:0:
160,224,258167,1,0,0:0:0:0:
104,216,258338,1,8,0:0:0:0:
80,208,258424,1,8,0:0:0:0:
80,208,258510,1,0,0:0:0:0:
80,208,258595,1,8,0:0:0:0:
80,208,258681,1,0,0:0:0:0:
136,224,258852,1,8,0:0:0:0:
136,224,258938,1,8,0:0:0:0:
136,224,259024,1,0,0:0:0:0:
80,208,259195,1,8,0:0:0:0:
136,224,259367,1,8,0:0:0:0:
112,216,259452,1,0,0:0:0:0:
144,216,259538,1,8,0:0:0:0:
160,192,259624,1,8,0:0:0:0:
184,240,259710,1,0,0:0:0:0:
184,240,259881,1,8,0:0:0:0:
160,248,259967,1,8,0:0:0:0:
168,224,260052,1,0,0:0:0:0:
176,200,260138,1,0,0:0:0:0:
144,200,260224,1,8,0:0:0:0:
144,200,260310,1,8,0:0:0:0:
176,200,260395,1,0,0:0:0:0:
224,224,260567,1,8,0:0:0:0:
224,224,260738,1,4,0:0:0:0:
176,200,260910,1,0,0:0:0:0:
120,184,261081,1,8,0:0:0:0:
96,176,261167,1,8,0:0:0:0:
72,168,261252,1,0,0:0:0:0:
40,168,261338,1,8,0:0:0:0:
64,184,261424,1,0,0:0:0:0:
144,200,261595,1,8,0:0:0:0:
144,200,261681,1,8,0:0:0:0:
144,200,261767,1,0,0:0:0:0:
120,168,261938,1,8,0:0:0:0:
120,168,262024,1,8,0:0:0:0:
96,176,262110,1,0,0:0:0:0:
120,168,262281,1,8,0:0:0:0:
144,176,262367,1,8,0:0:0:0:
176,200,262452,1,0,0:0:0:0:
200,192,262538,1,8,0:0:0:0:
200,192,262624,1,0,0:0:0:0:
96,176,262710,1,0,0:0:0:0:
96,176,262795,1,8,0:0:0:0:
88,192,262967,1,0,0:0:0:0:
88,192,263052,1,8,0:0:0:0:
96,176,263138,1,0,0:0:0:0:
88,192,263310,1,8,0:0:0:0:
88,192,263395,1,8,0:0:0:0:
176,200,263481,1,0,0:0:0:0:
120,192,263652,1,0,0:0:0:0:
200,192,263738,1,0,0:0:0:0:
200,192,263824,1,8,0:0:0:0:
200,192,263910,1,8,0:0:0:0:
200,192,263995,1,0,0:0:0:0:
200,192,264081,1,8,0:0:0:0:
200,192,264167,1,0,0:0:0:0:
152,192,264338,1,8,0:0:0:0:
128,184,264424,1,8,0:0:0:0:
96,184,264510,1,0,0:0:0:0:
96,176,264681,1,8,0:0:0:0:
96,176,264767,1,8,0:0:0:0:
120,192,264852,1,0,0:0:0:0:
120,192,264938,1,0,0:0:0:0:
144,176,265024,1,8,0:0:0:0:
96,176,265110,1,0,0:0:0:0:
96,176,265195,1,8,0:0:0:0:
96,184,265367,1,0,0:0:0:0:
96,184,265452,1,0,0:0:0:0:
96,184,265538,1,8,0:0:0:0:
72,168,265624,1,0,0:0:0:0:
72,168,265710,1,8,0:0:0:0:
112,208,265881,1,0,0:0:0:0:
88,200,265967,1,0,0:0:0:0:
112,200,266052,1,8,0:0:0:0:
136,200,266138,1,8,0:0:0:0:
88,200,266224,1,0,0:0:0:0:
120,192,266310,1,8,0:0:0:0:
120,192,266395,1,8,0:0:0:0:
88,200,266567,1,4,0:0:0:0:
96,184,266738,1,8,0:0:0:0:
112,200,266824,1,0,0:0:0:0:
96,184,266910,1,8,0:0:0:0:
96,184,266995,1,8,0:0:0:0:
112,200,267081,1,0,0:0:0:0:
96,184,267167,1,0,0:0:0:0:
72,168,267252,1,8,0:0:0:0:
224,176,267424,1,0,0:0:0:0:
224,208,267510,1,8,0:0:0:0:
224,208,267595,1,0,0:0:0:0:
200,200,267681,1,0,0:0:0:0:
176,184,267767,1,8,0:0:0:0:
120,192,267938,1,0,0:0:0:0:
112,200,268110,1,8,0:0:0:0:
112,200,268195,1,0,0:0:0:0:
112,224,268281,1,8,0:0:0:0:
88,216,268367,1,8,0:0:0:0:
72,168,268452,1,0,0:0:0:0:
72,168,268538,1,8,0:0:0:0:
72,168,268624,1,0,0:0:0:0:
128,184,268795,1,8,0:0:0:0:
176,208,268967,1,4,0:0:0:0:
120,192,269138,1,0,0:0:0:0:
176,184,269310,1,8,0:0:0:0:
200,176,269395,1,8,0:0:0:0:
200,176,269481,1,0,0:0:0:0:
176,176,269567,1,8,0:0:0:0:
144,184,269652,1,0,0:0:0:0:
88,184,269824,1,8,0:0:0:0:
64,192,269910,1,8,0:0:0:0:
64,192,269995,1,0,0:0:0:0:
120,208,270167,1,8,0:0:0:0:
144,216,270252,1,8,0:0:0:0:
168,224,270338,1,0,0:0:0:0:
168,224,270424,1,0,0:0:0:0:
64,192,270510,1,8,0:0:0:0:
144,216,270681,1,0,0:0:0:0:
88,184,270767,1,0,0:0:0:0:
88,184,270852,1,8,0:0:0:0:
88,184,271024,1,8,0:0:0:0:
88,184,271110,1,0,0:0:0:0:
144,216,271195,1,8,0:0:0:0:
144,216,271367,1,0,0:0:0:0:
168,216,271452,1,8,0:0:0:0:
64,192,271538,1,0,0:0:0:0:
64,192,271624,1,0,0:0:0:0:
64,192,271710,1,8,0:0:0:0:
64,192,271795,1,0,0:0:0:0:
88,184,271881,1,8,0:0:0:0:
72,208,272052,1,4,0:0:0:0:
128,192,272395,1,0,0:0:0:0:
16,216,272738,1,0,0:0:0:0:
128,224,273081,1,0,0:0:0:0:
240,240,273424,1,4,0:0:0:0:
192,208,273595,1,8,0:0:0:0:
144,176,273767,1,0,0:0:0:0:
192,208,273938,1,8,0:0:0:0:
144,176,274110,1,0,0:0:0:0:
192,208,274281,1,8,0:0:0:0:
144,176,274453,1,0,0:0:0:0:
192,208,274624,1,8,0:0:0:0:
136,200,274795,1,0,0:0:0:0:
136,200,274881,1,8,0:0:0:0:
112,192,274967,1,0,0:0:0:0:
88,192,275052,1,8,0:0:0:0:
88,192,275138,1,0,0:0:0:0:
88,192,275224,1,0,0:0:0:0:
88,192,275310,1,8,0:0:0:0:
64,184,275395,1,8,0:0:0:0:
88,192,275481,1,0,0:0:0:0:
88,192,275567,1,8,0:0:0:0:
88,192,275652,1,0,0:0:0:0:
112,192,275738,1,8,0:0:0:0:
136,176,275824,1,0,0:0:0:0:
160,160,275910,1,0,0:0:0:0:
160,160,275995,1,8,0:0:0:0:
88,192,276081,1,8,0:0:0:0:
112,208,276167,1,0,0:0:0:0:
216,256,276510,1,0,0:0:0:0:
168,280,276852,1,0,0:0:0:0:
176,224,277024,1,8,0:0:0:0:
88,192,277367,1,8,0:0:0:0:
144,208,277538,1,4,0:0:0:0:
176,224,277710,1,8,0:0:0:0:
176,224,277795,1,8,0:0:0:0:
176,224,277881,1,0,0:0:0:0:
128,192,278052,1,8,0:0:0:0:
128,192,278224,1,0,0:0:0:0:
88,192,278395,1,8,0:0:0:0:
88,192,278481,1,8,0:0:0:0:
120,192,278567,1,0,0:0:0:0:
176,200,278738,1,8,0:0:0:0:
176,200,278910,1,0,0:0:0:0:
176,200,279081,1,8,0:0:0:0:
176,200,279167,1,8,0:0:0:0:
152,200,279252,1,0,0:0:0:0:
208,200,279424,1,8,0:0:0:0:
160,176,279595,1,0,0:0:0:0:
160,176,279767,1,8,0:0:0:0:
160,176,279852,1,8,0:0:0:0:
160,176,279938,1,0,0:0:0:0:
120,192,280110,1,8,0:0:0:0:
160,176,280281,1,0,0:0:0:0:
160,176,280367,1,0,0:0:0:0:
160,176,280452,1,8,0:0:0:0:
120,192,280624,1,0,0:0:0:0:
176,200,280795,1,8,0:0:0:0:
120,200,280967,1,0,0:0:0:0:
160,176,281052,1,0,0:0:0:0:
176,192,281138,1,8,0:0:0:0:
136,232,281310,1,0,0:0:0:0:
184,208,281481,1,8,0:0:0:0:
120,192,281652,1,0,0:0:0:0:
120,192,281738,1,0,0:0:0:0:
160,176,281824,1,8,0:0:0:0:
120,192,281995,1,0,0:0:0:0:
176,184,282167,1,8,0:0:0:0:
120,184,282338,1,0,0:0:0:0:
120,192,282424,1,0,0:0:0:0:
176,192,282510,1,8,0:0:0:0:
176,192,282595,1,8,0:0:0:0:
152,192,282681,1,0,0:0:0:0:
176,184,282852,1,8,0:0:0:0:
128,208,283024,1,0,0:0:0:0:
184,200,283195,1,8,0:0:0:0:
184,200,283281,1,8,0:0:0:0:
128,208,283367,1,0,0:0:0:0:
152,192,283538,1,8,0:0:0:0:
120,184,283710,1,0,0:0:0:0:
176,184,283881,1,8,0:0:0:0:
176,184,283967,1,8,0:0:0:0:
152,184,284052,1,0,0:0:0:0:
176,184,284224,1,8,0:0:0:0:
192,200,284395,1,0,0:0:0:0:
184,200,284567,1,8,0:0:0:0:
184,200,284652,1,8,0:0:0:0:
184,200,284738,1,0,0:0:0:0:
192,200,284910,1,8,0:0:0:0:
120,184,285081,1,0,0:0:0:0:
208,184,285167,1,0,0:0:0:0:
176,184,285252,1,8,0:0:0:0:
208,184,285338,1,0,0:0:0:0:
120,184,285424,1,8,0:0:0:0:
160,224,285595,1,0,0:0:0:0:
160,224,285681,1,0,0:0:0:0:
160,224,285767,1,8,0:0:0:0:
200,256,285938,1,0,0:0:0:0:
224,272,286110,1,8,0:0:0:0:
200,256,286195,1,0,0:0:0:0:
224,272,286281,1,8,0:0:0:0:
176,248,286367,1,0,0:0:0:0:
176,248,286452,1,0,0:0:0:0:
128,216,286624,1,8,0:0:0:0:
72,216,286795,1,0,0:0:0:0:
72,216,286881,1,0,0:0:0:0:
128,216,286967,1,8,0:0:0:0:
72,216,287138,1,0,0:0:0:0:
72,216,287224,1,0,0:0:0:0:
104,216,287310,1,8,0:0:0:0:
104,216,287395,1,8,0:0:0:0:
72,216,287481,1,0,0:0:0:0:
104,216,287652,1,8,0:0:0:0:
72,216,287824,1,0,0:0:0:0:
104,216,287910,1,8,0:0:0:0:
104,216,287995,1,8,0:0:0:0:
72,216,288167,1,0,0:0:0:0:
104,216,288253,1,8,0:0:0:0:
104,216,288338,1,8,0:0:0:0:
128,216,288510,1,4,0:0:0:0:
168,176,288681,1,8,0:0:0:0:
144,192,288767,1,8,0:0:0:0:
144,192,288852,1,0,0:0:0:0:
144,192,288938,1,8,0:0:0:0:
144,192,289024,1,8,0:0:0:0:
168,176,289195,1,0,0:0:0:0:
168,176,289367,1,8,0:0:0:0:
168,176,289452,1,8,0:0:0:0:
168,176,289538,1,0,0:0:0:0:
168,176,289624,1,8,0:0:0:0:
168,176,289710,1,8,0:0:0:0:
144,224,289881,1,0,0:0:0:0:
144,224,290052,1,8,0:0:0:0:
144,224,290138,1,8,0:0:0:0:
144,224,290224,1,0,0:0:0:0:
120,216,290310,1,8,0:0:0:0:
96,200,290395,1,8,0:0:0:0:
144,224,290567,1,0,0:0:0:0:
144,224,290738,1,8,0:0:0:0:
144,224,290824,1,8,0:0:0:0:
144,224,290910,1,0,0:0:0:0:
120,216,290996,1,8,0:0:0:0:
96,200,291081,1,8,0:0:0:0:
56,240,291252,1,4,0:0:0:0:
112,248,291424,1,8,0:0:0:0:
144,224,291510,1,8,0:0:0:0:
152,224,291595,1,0,0:0:0:0:
120,224,291681,1,0,0:0:0:0:
184,224,291767,1,8,0:0:0:0:
136,200,291938,1,0,0:0:0:0:
144,224,292110,1,8,0:0:0:0:
144,224,292195,1,8,0:0:0:0:
144,224,292281,1,0,0:0:0:0:
96,200,292367,1,0,0:0:0:0:
96,200,292452,1,8,0:0:0:0:
136,200,292624,1,0,0:0:0:0:
88,232,292795,1,8,0:0:0:0:
88,232,292881,1,8,0:0:0:0:
88,232,292967,1,0,0:0:0:0:
72,208,293052,1,0,0:0:0:0:
72,176,293138,1,8,0:0:0:0:
96,200,293310,1,0,0:0:0:0:
96,200,293395,1,0,0:0:0:0:
96,200,293481,1,8,0:0:0:0:
96,200,293652,1,0,0:0:0:0:
96,200,293738,1,0,0:0:0:0:
96,200,293824,1,8,0:0:0:0:
144,232,293995,1,4,0:0:0:0:
136,200,294338,1,0,0:0:0:0:
136,200,294681,1,0,0:0:0:0:
96,200,295024,1,0,0:0:0:0:
184,128,295367,1,4,0:0:0:0:
232,160,295538,1,0,0:0:0:0:
232,160,295710,1,8,0:0:0:0:
232,160,295881,1,8,0:0:0:0:
232,160,296052,1,0,0:0:0:0:
232,160,296224,1,0,0:0:0:0:
232,160,296395,1,8,0:0:0:0:
232,160,296566,1,8,0:0:0:0:
184,184,296738,1,0,0:0:0:0:
160,200,296824,1,8,0:0:0:0:
160,200,296910,1,0,0:0:0:0:
184,184,296995,1,8,0:0:0:0:
208,176,297081,1,0,0:0:0:0:
184,176,297167,1,0,0:0:0:0:
160,184,297252,1,8,0:0:0:0:
136,184,297338,1,8,0:0:0:0:
112,184,297424,1,0,0:0:0:0:
88,192,297510,1,8,0:0:0:0:
88,192,297595,1,0,0:0:0:0:
88,192,297681,1,8,0:0:0:0:
96,216,297767,1,8,0:0:0:0:
112,192,297852,1,0,0:0:0:0:
128,168,297938,1,8,0:0:0:0:
128,168,298024,1,0,0:0:0:0:
128,168,298110,1,0,0:0:0:0:
136,208,299481,5,4,0:0:0:0:
208,256,299824,1,0,0:0:0:0:
176,232,299995,1,8,0:0:0:0:
136,208,300338,1,0,0:0:0:0:
136,208,300681,1,0,0:0:0:0:
144,288,301024,1,8,0:0:0:0:
184,240,301367,1,0,0:0:0:0:
128,176,301710,1,8,0:0:0:0:
128,176,301881,1,0,0:0:0:0:
160,256,302224,1,8,0:0:0:0:
144,288,302567,1,0,0:0:0:0:
136,192,302738,1,0,0:0:0:0:
136,192,302910,1,8,0:0:0:0:
152,248,303081,1,0,0:0:0:0:
192,272,303424,1,8,0:0:0:0:
112,240,303767,1,0,0:0:0:0:
80,168,304110,1,8,0:0:0:0:
104,248,304452,1,0,0:0:0:0:
120,208,304624,1,8,0:0:0:0:
200,200,304967,1,8,0:0:0:0:
128,152,305310,1,0,0:0:0:0:
160,176,305481,1,0,0:0:0:0:
160,216,305652,1,8,0:0:0:0:
160,216,305824,1,0,0:0:0:0:
160,216,306167,1,8,0:0:0:0:
160,216,306510,1,0,0:0:0:0:
240,200,306852,1,8,0:0:0:0:
160,224,307195,1,0,0:0:0:0:
200,216,307367,1,8,0:0:0:0:
160,288,307710,1,0,0:0:0:0:
200,216,308052,1,0,0:0:0:0:
176,256,308224,1,0,0:0:0:0:
160,224,308395,1,8,0:0:0:0:
160,224,308567,1,0,0:0:0:0:
80,248,308910,1,8,0:0:0:0:
80,248,309252,1,0,0:0:0:0:
80,248,309595,1,0,0:0:0:0:
80,248,309938,1,8,0:0:0:0:
80,248,310110,1,0,0:0:0:0:
80,248,310452,1,4,0:0:0:0:
160,224,310967,1,8,0:0:0:0:
264,176,311310,1,0,0:0:0:0:
368,128,311652,1,8,0:0:0:0:
312,144,311995,1,0,0:0:0:0:
256,160,312338,1,0,0:0:0:0:
200,176,312681,1,8,0:0:0:0:
256,160,312852,1,0,0:0:0:0:
200,176,313195,1,0,0:0:0:0:
256,232,313710,1,8,0:0:0:0:
200,224,314052,1,0,0:0:0:0:
152,192,314395,1,8,0:0:0:0:
208,208,314738,1,8,0:0:0:0:
152,192,315081,1,0,0:0:0:0:
152,192,315424,1,8,0:0:0:0:
152,192,315595,1,0,0:0:0:0:
112,232,315938,1,8,0:0:0:0:
192,216,316452,1,0,0:0:0:0:
168,208,316795,1,0,0:0:0:0:
216,280,317138,1,8,0:0:0:0:
80,208,317481,1,8,0:0:0:0:
88,152,317824,1,0,0:0:0:0:
80,208,318167,1,8,0:0:0:0:
80,208,318338,1,0,0:0:0:0:
80,208,318681,1,0,0:0:0:0:
184,160,319195,1,8,0:0:0:0:
80,208,319538,1,0,0:0:0:0:
80,192,319881,1,8,0:0:0:0:
80,192,320224,1,8,0:0:0:0:
80,192,320567,1,0,0:0:0:0:
32,208,320910,1,8,0:0:0:0:
160,208,321081,1,4,0:0:0:0:
