osu file format v14

[General]
AudioFilename: Hold Angel.mp3
AudioLeadIn: 0
PreviewTime: 82634
Countdown: 0
SampleSet: Soft
StackLeniency: 0.7
Mode: 3
LetterboxInBreaks: 0
SpecialStyle: 0
WidescreenStoryboard: 1

[Editor]
DistanceSpacing: 0.8
BeatDivisor: 4
GridSize: 16
TimelineZoom: 1.799999

[Metadata]
Title:Hold Angel
TitleUnicode:Hold Angel
Artist:you
ArtistUnicode:you
Creator:Blocko
Version:Normal
Source:
Tags:speedcore 600 over psycho filth records electronic instrumental
BeatmapID:1351135
BeatmapSetID:636543

[Difficulty]
HPDrainRate:7
CircleSize:7
OverallDifficulty:7
ApproachRate:7
SliderMultiplier:1.4
SliderTickRate:1

[Events]
//Background and Video events
0,0,"holdangel.png",0,0
//Break Periods
2,64434,68934
//Storyboard Layer 0 (Background)
//Storyboard Layer 1 (Fail)
//Storyboard Layer 2 (Pass)
//Storyboard Layer 3 (Foreground)
//Storyboard Layer 4 (Overlay)
//Storyboard Sound Samples

[TimingPoints]
234,200,4,2,0,10,1,0
83434,-100,4,2,0,10,0,1
95834,-100,4,2,0,10,0,0
96234,-100,4,2,0,10,0,1
108634,-100,4,2,0,10,0,0

[HitObjects]
36,192,234,5,0,0:0:0:0:
475,192,234,1,0,0:0:0:0:
182,192,634,1,0,0:0:0:0:
329,192,834,1,0,0:0:0:0:
36,192,1034,1,0,0:0:0:0:
329,192,1434,1,0,0:0:0:0:
475,192,1634,1,0,0:0:0:0:
182,192,1834,1,0,0:0:0:0:
256,192,2234,1,0,0:0:0:0:
402,192,2434,1,0,0:0:0:0:
109,192,2634,1,0,0:0:0:0:
329,192,3034,1,0,0:0:0:0:
256,192,3234,1,0,0:0:0:0:
182,192,3434,1,0,0:0:0:0:
256,192,3834,1,0,0:0:0:0:
402,192,4034,1,0,0:0:0:0:
36,192,4234,1,0,0:0:0:0:
256,192,4634,1,0,0:0:0:0:
475,192,4834,1,0,0:0:0:0:
109,192,5034,1,0,0:0:0:0:
256,192,5434,1,0,0:0:0:0:
402,192,5634,1,0,0:0:0:0:
182,192,5834,1,0,0:0:0:0:
182,192,6034,1,0,0:0:0:0:
329,192,6234,1,0,0:0:0:0:
329,192,6434,1,0,0:0:0:0:
36,192,6634,1,0,0:0:0:0:
475,192,6634,1,0,0:0:0:0:
182,192,7034,1,0,0:0:0:0:
329,192,7234,1,0,0:0:0:0:
256,192,7434,1,0,0:0:0:0:
109,192,7834,1,0,0:0:0:0:
402,192,8034,1,0,0:0:0:0:
256,192,8234,1,0,0:0:0:0:
36,192,8634,1,0,0:0:0:0:
475,192,8834,1,0,0:0:0:0:
256,192,9034,1,0,0:0:0:0:
109,192,9434,1,0,0:0:0:0:
402,192,9634,1,0,0:0:0:0:
256,192,9834,1,0,0:0:0:0:
36,192,10234,1,0,0:0:0:0:
182,192,10434,1,0,0:0:0:0:
329,192,10634,1,0,0:0:0:0:
402,192,11034,1,0,0:0:0:0:
256,192,11234,1,0,0:0:0:0:
109,192,11434,1,0,0:0:0:0:
182,192,11834,1,0,0:0:0:0:
329,192,12034,1,0,0:0:0:0:
36,192,12234,128,0,13034:0:0:0:0:
475,192,12234,128,0,13034:0:0:0:0:
182,192,13034,1,0,0:0:0:0:
329,192,13034,1,0,0:0:0:0:
402,192,13434,1,0,0:0:0:0:
256,192,13634,1,0,0:0:0:0:
109,192,13834,1,0,0:0:0:0:
36,192,14234,1,0,0:0:0:0:
182,192,14434,1,0,0:0:0:0:
329,192,14634,1,0,0:0:0:0:
475,192,15034,1,0,0:0:0:0:
329,192,15234,1,0,0:0:0:0:
182,192,15434,1,0,0:0:0:0:
402,192,15834,1,0,0:0:0:0:
256,192,16034,1,0,0:0:0:0:
109,192,16234,1,0,0:0:0:0:
182,192,16634,1,0,0:0:0:0:
329,192,16834,1,0,0:0:0:0:
36,192,17034,1,0,0:0:0:0:
256,192,17434,1,0,0:0:0:0:
402,192,17634,1,0,0:0:0:0:
109,192,17834,1,0,0:0:0:0:
329,192,18234,1,0,0:0:0:0:
475,192,18434,1,0,0:0:0:0:
182,192,18634,128,0,18834:0:0:0:0:
329,192,18834,128,0,19034:0:0:0:0:
182,192,19034,128,0,19234:0:0:0:0:
329,192,19234,128,0,19434:0:0:0:0:
475,192,19434,1,0,0:0:0:0:
36,192,19434,1,0,0:0:0:0:
329,192,19834,1,0,0:0:0:0:
182,192,20034,1,0,0:0:0:0:
36,192,20234,1,0,0:0:0:0:
182,192,20634,1,0,0:0:0:0:
329,192,20834,1,0,0:0:0:0:
475,192,21034,1,0,0:0:0:0:
109,192,21434,1,0,0:0:0:0:
256,192,21634,1,0,0:0:0:0:
402,192,21834,1,0,0:0:0:0:
329,192,22234,1,0,0:0:0:0:
182,192,22434,1,0,0:0:0:0:
36,192,22634,1,0,0:0:0:0:
475,192,22634,1,0,0:0:0:0:
109,192,23034,1,0,0:0:0:0:
256,192,23234,1,0,0:0:0:0:
402,192,23434,1,0,0:0:0:0:
182,192,23834,1,0,0:0:0:0:
329,192,24034,1,0,0:0:0:0:
36,192,24234,1,0,0:0:0:0:
475,192,24234,1,0,0:0:0:0:
182,192,24634,1,0,0:0:0:0:
329,192,24834,1,0,0:0:0:0:
36,192,25034,128,0,25434:0:0:0:0:
475,192,25034,128,0,25434:0:0:0:0:
256,192,25634,1,0,0:0:0:0:
475,192,25834,1,0,0:0:0:0:
36,192,25834,1,0,0:0:0:0:
182,192,26034,1,0,0:0:0:0:
256,192,26234,1,0,0:0:0:0:
329,192,26434,1,0,0:0:0:0:
402,192,26534,1,0,0:0:0:0:
475,192,26634,128,0,27434:0:0:0:0:
256,192,26834,1,0,0:0:0:0:
36,192,27034,1,0,0:0:0:0:
109,192,27134,1,0,0:0:0:0:
182,192,27234,1,0,0:0:0:0:
256,192,27334,1,0,0:0:0:0:
329,192,27434,1,0,0:0:0:0:
182,192,27634,1,0,0:0:0:0:
329,192,27834,1,0,0:0:0:0:
182,192,28034,1,0,0:0:0:0:
36,192,28234,128,0,29034:0:0:0:0:
475,192,28434,1,0,0:0:0:0:
329,192,28634,1,0,0:0:0:0:
182,192,28734,1,0,0:0:0:0:
402,192,28834,1,0,0:0:0:0:
329,192,28934,1,0,0:0:0:0:
256,192,29034,1,0,0:0:0:0:
475,192,29034,1,0,0:0:0:0:
109,192,29234,1,0,0:0:0:0:
402,192,29434,1,0,0:0:0:0:
36,192,29634,1,0,0:0:0:0:
475,192,29834,1,0,0:0:0:0:
182,192,30034,1,0,0:0:0:0:
402,192,30234,1,0,0:0:0:0:
329,192,30334,1,0,0:0:0:0:
256,192,30434,1,0,0:0:0:0:
182,192,30534,1,0,0:0:0:0:
109,192,30634,1,0,0:0:0:0:
329,192,30834,1,0,0:0:0:0:
182,192,31034,1,0,0:0:0:0:
402,192,31234,1,0,0:0:0:0:
256,192,31434,1,0,0:0:0:0:
256,192,31634,1,0,0:0:0:0:
256,192,31834,1,0,0:0:0:0:
256,192,32034,128,0,32234:0:0:0:0:
36,192,32234,1,0,0:0:0:0:
475,192,32234,1,0,0:0:0:0:
182,192,32434,1,0,0:0:0:0:
329,192,32634,1,0,0:0:0:0:
475,192,32834,1,0,0:0:0:0:
256,192,32934,1,0,0:0:0:0:
36,192,33034,128,0,33834:0:0:0:0:
402,192,33234,1,0,0:0:0:0:
182,192,33434,1,0,0:0:0:0:
256,192,33534,1,0,0:0:0:0:
329,192,33634,1,0,0:0:0:0:
402,192,33734,1,0,0:0:0:0:
475,192,33834,1,0,0:0:0:0:
182,192,34034,1,0,0:0:0:0:
256,192,34234,1,0,0:0:0:0:
329,192,34434,1,0,0:0:0:0:
475,192,34634,128,0,35434:0:0:0:0:
36,192,34834,1,0,0:0:0:0:
109,192,35034,1,0,0:0:0:0:
329,192,35134,1,0,0:0:0:0:
256,192,35234,1,0,0:0:0:0:
182,192,35334,1,0,0:0:0:0:
109,192,35434,1,0,0:0:0:0:
402,192,35634,1,0,0:0:0:0:
256,192,35834,1,0,0:0:0:0:
36,192,36034,1,0,0:0:0:0:
109,192,36134,1,0,0:0:0:0:
182,192,36234,1,0,0:0:0:0:
475,192,36334,1,0,0:0:0:0:
402,192,36434,1,0,0:0:0:0:
329,192,36534,1,0,0:0:0:0:
256,192,36634,1,0,0:0:0:0:
182,192,36834,1,0,0:0:0:0:
109,192,37034,1,0,0:0:0:0:
402,192,37234,1,0,0:0:0:0:
182,192,37434,1,0,0:0:0:0:
256,192,37534,1,0,0:0:0:0:
329,192,37634,1,0,0:0:0:0:
36,192,37834,1,0,0:0:0:0:
475,192,37834,1,0,0:0:0:0:
182,192,38034,128,0,38434:0:0:0:0:
329,192,38034,128,0,38434:0:0:0:0:
475,192,38634,1,0,0:0:0:0:
36,192,38634,1,0,0:0:0:0:
109,192,38834,1,0,0:0:0:0:
182,192,39034,128,0,39234:0:0:0:0:
402,192,39234,1,0,0:0:0:0:
329,192,39334,1,0,0:0:0:0:
182,192,39534,128,0,39834:0:0:0:0:
329,192,39834,128,0,40034:0:0:0:0:
109,192,40034,1,0,0:0:0:0:
182,192,40134,1,0,0:0:0:0:
475,192,40234,1,0,0:0:0:0:
402,192,40434,1,0,0:0:0:0:
329,192,40634,1,0,0:0:0:0:
256,192,40734,1,0,0:0:0:0:
182,192,40834,1,0,0:0:0:0:
36,192,41034,128,0,41234:0:0:0:0:
329,192,41234,1,0,0:0:0:0:
182,192,41334,1,0,0:0:0:0:
329,192,41434,1,0,0:0:0:0:
182,192,41534,1,0,0:0:0:0:
329,192,41634,1,0,0:0:0:0:
182,192,41734,1,0,0:0:0:0:
475,192,41834,1,0,0:0:0:0:
402,192,42034,1,0,0:0:0:0:
329,192,42234,128,0,42434:0:0:0:0:
182,192,42434,1,0,0:0:0:0:
109,192,42534,1,0,0:0:0:0:
36,192,42634,1,0,0:0:0:0:
256,192,42734,128,0,43434:0:0:0:0:
475,192,43434,1,0,0:0:0:0:
402,192,43534,1,0,0:0:0:0:
329,192,43634,1,0,0:0:0:0:
256,192,43834,128,0,44034:0:0:0:0:
109,192,44034,1,0,0:0:0:0:
182,192,44134,1,0,0:0:0:0:
256,192,44234,1,0,0:0:0:0:
329,192,44334,1,0,0:0:0:0:
402,192,44434,1,0,0:0:0:0:
182,192,44534,1,0,0:0:0:0:
329,192,44734,1,0,0:0:0:0:
256,192,44834,128,0,45034:0:0:0:0:
475,192,45034,1,0,0:0:0:0:
36,192,45034,1,0,0:0:0:0:
182,192,45134,1,0,0:0:0:0:
329,192,45234,1,0,0:0:0:0:
402,192,45334,1,0,0:0:0:0:
329,192,45634,1,0,0:0:0:0:
182,192,45734,1,0,0:0:0:0:
109,192,45934,1,0,0:0:0:0:
402,192,46034,1,0,0:0:0:0:
475,192,46234,128,0,46434:0:0:0:0:
182,192,46434,1,0,0:0:0:0:
329,192,46534,1,0,0:0:0:0:
36,192,46634,1,0,0:0:0:0:
182,192,46834,128,0,47034:0:0:0:0:
329,192,47034,1,0,0:0:0:0:
402,192,47134,1,0,0:0:0:0:
256,192,47234,1,0,0:0:0:0:
182,192,47334,1,0,0:0:0:0:
109,192,47434,128,0,47634:0:0:0:0:
329,192,47634,1,0,0:0:0:0:
182,192,47734,1,0,0:0:0:0:
329,192,47834,1,0,0:0:0:0:
182,192,47934,1,0,0:0:0:0:
402,192,48034,128,0,48234:0:0:0:0:
36,192,48234,1,0,0:0:0:0:
256,192,48434,1,0,0:0:0:0:
329,192,48634,128,0,48834:0:0:0:0:
182,192,48834,128,0,49034:0:0:0:0:
475,192,49034,1,0,0:0:0:0:
36,192,49134,1,0,0:0:0:0:
329,192,49234,1,0,0:0:0:0:
182,192,49334,1,0,0:0:0:0:
109,192,49534,1,0,0:0:0:0:
256,192,49634,1,0,0:0:0:0:
402,192,49734,1,0,0:0:0:0:
475,192,49834,1,0,0:0:0:0:
109,192,50034,128,0,50234:0:0:0:0:
402,192,50234,128,0,50434:0:0:0:0:
329,192,50434,1,0,0:0:0:0:
182,192,50534,1,0,0:0:0:0:
475,192,50634,1,0,0:0:0:0:
36,192,50634,128,0,51434:0:0:0:0:
402,192,50834,1,0,0:0:0:0:
329,192,51034,1,0,0:0:0:0:
256,192,51234,1,0,0:0:0:0:
182,192,51434,1,0,0:0:0:0:
475,192,51434,128,0,53034:0:0:0:0:
36,192,53034,1,0,0:0:0:0:
329,192,53034,128,0,54634:0:0:0:0:
182,192,54634,128,0,56234:0:0:0:0:
475,192,54634,1,0,0:0:0:0:
36,192,56234,128,0,57834:0:0:0:0:
329,192,56234,1,0,0:0:0:0:
402,192,57834,128,0,59434:0:0:0:0:
182,192,57834,1,0,0:0:0:0:
256,192,59434,128,0,61034:0:0:0:0:
36,192,59434,1,0,0:0:0:0:
109,192,61034,128,0,62634:0:0:0:0:
329,192,61034,1,0,0:0:0:0:
256,192,62634,128,0,64234:0:0:0:0:
475,192,62634,1,0,0:0:0:0:
256,192,69834,5,0,0:0:0:0:
36,192,70634,1,0,0:0:0:0:
475,192,70634,1,0,0:0:0:0:
329,192,70834,1,0,0:0:0:0:
182,192,70934,1,0,0:0:0:0:
109,192,71134,1,0,0:0:0:0:
256,192,71234,1,0,0:0:0:0:
402,192,71334,1,0,0:0:0:0:
36,192,71634,1,0,0:0:0:0:
182,192,71834,1,0,0:0:0:0:
329,192,72034,1,0,0:0:0:0:
475,192,72234,1,0,0:0:0:0:
182,192,72434,1,0,0:0:0:0:
329,192,72534,1,0,0:0:0:0:
402,192,72734,1,0,0:0:0:0:
256,192,72834,1,0,0:0:0:0:
109,192,72934,1,0,0:0:0:0:
475,192,73234,1,0,0:0:0:0:
329,192,73434,1,0,0:0:0:0:
182,192,73634,1,0,0:0:0:0:
36,192,73834,1,0,0:0:0:0:
182,192,74034,1,0,0:0:0:0:
329,192,74134,1,0,0:0:0:0:
109,192,74334,1,0,0:0:0:0:
256,192,74434,1,0,0:0:0:0:
402,192,74534,1,0,0:0:0:0:
36,192,74834,1,0,0:0:0:0:
329,192,75034,1,0,0:0:0:0:
475,192,75234,1,0,0:0:0:0:
182,192,75434,1,0,0:0:0:0:
329,192,75634,1,0,0:0:0:0:
182,192,75734,1,0,0:0:0:0:
402,192,75934,1,0,0:0:0:0:
256,192,76034,1,0,0:0:0:0:
109,192,76134,1,0,0:0:0:0:
475,192,76434,1,0,0:0:0:0:
329,192,76634,1,0,0:0:0:0:
182,192,76834,1,0,0:0:0:0:
475,192,77034,1,0,0:0:0:0:
36,192,77034,1,0,0:0:0:0:
182,192,77234,1,0,0:0:0:0:
329,192,77334,1,0,0:0:0:0:
109,192,77534,1,0,0:0:0:0:
256,192,77634,1,0,0:0:0:0:
402,192,77734,1,0,0:0:0:0:
182,192,78034,1,0,0:0:0:0:
256,192,78234,1,0,0:0:0:0:
329,192,78434,1,0,0:0:0:0:
36,192,78634,1,0,0:0:0:0:
475,192,78634,1,0,0:0:0:0:
329,192,78834,1,0,0:0:0:0:
182,192,78934,1,0,0:0:0:0:
402,192,79134,1,0,0:0:0:0:
256,192,79234,1,0,0:0:0:0:
109,192,79334,1,0,0:0:0:0:
329,192,79634,1,0,0:0:0:0:
256,192,79834,1,0,0:0:0:0:
182,192,80034,1,0,0:0:0:0:
36,192,80234,1,0,0:0:0:0:
475,192,80234,1,0,0:0:0:0:
36,192,80434,1,0,0:0:0:0:
475,192,80434,1,0,0:0:0:0:
36,192,81034,1,0,0:0:0:0:
475,192,81034,1,0,0:0:0:0:
36,192,81234,1,0,0:0:0:0:
475,192,81234,1,0,0:0:0:0:
36,192,81834,128,0,82634:0:0:0:0:
475,192,81834,128,0,82634:0:0:0:0:
256,192,83034,1,0,0:0:0:0:
36,192,83434,1,0,0:0:0:0:
475,192,83434,1,0,0:0:0:0:
329,192,83634,1,0,0:0:0:0:
182,192,83734,1,0,0:0:0:0:
329,192,83934,1,0,0:0:0:0:
182,192,84034,1,0,0:0:0:0:
329,192,84134,1,0,0:0:0:0:
36,192,84334,1,0,0:0:0:0:
109,192,84434,1,0,0:0:0:0:
182,192,84534,1,0,0:0:0:0:
256,192,84634,1,0,0:0:0:0:
475,192,84734,1,0,0:0:0:0:
402,192,84834,1,0,0:0:0:0:
329,192,84934,1,0,0:0:0:0:
256,192,85034,1,0,0:0:0:0:
182,192,85234,1,0,0:0:0:0:
329,192,85334,1,0,0:0:0:0:
182,192,85534,1,0,0:0:0:0:
329,192,85634,1,0,0:0:0:0:
182,192,85734,1,0,0:0:0:0:
36,192,85934,1,0,0:0:0:0:
109,192,86034,1,0,0:0:0:0:
182,192,86134,1,0,0:0:0:0:
256,192,86234,1,0,0:0:0:0:
475,192,86234,128,0,86634:0:0:0:0:
36,192,86634,1,0,0:0:0:0:
182,192,86834,1,0,0:0:0:0:
329,192,86934,1,0,0:0:0:0:
109,192,87134,1,0,0:0:0:0:
256,192,87234,1,0,0:0:0:0:
402,192,87334,1,0,0:0:0:0:
36,192,87534,1,0,0:0:0:0:
109,192,87634,1,0,0:0:0:0:
182,192,87734,1,0,0:0:0:0:
329,192,87834,1,0,0:0:0:0:
475,192,87934,1,0,0:0:0:0:
402,192,88034,1,0,0:0:0:0:
329,192,88134,1,0,0:0:0:0:
182,192,88234,1,0,0:0:0:0:
329,192,88434,1,0,0:0:0:0:
182,192,88534,1,0,0:0:0:0:
402,192,88734,1,0,0:0:0:0:
256,192,88834,1,0,0:0:0:0:
109,192,88934,1,0,0:0:0:0:
36,192,89034,128,0,89434:0:0:0:0:
402,192,89434,1,0,0:0:0:0:
329,192,89534,1,0,0:0:0:0:
182,192,89634,1,0,0:0:0:0:
109,192,89734,1,0,0:0:0:0:
475,192,89834,1,0,0:0:0:0:
36,192,89834,1,0,0:0:0:0:
182,192,90034,1,0,0:0:0:0:
329,192,90134,1,0,0:0:0:0:
109,192,90334,1,0,0:0:0:0:
256,192,90434,1,0,0:0:0:0:
402,192,90534,1,0,0:0:0:0:
329,192,90734,1,0,0:0:0:0:
182,192,90834,1,0,0:0:0:0:
475,192,90934,1,0,0:0:0:0:
36,192,91034,1,0,0:0:0:0:
402,192,91134,1,0,0:0:0:0:
109,192,91234,1,0,0:0:0:0:
329,192,91334,1,0,0:0:0:0:
182,192,91434,1,0,0:0:0:0:
329,192,91634,1,0,0:0:0:0:
182,192,91734,1,0,0:0:0:0:
402,192,91934,1,0,0:0:0:0:
256,192,92034,1,0,0:0:0:0:
109,192,92134,1,0,0:0:0:0:
182,192,92334,1,0,0:0:0:0:
329,192,92434,1,0,0:0:0:0:
36,192,92534,1,0,0:0:0:0:
475,192,92634,128,0,93034:0:0:0:0:
109,192,93034,1,0,0:0:0:0:
36,192,93034,1,0,0:0:0:0:
329,192,93234,1,0,0:0:0:0:
182,192,93334,1,0,0:0:0:0:
402,192,93534,1,0,0:0:0:0:
256,192,93634,1,0,0:0:0:0:
109,192,93734,1,0,0:0:0:0:
475,192,93934,1,0,0:0:0:0:
329,192,94034,1,0,0:0:0:0:
182,192,94134,1,0,0:0:0:0:
36,192,94234,1,0,0:0:0:0:
329,192,94334,1,0,0:0:0:0:
182,192,94434,1,0,0:0:0:0:
475,192,94534,1,0,0:0:0:0:
36,192,94634,1,0,0:0:0:0:
109,192,94634,1,0,0:0:0:0:
329,192,94834,1,0,0:0:0:0:
182,192,94934,1,0,0:0:0:0:
402,192,95134,1,0,0:0:0:0:
256,192,95234,1,0,0:0:0:0:
109,192,95334,1,0,0:0:0:0:
402,192,95434,128,0,95834:0:0:0:0:
475,192,95434,128,0,95834:0:0:0:0:
256,192,96034,1,0,0:0:0:0:
36,192,96234,1,0,0:0:0:0:
475,192,96234,1,0,0:0:0:0:
402,192,96334,1,0,0:0:0:0:
329,192,96434,1,0,0:0:0:0:
256,192,96534,1,0,0:0:0:0:
36,192,96634,1,0,0:0:0:0:
109,192,96734,1,0,0:0:0:0:
182,192,96834,1,0,0:0:0:0:
256,192,96934,1,0,0:0:0:0:
402,192,97034,1,0,0:0:0:0:
329,192,97134,1,0,0:0:0:0:
256,192,97234,1,0,0:0:0:0:
182,192,97334,1,0,0:0:0:0:
36,192,97434,1,0,0:0:0:0:
109,192,97534,1,0,0:0:0:0:
182,192,97634,1,0,0:0:0:0:
256,192,97734,1,0,0:0:0:0:
475,192,97834,1,0,0:0:0:0:
402,192,97934,1,0,0:0:0:0:
329,192,98034,1,0,0:0:0:0:
256,192,98134,1,0,0:0:0:0:
109,192,98234,1,0,0:0:0:0:
182,192,98334,1,0,0:0:0:0:
256,192,98434,1,0,0:0:0:0:
329,192,98534,1,0,0:0:0:0:
475,192,98634,1,0,0:0:0:0:
402,192,98734,1,0,0:0:0:0:
329,192,98834,1,0,0:0:0:0:
256,192,98934,1,0,0:0:0:0:
36,192,99034,1,0,0:0:0:0:
109,192,99134,1,0,0:0:0:0:
182,192,99234,1,0,0:0:0:0:
256,192,99334,1,0,0:0:0:0:
36,192,99434,1,0,0:0:0:0:
475,192,99434,1,0,0:0:0:0:
182,192,99834,1,0,0:0:0:0:
329,192,99834,1,0,0:0:0:0:
36,192,100234,1,0,0:0:0:0:
475,192,100234,1,0,0:0:0:0:
256,192,100334,1,0,0:0:0:0:
109,192,100434,1,0,0:0:0:0:
402,192,100434,1,0,0:0:0:0:
182,192,100634,1,0,0:0:0:0:
329,192,100634,1,0,0:0:0:0:
256,192,100934,1,0,0:0:0:0:
36,192,101034,1,0,0:0:0:0:
475,192,101034,1,0,0:0:0:0:
109,192,101234,1,0,0:0:0:0:
402,192,101234,1,0,0:0:0:0:
182,192,101434,1,0,0:0:0:0:
329,192,101434,1,0,0:0:0:0:
109,192,101634,1,0,0:0:0:0:
402,192,101634,1,0,0:0:0:0:
36,192,101834,1,0,0:0:0:0:
475,192,101834,1,0,0:0:0:0:
256,192,101834,128,0,102634:0:0:0:0:
475,192,102634,1,0,0:0:0:0:
36,192,102634,1,0,0:0:0:0:
402,192,102734,1,0,0:0:0:0:
256,192,102834,1,0,0:0:0:0:
182,192,102934,1,0,0:0:0:0:
36,192,103034,1,0,0:0:0:0:
109,192,103134,1,0,0:0:0:0:
256,192,103234,1,0,0:0:0:0:
329,192,103334,1,0,0:0:0:0:
475,192,103434,1,0,0:0:0:0:
402,192,103534,1,0,0:0:0:0:
329,192,103634,1,0,0:0:0:0:
182,192,103734,1,0,0:0:0:0:
36,192,103834,1,0,0:0:0:0:
109,192,103934,1,0,0:0:0:0:
182,192,104034,1,0,0:0:0:0:
329,192,104134,1,0,0:0:0:0:
475,192,104234,1,0,0:0:0:0:
36,192,104234,1,0,0:0:0:0:
182,192,104334,1,0,0:0:0:0:
329,192,104434,1,0,0:0:0:0:
109,192,104534,1,0,0:0:0:0:
402,192,104634,1,0,0:0:0:0:
36,192,104734,1,0,0:0:0:0:
475,192,104834,1,0,0:0:0:0:
182,192,104934,1,0,0:0:0:0:
329,192,105034,1,0,0:0:0:0:
109,192,105134,1,0,0:0:0:0:
402,192,105234,1,0,0:0:0:0:
36,192,105334,1,0,0:0:0:0:
475,192,105434,1,0,0:0:0:0:
182,192,105534,1,0,0:0:0:0:
329,192,105634,1,0,0:0:0:0:
256,192,105734,1,0,0:0:0:0:
36,192,105834,1,0,0:0:0:0:
475,192,105834,1,0,0:0:0:0:
182,192,106234,1,0,0:0:0:0:
329,192,106234,1,0,0:0:0:0:
36,192,106634,1,0,0:0:0:0:
475,192,106634,1,0,0:0:0:0:
109,192,106834,1,0,0:0:0:0:
402,192,106834,1,0,0:0:0:0:
182,192,107034,1,0,0:0:0:0:
329,192,107034,1,0,0:0:0:0:
36,192,107434,1,0,0:0:0:0:
475,192,107434,1,0,0:0:0:0:
109,192,107634,1,0,0:0:0:0:
402,192,107634,1,0,0:0:0:0:
182,192,107834,1,0,0:0:0:0:
329,192,107834,1,0,0:0:0:0:
109,192,108034,1,0,0:0:0:0:
402,192,108034,1,0,0:0:0:0:
36,192,108234,128,0,108634:0:0:0:0:
256,192,108234,128,0,108634:0:0:0:0:
475,192,108234,128,0,108634:0:0:0:0:
36,192,109034,1,0,0:0:0:0:
475,192,109034,1,0,0:0:0:0:
