osu file format v14

[General]
AudioFilename: Hold Angel.mp3
AudioLeadIn: 0
PreviewTime: 82634
Countdown: 0
SampleSet: Soft
StackLeniency: 0.7
Mode: 3
LetterboxInBreaks: 0
SpecialStyle: 0
WidescreenStoryboard: 1

[Editor]
DistanceSpacing: 0.8
BeatDivisor: 1
GridSize: 16
TimelineZoom: 0.4999999

[Metadata]
Title:Hold Angel
TitleUnicode:Hold Angel
Artist:you
ArtistUnicode:you
Creator:Blocko
Version:Beginner
Source:
Tags:speedcore 600 over psycho filth records electronic instrumental
BeatmapID:1351131
BeatmapSetID:636543

[Difficulty]
HPDrainRate:6
CircleSize:7
OverallDifficulty:6
ApproachRate:6
SliderMultiplier:1.4
SliderTickRate:1

[Events]
//Background and Video events
0,0,"holdangel.png",0,0
//Break Periods
2,64434,68784
//Storyboard Layer 0 (Background)
//Storyboard Layer 1 (Fail)
//Storyboard Layer 2 (Pass)
//Storyboard Layer 3 (Foreground)
//Storyboard Layer 4 (Overlay)
//Storyboard Sound Samples

[TimingPoints]
234,200,4,2,0,10,1,0
83434,-100,4,2,0,10,0,1
95834,-100,4,2,0,10,0,0
96234,-100,4,2,0,10,0,1
108634,-100,4,2,0,10,0,0

[HitObjects]
256,192,234,5,0,0:0:0:0:
475,192,1034,1,0,0:0:0:0:
329,192,1834,1,0,0:0:0:0:
36,192,2634,1,0,0:0:0:0:
182,192,3434,1,0,0:0:0:0:
402,192,4234,1,0,0:0:0:0:
109,192,5034,1,0,0:0:0:0:
256,192,5834,128,0,6634:0:0:0:0:
36,192,6634,1,0,0:0:0:0:
182,192,7434,1,0,0:0:0:0:
329,192,8234,1,0,0:0:0:0:
475,192,9034,1,0,0:0:0:0:
109,192,9834,1,0,0:0:0:0:
256,192,10634,1,0,0:0:0:0:
402,192,11434,1,0,0:0:0:0:
256,192,12234,128,0,13034:0:0:0:0:
36,192,13034,1,0,0:0:0:0:
475,192,13034,1,0,0:0:0:0:
329,192,13834,1,0,0:0:0:0:
182,192,14634,1,0,0:0:0:0:
36,192,15434,1,0,0:0:0:0:
402,192,16234,1,0,0:0:0:0:
256,192,17034,1,0,0:0:0:0:
109,192,17834,1,0,0:0:0:0:
475,192,18634,128,0,19434:0:0:0:0:
36,192,19434,1,0,0:0:0:0:
109,192,19434,1,0,0:0:0:0:
182,192,20234,1,0,0:0:0:0:
329,192,21034,1,0,0:0:0:0:
475,192,21834,1,0,0:0:0:0:
109,192,22634,1,0,0:0:0:0:
256,192,23434,1,0,0:0:0:0:
402,192,24234,1,0,0:0:0:0:
36,192,25034,128,0,25434:0:0:0:0:
475,192,25834,1,0,0:0:0:0:
402,192,25834,1,0,0:0:0:0:
329,192,26634,128,0,27434:0:0:0:0:
36,192,27434,1,0,0:0:0:0:
182,192,28234,128,0,29034:0:0:0:0:
402,192,29034,1,0,0:0:0:0:
475,192,29034,1,0,0:0:0:0:
329,192,29434,1,0,0:0:0:0:
256,192,29834,1,0,0:0:0:0:
182,192,30234,1,0,0:0:0:0:
109,192,30634,1,0,0:0:0:0:
329,192,31034,1,0,0:0:0:0:
256,192,31434,1,0,0:0:0:0:
182,192,31834,1,0,0:0:0:0:
109,192,32234,1,0,0:0:0:0:
36,192,32234,1,0,0:0:0:0:
182,192,33034,128,0,33834:0:0:0:0:
475,192,33834,1,0,0:0:0:0:
329,192,34634,128,0,35434:0:0:0:0:
36,192,35434,1,0,0:0:0:0:
109,192,35434,1,0,0:0:0:0:
182,192,35834,1,0,0:0:0:0:
256,192,36234,1,0,0:0:0:0:
329,192,36634,1,0,0:0:0:0:
402,192,37034,1,0,0:0:0:0:
475,192,37434,1,0,0:0:0:0:
256,192,37834,128,0,38634:0:0:0:0:
36,192,38634,1,0,0:0:0:0:
475,192,38634,1,0,0:0:0:0:
182,192,39034,1,0,0:0:0:0:
329,192,39434,1,0,0:0:0:0:
109,192,39834,1,0,0:0:0:0:
256,192,40234,1,0,0:0:0:0:
402,192,40634,1,0,0:0:0:0:
182,192,41034,1,0,0:0:0:0:
329,192,41434,1,0,0:0:0:0:
475,192,41834,1,0,0:0:0:0:
329,192,42234,1,0,0:0:0:0:
182,192,42634,1,0,0:0:0:0:
402,192,43034,1,0,0:0:0:0:
256,192,43434,1,0,0:0:0:0:
109,192,43834,1,0,0:0:0:0:
329,192,44234,1,0,0:0:0:0:
182,192,44634,1,0,0:0:0:0:
36,192,45034,1,0,0:0:0:0:
475,192,45034,1,0,0:0:0:0:
256,192,45434,1,0,0:0:0:0:
109,192,45834,1,0,0:0:0:0:
329,192,46234,1,0,0:0:0:0:
182,192,46634,1,0,0:0:0:0:
402,192,47034,1,0,0:0:0:0:
256,192,47434,1,0,0:0:0:0:
475,192,47834,1,0,0:0:0:0:
182,192,48234,1,0,0:0:0:0:
329,192,48634,1,0,0:0:0:0:
109,192,49034,1,0,0:0:0:0:
402,192,49434,1,0,0:0:0:0:
36,192,49834,1,0,0:0:0:0:
475,192,50234,1,0,0:0:0:0:
256,192,50634,128,0,51434:0:0:0:0:
36,192,51434,1,0,0:0:0:0:
475,192,51434,1,0,0:0:0:0:
329,192,53034,1,0,0:0:0:0:
182,192,54634,1,0,0:0:0:0:
402,192,56234,1,0,0:0:0:0:
109,192,57834,1,0,0:0:0:0:
36,192,59434,1,0,0:0:0:0:
475,192,61034,1,0,0:0:0:0:
256,192,62634,128,0,64234:0:0:0:0:
256,192,69834,5,0,0:0:0:0:
402,192,70634,1,0,0:0:0:0:
109,192,70634,128,0,72234:0:0:0:0:
182,192,72234,128,0,73834:0:0:0:0:
402,192,73834,128,0,75434:0:0:0:0:
329,192,75434,128,0,77034:0:0:0:0:
256,192,77034,1,0,0:0:0:0:
256,192,78634,1,0,0:0:0:0:
256,192,80234,1,0,0:0:0:0:
256,192,81034,1,0,0:0:0:0:
256,192,81834,128,0,82634:0:0:0:0:
36,192,83434,1,0,0:0:0:0:
475,192,83434,1,0,0:0:0:0:
329,192,83834,1,0,0:0:0:0:
36,192,84234,1,0,0:0:0:0:
329,192,84634,1,0,0:0:0:0:
475,192,85034,1,0,0:0:0:0:
182,192,85434,1,0,0:0:0:0:
475,192,85834,1,0,0:0:0:0:
182,192,86234,1,0,0:0:0:0:
36,192,86634,1,0,0:0:0:0:
329,192,87034,1,0,0:0:0:0:
36,192,87434,1,0,0:0:0:0:
329,192,87834,1,0,0:0:0:0:
475,192,88234,1,0,0:0:0:0:
182,192,88634,1,0,0:0:0:0:
475,192,89034,1,0,0:0:0:0:
182,192,89434,1,0,0:0:0:0:
109,192,89834,1,0,0:0:0:0:
36,192,89834,1,0,0:0:0:0:
402,192,90234,1,0,0:0:0:0:
109,192,90634,1,0,0:0:0:0:
402,192,91034,1,0,0:0:0:0:
182,192,91434,1,0,0:0:0:0:
329,192,91834,1,0,0:0:0:0:
182,192,92234,1,0,0:0:0:0:
329,192,92634,1,0,0:0:0:0:
36,192,93034,1,0,0:0:0:0:
475,192,93034,1,0,0:0:0:0:
182,192,93434,1,0,0:0:0:0:
256,192,93834,1,0,0:0:0:0:
329,192,94234,1,0,0:0:0:0:
36,192,94634,1,0,0:0:0:0:
475,192,94634,1,0,0:0:0:0:
182,192,95034,1,0,0:0:0:0:
256,192,95434,128,0,95834:0:0:0:0:
475,192,96234,1,0,0:0:0:0:
36,192,96234,1,0,0:0:0:0:
329,192,96634,1,0,0:0:0:0:
182,192,97034,1,0,0:0:0:0:
36,192,97434,1,0,0:0:0:0:
402,192,97834,1,0,0:0:0:0:
256,192,98234,1,0,0:0:0:0:
109,192,98634,1,0,0:0:0:0:
256,192,99034,1,0,0:0:0:0:
475,192,99434,1,0,0:0:0:0:
475,192,99834,1,0,0:0:0:0:
36,192,100234,1,0,0:0:0:0:
36,192,100634,1,0,0:0:0:0:
475,192,101034,1,0,0:0:0:0:
475,192,101434,1,0,0:0:0:0:
36,192,101834,128,0,102634:0:0:0:0:
475,192,102634,1,0,0:0:0:0:
402,192,102634,1,0,0:0:0:0:
182,192,103034,1,0,0:0:0:0:
329,192,103434,1,0,0:0:0:0:
182,192,103834,1,0,0:0:0:0:
109,192,104234,1,0,0:0:0:0:
36,192,104234,1,0,0:0:0:0:
329,192,104634,1,0,0:0:0:0:
182,192,105034,1,0,0:0:0:0:
329,192,105434,1,0,0:0:0:0:
402,192,105834,1,0,0:0:0:0:
475,192,105834,1,0,0:0:0:0:
182,192,106234,1,0,0:0:0:0:
36,192,106634,1,0,0:0:0:0:
109,192,106634,1,0,0:0:0:0:
329,192,107034,1,0,0:0:0:0:
475,192,107434,1,0,0:0:0:0:
36,192,107434,1,0,0:0:0:0:
329,192,107834,1,0,0:0:0:0:
182,192,107834,1,0,0:0:0:0:
256,192,108234,128,0,108634:0:0:0:0:
36,192,109034,1,0,0:0:0:0:
475,192,109034,1,0,0:0:0:0:
