osu file format v14

[General]
AudioFilename: Hold Angel.mp3
AudioLeadIn: 0
PreviewTime: 82634
Countdown: 0
SampleSet: Soft
StackLeniency: 0.7
Mode: 3
LetterboxInBreaks: 0
SpecialStyle: 0
WidescreenStoryboard: 1

[Editor]
DistanceSpacing: 0.8
BeatDivisor: 4
GridSize: 16
TimelineZoom: 2.399999

[Metadata]
Title:Hold Angel
TitleUnicode:Hold Angel
Artist:you
ArtistUnicode:you
Creator:Blocko
Version:Another
Source:
Tags:speedcore 600 over psycho filth records electronic instrumental
BeatmapID:1351130
BeatmapSetID:636543

[Difficulty]
HPDrainRate:8
CircleSize:7
OverallDifficulty:8.5
ApproachRate:8.5
SliderMultiplier:1.4
SliderTickRate:1

[Events]
//Background and Video events
0,0,"holdangel.png",0,0
//Break Periods
2,64434,69159
//Storyboard Layer 0 (Background)
//Storyboard Layer 1 (Fail)
//Storyboard Layer 2 (Pass)
//Storyboard Layer 3 (Foreground)
//Storyboard Layer 4 (Overlay)
//Storyboard Sound Samples

[TimingPoints]
234,200,4,2,0,10,1,0
83434,-100,4,2,0,10,0,1
95834,-100,4,2,0,10,0,0
96234,-100,4,2,0,10,0,1
108634,-100,4,2,0,10,0,0

[HitObjects]
36,192,234,5,0,0:0:0:0:
182,192,234,1,0,0:0:0:0:
475,192,234,1,0,0:0:0:0:
329,192,334,1,0,0:0:0:0:
182,192,434,1,0,0:0:0:0:
36,192,434,1,0,0:0:0:0:
329,192,534,1,0,0:0:0:0:
402,192,634,1,0,0:0:0:0:
109,192,634,1,0,0:0:0:0:
256,192,734,1,0,0:0:0:0:
475,192,834,1,0,0:0:0:0:
36,192,834,1,0,0:0:0:0:
329,192,934,1,0,0:0:0:0:
182,192,1034,1,0,0:0:0:0:
402,192,1034,1,0,0:0:0:0:
109,192,1134,1,0,0:0:0:0:
36,192,1234,1,0,0:0:0:0:
329,192,1234,1,0,0:0:0:0:
256,192,1334,1,0,0:0:0:0:
182,192,1434,1,0,0:0:0:0:
402,192,1434,1,0,0:0:0:0:
475,192,1534,1,0,0:0:0:0:
109,192,1634,1,0,0:0:0:0:
329,192,1634,1,0,0:0:0:0:
402,192,1734,1,0,0:0:0:0:
182,192,1834,1,0,0:0:0:0:
475,192,1834,1,0,0:0:0:0:
109,192,1934,1,0,0:0:0:0:
36,192,2034,1,0,0:0:0:0:
256,192,2034,1,0,0:0:0:0:
182,192,2134,1,0,0:0:0:0:
109,192,2234,1,0,0:0:0:0:
329,192,2234,1,0,0:0:0:0:
256,192,2334,1,0,0:0:0:0:
182,192,2434,1,0,0:0:0:0:
402,192,2434,1,0,0:0:0:0:
329,192,2534,1,0,0:0:0:0:
256,192,2634,1,0,0:0:0:0:
475,192,2634,1,0,0:0:0:0:
329,192,2734,1,0,0:0:0:0:
402,192,2834,1,0,0:0:0:0:
182,192,2834,1,0,0:0:0:0:
256,192,2934,1,0,0:0:0:0:
329,192,3034,1,0,0:0:0:0:
109,192,3034,1,0,0:0:0:0:
475,192,3134,1,0,0:0:0:0:
256,192,3234,1,0,0:0:0:0:
36,192,3234,1,0,0:0:0:0:
402,192,3334,1,0,0:0:0:0:
182,192,3434,1,0,0:0:0:0:
36,192,3434,1,0,0:0:0:0:
329,192,3534,1,0,0:0:0:0:
36,192,3634,1,0,0:0:0:0:
182,192,3634,1,0,0:0:0:0:
329,192,3734,1,0,0:0:0:0:
256,192,3834,1,0,0:0:0:0:
109,192,3834,1,0,0:0:0:0:
402,192,3934,1,0,0:0:0:0:
182,192,4034,1,0,0:0:0:0:
475,192,4034,1,0,0:0:0:0:
329,192,4134,1,0,0:0:0:0:
402,192,4234,1,0,0:0:0:0:
109,192,4234,1,0,0:0:0:0:
256,192,4334,1,0,0:0:0:0:
329,192,4434,1,0,0:0:0:0:
36,192,4434,1,0,0:0:0:0:
182,192,4534,1,0,0:0:0:0:
109,192,4634,1,0,0:0:0:0:
402,192,4634,1,0,0:0:0:0:
475,192,4734,1,0,0:0:0:0:
36,192,4834,1,0,0:0:0:0:
256,192,4834,1,0,0:0:0:0:
329,192,4934,1,0,0:0:0:0:
182,192,5034,1,0,0:0:0:0:
402,192,5034,1,0,0:0:0:0:
109,192,5134,1,0,0:0:0:0:
256,192,5234,1,0,0:0:0:0:
475,192,5234,1,0,0:0:0:0:
36,192,5334,1,0,0:0:0:0:
182,192,5434,1,0,0:0:0:0:
329,192,5434,1,0,0:0:0:0:
402,192,5534,1,0,0:0:0:0:
256,192,5634,1,0,0:0:0:0:
475,192,5634,1,0,0:0:0:0:
182,192,5734,1,0,0:0:0:0:
402,192,5834,1,0,0:0:0:0:
36,192,5834,1,0,0:0:0:0:
109,192,5934,1,0,0:0:0:0:
329,192,6034,1,0,0:0:0:0:
475,192,6034,1,0,0:0:0:0:
256,192,6084,1,0,0:0:0:0:
182,192,6134,1,0,0:0:0:0:
109,192,6184,1,0,0:0:0:0:
402,192,6234,1,0,0:0:0:0:
36,192,6234,1,0,0:0:0:0:
329,192,6284,1,0,0:0:0:0:
256,192,6334,1,0,0:0:0:0:
182,192,6384,1,0,0:0:0:0:
36,192,6434,1,0,0:0:0:0:
475,192,6434,1,0,0:0:0:0:
109,192,6484,1,0,0:0:0:0:
402,192,6484,1,0,0:0:0:0:
182,192,6534,1,0,0:0:0:0:
329,192,6534,1,0,0:0:0:0:
256,192,6584,1,0,0:0:0:0:
402,192,6634,1,0,0:0:0:0:
475,192,6634,1,0,0:0:0:0:
109,192,6634,1,0,0:0:0:0:
36,192,6634,1,0,0:0:0:0:
182,192,6734,1,0,0:0:0:0:
36,192,6834,1,0,0:0:0:0:
329,192,6834,1,0,0:0:0:0:
182,192,6934,1,0,0:0:0:0:
329,192,7034,1,0,0:0:0:0:
475,192,7034,1,0,0:0:0:0:
182,192,7134,1,0,0:0:0:0:
109,192,7234,1,0,0:0:0:0:
402,192,7234,1,0,0:0:0:0:
256,192,7334,1,0,0:0:0:0:
36,192,7434,1,0,0:0:0:0:
329,192,7434,1,0,0:0:0:0:
256,192,7534,1,0,0:0:0:0:
475,192,7634,1,0,0:0:0:0:
182,192,7634,1,0,0:0:0:0:
329,192,7734,1,0,0:0:0:0:
36,192,7834,1,0,0:0:0:0:
256,192,7834,1,0,0:0:0:0:
475,192,7934,1,0,0:0:0:0:
182,192,8034,1,0,0:0:0:0:
329,192,8034,1,0,0:0:0:0:
36,192,8134,1,0,0:0:0:0:
256,192,8234,1,0,0:0:0:0:
475,192,8234,1,0,0:0:0:0:
109,192,8334,1,0,0:0:0:0:
182,192,8434,1,0,0:0:0:0:
402,192,8434,1,0,0:0:0:0:
36,192,8534,1,0,0:0:0:0:
109,192,8634,1,0,0:0:0:0:
329,192,8634,1,0,0:0:0:0:
256,192,8734,1,0,0:0:0:0:
475,192,8834,1,0,0:0:0:0:
182,192,8834,1,0,0:0:0:0:
329,192,8934,1,0,0:0:0:0:
36,192,9034,1,0,0:0:0:0:
182,192,9034,1,0,0:0:0:0:
329,192,9134,1,0,0:0:0:0:
475,192,9234,1,0,0:0:0:0:
36,192,9234,1,0,0:0:0:0:
182,192,9334,1,0,0:0:0:0:
256,192,9434,1,0,0:0:0:0:
402,192,9434,1,0,0:0:0:0:
109,192,9534,1,0,0:0:0:0:
329,192,9634,1,0,0:0:0:0:
475,192,9634,1,0,0:0:0:0:
182,192,9734,1,0,0:0:0:0:
36,192,9834,1,0,0:0:0:0:
402,192,9834,1,0,0:0:0:0:
256,192,9934,1,0,0:0:0:0:
36,192,10034,1,0,0:0:0:0:
402,192,10034,1,0,0:0:0:0:
256,192,10134,1,0,0:0:0:0:
109,192,10234,1,0,0:0:0:0:
475,192,10234,1,0,0:0:0:0:
256,192,10334,1,0,0:0:0:0:
475,192,10434,1,0,0:0:0:0:
109,192,10434,1,0,0:0:0:0:
329,192,10534,1,0,0:0:0:0:
182,192,10634,1,0,0:0:0:0:
36,192,10634,1,0,0:0:0:0:
256,192,10734,1,0,0:0:0:0:
329,192,10834,1,0,0:0:0:0:
475,192,10834,1,0,0:0:0:0:
182,192,10934,1,0,0:0:0:0:
109,192,11034,1,0,0:0:0:0:
402,192,11034,1,0,0:0:0:0:
475,192,11134,1,0,0:0:0:0:
36,192,11234,1,0,0:0:0:0:
182,192,11234,1,0,0:0:0:0:
329,192,11334,1,0,0:0:0:0:
109,192,11434,1,0,0:0:0:0:
256,192,11434,1,0,0:0:0:0:
402,192,11534,1,0,0:0:0:0:
475,192,11634,1,0,0:0:0:0:
182,192,11634,1,0,0:0:0:0:
109,192,11734,1,0,0:0:0:0:
36,192,11834,1,0,0:0:0:0:
329,192,11834,1,0,0:0:0:0:
402,192,11934,1,0,0:0:0:0:
475,192,12034,1,0,0:0:0:0:
182,192,12034,1,0,0:0:0:0:
109,192,12134,1,0,0:0:0:0:
36,192,12234,1,0,0:0:0:0:
256,192,12234,1,0,0:0:0:0:
475,192,12234,1,0,0:0:0:0:
329,192,12234,128,0,13034:0:0:0:0:
182,192,12234,128,0,13034:0:0:0:0:
109,192,13034,1,0,0:0:0:0:
36,192,13034,1,0,0:0:0:0:
256,192,13034,1,0,0:0:0:0:
402,192,13034,1,0,0:0:0:0:
475,192,13034,1,0,0:0:0:0:
182,192,13234,1,0,0:0:0:0:
329,192,13434,1,0,0:0:0:0:
475,192,13634,1,0,0:0:0:0:
329,192,13734,1,0,0:0:0:0:
182,192,13834,1,0,0:0:0:0:
36,192,14034,1,0,0:0:0:0:
109,192,14234,1,0,0:0:0:0:
329,192,14334,1,0,0:0:0:0:
182,192,14434,1,0,0:0:0:0:
402,192,14534,1,0,0:0:0:0:
475,192,14634,1,0,0:0:0:0:
36,192,14834,1,0,0:0:0:0:
182,192,15034,1,0,0:0:0:0:
475,192,15234,1,0,0:0:0:0:
329,192,15434,1,0,0:0:0:0:
182,192,15634,1,0,0:0:0:0:
109,192,15834,1,0,0:0:0:0:
402,192,15934,1,0,0:0:0:0:
256,192,16034,1,0,0:0:0:0:
109,192,16134,1,0,0:0:0:0:
36,192,16234,1,0,0:0:0:0:
182,192,16434,1,0,0:0:0:0:
329,192,16634,1,0,0:0:0:0:
475,192,16834,1,0,0:0:0:0:
256,192,16934,1,0,0:0:0:0:
36,192,17034,1,0,0:0:0:0:
329,192,17234,1,0,0:0:0:0:
182,192,17434,1,0,0:0:0:0:
329,192,17534,1,0,0:0:0:0:
109,192,17634,1,0,0:0:0:0:
402,192,17734,1,0,0:0:0:0:
36,192,17834,1,0,0:0:0:0:
475,192,18034,1,0,0:0:0:0:
182,192,18234,1,0,0:0:0:0:
256,192,18334,1,0,0:0:0:0:
329,192,18434,1,0,0:0:0:0:
402,192,18634,1,0,0:0:0:0:
475,192,18634,1,0,0:0:0:0:
329,192,18684,1,0,0:0:0:0:
256,192,18734,1,0,0:0:0:0:
182,192,18784,1,0,0:0:0:0:
109,192,18834,1,0,0:0:0:0:
475,192,18834,1,0,0:0:0:0:
402,192,18884,1,0,0:0:0:0:
329,192,18934,1,0,0:0:0:0:
256,192,18984,1,0,0:0:0:0:
36,192,19034,1,0,0:0:0:0:
109,192,19034,1,0,0:0:0:0:
182,192,19084,1,0,0:0:0:0:
256,192,19134,1,0,0:0:0:0:
329,192,19184,1,0,0:0:0:0:
36,192,19234,1,0,0:0:0:0:
402,192,19234,1,0,0:0:0:0:
109,192,19284,1,0,0:0:0:0:
182,192,19334,1,0,0:0:0:0:
256,192,19384,1,0,0:0:0:0:
36,192,19434,1,0,0:0:0:0:
329,192,19434,1,0,0:0:0:0:
475,192,19434,1,0,0:0:0:0:
109,192,19434,1,0,0:0:0:0:
402,192,19434,1,0,0:0:0:0:
182,192,19634,1,0,0:0:0:0:
329,192,19834,1,0,0:0:0:0:
475,192,20034,1,0,0:0:0:0:
182,192,20134,1,0,0:0:0:0:
329,192,20234,1,0,0:0:0:0:
256,192,20434,1,0,0:0:0:0:
109,192,20634,1,0,0:0:0:0:
402,192,20734,1,0,0:0:0:0:
109,192,20834,1,0,0:0:0:0:
402,192,20934,1,0,0:0:0:0:
256,192,21034,1,0,0:0:0:0:
109,192,21234,1,0,0:0:0:0:
256,192,21434,1,0,0:0:0:0:
475,192,21634,1,0,0:0:0:0:
329,192,21834,1,0,0:0:0:0:
36,192,22034,1,0,0:0:0:0:
182,192,22234,1,0,0:0:0:0:
402,192,22334,1,0,0:0:0:0:
256,192,22434,1,0,0:0:0:0:
109,192,22534,1,0,0:0:0:0:
36,192,22634,1,0,0:0:0:0:
329,192,22634,1,0,0:0:0:0:
475,192,22634,1,0,0:0:0:0:
182,192,22834,1,0,0:0:0:0:
329,192,23034,1,0,0:0:0:0:
402,192,23234,1,0,0:0:0:0:
109,192,23334,1,0,0:0:0:0:
256,192,23434,1,0,0:0:0:0:
329,192,23634,1,0,0:0:0:0:
182,192,23834,1,0,0:0:0:0:
329,192,23934,1,0,0:0:0:0:
182,192,24034,1,0,0:0:0:0:
329,192,24134,1,0,0:0:0:0:
36,192,24234,1,0,0:0:0:0:
402,192,24234,1,0,0:0:0:0:
475,192,24234,1,0,0:0:0:0:
256,192,24434,1,0,0:0:0:0:
109,192,24634,1,0,0:0:0:0:
256,192,24734,1,0,0:0:0:0:
402,192,24834,1,0,0:0:0:0:
36,192,25034,128,0,25434:0:0:0:0:
109,192,25034,128,0,25434:0:0:0:0:
402,192,25034,128,0,25434:0:0:0:0:
475,192,25034,128,0,25434:0:0:0:0:
256,192,25034,128,0,25434:0:0:0:0:
256,192,25634,1,0,0:0:0:0:
36,192,25834,1,0,0:0:0:0:
109,192,25834,1,0,0:0:0:0:
402,192,25834,1,0,0:0:0:0:
475,192,25834,1,0,0:0:0:0:
182,192,25834,1,0,0:0:0:0:
329,192,25884,1,0,0:0:0:0:
256,192,25934,1,0,0:0:0:0:
182,192,25984,1,0,0:0:0:0:
475,192,26034,1,0,0:0:0:0:
402,192,26084,1,0,0:0:0:0:
329,192,26134,1,0,0:0:0:0:
256,192,26184,1,0,0:0:0:0:
36,192,26234,1,0,0:0:0:0:
109,192,26284,1,0,0:0:0:0:
182,192,26334,1,0,0:0:0:0:
256,192,26384,1,0,0:0:0:0:
329,192,26434,1,0,0:0:0:0:
402,192,26484,1,0,0:0:0:0:
182,192,26534,1,0,0:0:0:0:
109,192,26584,1,0,0:0:0:0:
36,192,26634,128,0,27434:0:0:0:0:
329,192,26634,1,0,0:0:0:0:
256,192,26684,1,0,0:0:0:0:
182,192,26734,1,0,0:0:0:0:
109,192,26784,1,0,0:0:0:0:
402,192,26834,1,0,0:0:0:0:
329,192,26884,1,0,0:0:0:0:
256,192,26934,1,0,0:0:0:0:
182,192,26984,1,0,0:0:0:0:
475,192,27034,1,0,0:0:0:0:
402,192,27084,1,0,0:0:0:0:
329,192,27134,1,0,0:0:0:0:
256,192,27184,1,0,0:0:0:0:
109,192,27234,1,0,0:0:0:0:
182,192,27284,1,0,0:0:0:0:
256,192,27334,1,0,0:0:0:0:
329,192,27384,1,0,0:0:0:0:
475,192,27434,1,0,0:0:0:0:
402,192,27484,1,0,0:0:0:0:
329,192,27534,1,0,0:0:0:0:
256,192,27584,1,0,0:0:0:0:
36,192,27634,1,0,0:0:0:0:
109,192,27684,1,0,0:0:0:0:
182,192,27734,1,0,0:0:0:0:
256,192,27784,1,0,0:0:0:0:
475,192,27834,1,0,0:0:0:0:
402,192,27884,1,0,0:0:0:0:
329,192,27934,1,0,0:0:0:0:
256,192,27984,1,0,0:0:0:0:
182,192,28034,1,0,0:0:0:0:
109,192,28084,1,0,0:0:0:0:
329,192,28134,1,0,0:0:0:0:
402,192,28184,1,0,0:0:0:0:
475,192,28234,128,0,29034:0:0:0:0:
182,192,28234,1,0,0:0:0:0:
256,192,28284,1,0,0:0:0:0:
329,192,28334,1,0,0:0:0:0:
402,192,28384,1,0,0:0:0:0:
109,192,28434,1,0,0:0:0:0:
182,192,28484,1,0,0:0:0:0:
256,192,28534,1,0,0:0:0:0:
329,192,28584,1,0,0:0:0:0:
36,192,28634,1,0,0:0:0:0:
109,192,28684,1,0,0:0:0:0:
182,192,28734,1,0,0:0:0:0:
256,192,28784,1,0,0:0:0:0:
402,192,28834,1,0,0:0:0:0:
329,192,28884,1,0,0:0:0:0:
256,192,28934,1,0,0:0:0:0:
182,192,28984,1,0,0:0:0:0:
109,192,29034,1,0,0:0:0:0:
36,192,29034,1,0,0:0:0:0:
329,192,29034,1,0,0:0:0:0:
402,192,29034,1,0,0:0:0:0:
182,192,29134,1,0,0:0:0:0:
256,192,29134,1,0,0:0:0:0:
36,192,29234,1,0,0:0:0:0:
475,192,29234,1,0,0:0:0:0:
402,192,29234,1,0,0:0:0:0:
329,192,29334,1,0,0:0:0:0:
256,192,29334,1,0,0:0:0:0:
109,192,29434,1,0,0:0:0:0:
36,192,29434,1,0,0:0:0:0:
475,192,29434,1,0,0:0:0:0:
182,192,29534,1,0,0:0:0:0:
329,192,29534,1,0,0:0:0:0:
402,192,29634,1,0,0:0:0:0:
475,192,29634,1,0,0:0:0:0:
36,192,29634,1,0,0:0:0:0:
256,192,29734,1,0,0:0:0:0:
109,192,29734,1,0,0:0:0:0:
36,192,29834,1,0,0:0:0:0:
402,192,29834,1,0,0:0:0:0:
475,192,29834,1,0,0:0:0:0:
329,192,29934,1,0,0:0:0:0:
182,192,29934,1,0,0:0:0:0:
109,192,30034,1,0,0:0:0:0:
475,192,30034,1,0,0:0:0:0:
36,192,30034,1,0,0:0:0:0:
256,192,30134,1,0,0:0:0:0:
402,192,30134,1,0,0:0:0:0:
329,192,30234,1,0,0:0:0:0:
36,192,30234,1,0,0:0:0:0:
109,192,30284,1,0,0:0:0:0:
182,192,30334,1,0,0:0:0:0:
256,192,30384,1,0,0:0:0:0:
329,192,30434,1,0,0:0:0:0:
475,192,30434,1,0,0:0:0:0:
36,192,30484,1,0,0:0:0:0:
109,192,30534,1,0,0:0:0:0:
182,192,30584,1,0,0:0:0:0:
256,192,30634,1,0,0:0:0:0:
402,192,30634,1,0,0:0:0:0:
475,192,30634,1,0,0:0:0:0:
329,192,30734,1,0,0:0:0:0:
182,192,30734,1,0,0:0:0:0:
36,192,30834,1,0,0:0:0:0:
475,192,30834,1,0,0:0:0:0:
109,192,30834,1,0,0:0:0:0:
402,192,30934,1,0,0:0:0:0:
256,192,30934,1,0,0:0:0:0:
475,192,31034,1,0,0:0:0:0:
109,192,31034,1,0,0:0:0:0:
36,192,31034,1,0,0:0:0:0:
182,192,31134,1,0,0:0:0:0:
329,192,31134,1,0,0:0:0:0:
402,192,31234,1,0,0:0:0:0:
475,192,31234,1,0,0:0:0:0:
36,192,31234,1,0,0:0:0:0:
109,192,31334,1,0,0:0:0:0:
256,192,31334,1,0,0:0:0:0:
182,192,31434,1,0,0:0:0:0:
329,192,31434,1,0,0:0:0:0:
475,192,31434,1,0,0:0:0:0:
402,192,31634,1,0,0:0:0:0:
256,192,31634,1,0,0:0:0:0:
109,192,31634,1,0,0:0:0:0:
36,192,31834,1,0,0:0:0:0:
182,192,31834,1,0,0:0:0:0:
329,192,31834,1,0,0:0:0:0:
475,192,32034,1,0,0:0:0:0:
36,192,32059,1,0,0:0:0:0:
109,192,32084,1,0,0:0:0:0:
182,192,32109,1,0,0:0:0:0:
256,192,32134,1,0,0:0:0:0:
329,192,32159,1,0,0:0:0:0:
402,192,32184,1,0,0:0:0:0:
475,192,32209,1,0,0:0:0:0:
36,192,32234,1,0,0:0:0:0:
109,192,32234,1,0,0:0:0:0:
256,192,32234,1,0,0:0:0:0:
182,192,32234,1,0,0:0:0:0:
329,192,32284,1,0,0:0:0:0:
402,192,32334,1,0,0:0:0:0:
475,192,32384,1,0,0:0:0:0:
36,192,32434,1,0,0:0:0:0:
109,192,32484,1,0,0:0:0:0:
182,192,32534,1,0,0:0:0:0:
256,192,32584,1,0,0:0:0:0:
475,192,32634,1,0,0:0:0:0:
402,192,32684,1,0,0:0:0:0:
329,192,32734,1,0,0:0:0:0:
256,192,32784,1,0,0:0:0:0:
182,192,32834,1,0,0:0:0:0:
109,192,32884,1,0,0:0:0:0:
329,192,32934,1,0,0:0:0:0:
402,192,32984,1,0,0:0:0:0:
182,192,33034,1,0,0:0:0:0:
475,192,33034,128,0,33834:0:0:0:0:
256,192,33084,1,0,0:0:0:0:
329,192,33134,1,0,0:0:0:0:
402,192,33184,1,0,0:0:0:0:
109,192,33234,1,0,0:0:0:0:
182,192,33284,1,0,0:0:0:0:
256,192,33334,1,0,0:0:0:0:
329,192,33384,1,0,0:0:0:0:
36,192,33434,1,0,0:0:0:0:
109,192,33484,1,0,0:0:0:0:
182,192,33534,1,0,0:0:0:0:
256,192,33584,1,0,0:0:0:0:
402,192,33634,1,0,0:0:0:0:
329,192,33684,1,0,0:0:0:0:
256,192,33734,1,0,0:0:0:0:
182,192,33784,1,0,0:0:0:0:
36,192,33834,1,0,0:0:0:0:
109,192,33884,1,0,0:0:0:0:
182,192,33934,1,0,0:0:0:0:
256,192,33984,1,0,0:0:0:0:
475,192,34034,1,0,0:0:0:0:
402,192,34084,1,0,0:0:0:0:
329,192,34134,1,0,0:0:0:0:
256,192,34184,1,0,0:0:0:0:
36,192,34234,1,0,0:0:0:0:
109,192,34284,1,0,0:0:0:0:
182,192,34334,1,0,0:0:0:0:
256,192,34384,1,0,0:0:0:0:
329,192,34434,1,0,0:0:0:0:
402,192,34484,1,0,0:0:0:0:
182,192,34534,1,0,0:0:0:0:
109,192,34584,1,0,0:0:0:0:
36,192,34634,128,0,35434:0:0:0:0:
329,192,34634,1,0,0:0:0:0:
256,192,34684,1,0,0:0:0:0:
182,192,34734,1,0,0:0:0:0:
109,192,34784,1,0,0:0:0:0:
402,192,34834,1,0,0:0:0:0:
329,192,34884,1,0,0:0:0:0:
256,192,34934,1,0,0:0:0:0:
182,192,34984,1,0,0:0:0:0:
475,192,35034,1,0,0:0:0:0:
402,192,35084,1,0,0:0:0:0:
329,192,35134,1,0,0:0:0:0:
256,192,35184,1,0,0:0:0:0:
109,192,35234,1,0,0:0:0:0:
182,192,35284,1,0,0:0:0:0:
256,192,35334,1,0,0:0:0:0:
329,192,35384,1,0,0:0:0:0:
109,192,35434,1,0,0:0:0:0:
182,192,35434,1,0,0:0:0:0:
402,192,35434,1,0,0:0:0:0:
475,192,35434,1,0,0:0:0:0:
36,192,35634,1,0,0:0:0:0:
109,192,35634,1,0,0:0:0:0:
329,192,35634,1,0,0:0:0:0:
475,192,35834,1,0,0:0:0:0:
402,192,35834,1,0,0:0:0:0:
182,192,35834,1,0,0:0:0:0:
109,192,36034,1,0,0:0:0:0:
475,192,36034,1,0,0:0:0:0:
36,192,36034,1,0,0:0:0:0:
402,192,36084,1,0,0:0:0:0:
329,192,36134,1,0,0:0:0:0:
182,192,36134,1,0,0:0:0:0:
256,192,36234,1,0,0:0:0:0:
36,192,36234,1,0,0:0:0:0:
475,192,36234,1,0,0:0:0:0:
109,192,36334,1,0,0:0:0:0:
329,192,36334,1,0,0:0:0:0:
182,192,36334,1,0,0:0:0:0:
402,192,36384,1,0,0:0:0:0:
475,192,36434,1,0,0:0:0:0:
36,192,36434,1,0,0:0:0:0:
109,192,36484,1,0,0:0:0:0:
182,192,36534,1,0,0:0:0:0:
329,192,36534,1,0,0:0:0:0:
475,192,36634,1,0,0:0:0:0:
256,192,36634,1,0,0:0:0:0:
36,192,36634,1,0,0:0:0:0:
109,192,36834,1,0,0:0:0:0:
475,192,36834,1,0,0:0:0:0:
402,192,36834,1,0,0:0:0:0:
182,192,36884,1,0,0:0:0:0:
256,192,36934,1,0,0:0:0:0:
329,192,36984,1,0,0:0:0:0:
36,192,37034,1,0,0:0:0:0:
109,192,37034,1,0,0:0:0:0:
402,192,37034,1,0,0:0:0:0:
182,192,37234,1,0,0:0:0:0:
402,192,37234,1,0,0:0:0:0:
475,192,37234,1,0,0:0:0:0:
36,192,37434,1,0,0:0:0:0:
329,192,37434,1,0,0:0:0:0:
182,192,37434,1,0,0:0:0:0:
109,192,37534,1,0,0:0:0:0:
402,192,37534,1,0,0:0:0:0:
256,192,37534,1,0,0:0:0:0:
475,192,37634,5,0,0:0:0:0:
182,192,37634,1,0,0:0:0:0:
329,192,37634,1,0,0:0:0:0:
109,192,37834,1,0,0:0:0:0:
36,192,37834,1,0,0:0:0:0:
402,192,37834,1,0,0:0:0:0:
475,192,37834,1,0,0:0:0:0:
256,192,37834,1,0,0:0:0:0:
182,192,38034,128,0,38634:0:0:0:0:
329,192,38034,128,0,38634:0:0:0:0:
109,192,38134,128,0,38534:0:0:0:0:
402,192,38134,128,0,38534:0:0:0:0:
36,192,38234,128,0,38434:0:0:0:0:
475,192,38234,128,0,38434:0:0:0:0:
36,192,38634,1,0,0:0:0:0:
109,192,38634,1,0,0:0:0:0:
256,192,38634,1,0,0:0:0:0:
402,192,38634,1,0,0:0:0:0:
475,192,38634,1,0,0:0:0:0:
182,192,38684,1,0,0:0:0:0:
329,192,38734,1,0,0:0:0:0:
402,192,38784,1,0,0:0:0:0:
109,192,38834,1,0,0:0:0:0:
475,192,38834,1,0,0:0:0:0:
182,192,38884,1,0,0:0:0:0:
256,192,38934,1,0,0:0:0:0:
329,192,38984,1,0,0:0:0:0:
36,192,39034,1,0,0:0:0:0:
402,192,39034,1,0,0:0:0:0:
109,192,39084,1,0,0:0:0:0:
182,192,39134,1,0,0:0:0:0:
256,192,39184,1,0,0:0:0:0:
329,192,39234,1,0,0:0:0:0:
475,192,39234,1,0,0:0:0:0:
182,192,39334,1,0,0:0:0:0:
36,192,39334,1,0,0:0:0:0:
256,192,39434,1,0,0:0:0:0:
475,192,39534,1,0,0:0:0:0:
402,192,39584,1,0,0:0:0:0:
329,192,39634,1,0,0:0:0:0:
36,192,39634,1,0,0:0:0:0:
256,192,39684,1,0,0:0:0:0:
182,192,39734,1,0,0:0:0:0:
109,192,39784,1,0,0:0:0:0:
36,192,39834,1,0,0:0:0:0:
475,192,39859,1,0,0:0:0:0:
402,192,39884,1,0,0:0:0:0:
329,192,39909,1,0,0:0:0:0:
256,192,39934,1,0,0:0:0:0:
182,192,39959,1,0,0:0:0:0:
109,192,39984,1,0,0:0:0:0:
36,192,40009,1,0,0:0:0:0:
475,192,40034,1,0,0:0:0:0:
402,192,40034,1,0,0:0:0:0:
329,192,40134,1,0,0:0:0:0:
256,192,40134,1,0,0:0:0:0:
36,192,40234,1,0,0:0:0:0:
182,192,40234,1,0,0:0:0:0:
256,192,40284,1,0,0:0:0:0:
329,192,40334,1,0,0:0:0:0:
402,192,40384,1,0,0:0:0:0:
475,192,40434,1,0,0:0:0:0:
109,192,40434,1,0,0:0:0:0:
182,192,40484,1,0,0:0:0:0:
256,192,40534,1,0,0:0:0:0:
329,192,40584,1,0,0:0:0:0:
402,192,40634,1,0,0:0:0:0:
36,192,40634,1,0,0:0:0:0:
109,192,40734,1,0,0:0:0:0:
329,192,40734,1,0,0:0:0:0:
182,192,40834,1,0,0:0:0:0:
475,192,40834,1,0,0:0:0:0:
256,192,40884,1,0,0:0:0:0:
329,192,40934,1,0,0:0:0:0:
402,192,40984,1,0,0:0:0:0:
475,192,41034,1,0,0:0:0:0:
36,192,41059,1,0,0:0:0:0:
109,192,41084,1,0,0:0:0:0:
182,192,41109,1,0,0:0:0:0:
256,192,41134,1,0,0:0:0:0:
329,192,41159,1,0,0:0:0:0:
402,192,41184,1,0,0:0:0:0:
475,192,41209,1,0,0:0:0:0:
36,192,41234,1,0,0:0:0:0:
109,192,41234,1,0,0:0:0:0:
182,192,41334,1,0,0:0:0:0:
329,192,41334,1,0,0:0:0:0:
402,192,41434,1,0,0:0:0:0:
475,192,41434,1,0,0:0:0:0:
36,192,41434,1,0,0:0:0:0:
256,192,41534,1,0,0:0:0:0:
109,192,41534,1,0,0:0:0:0:
329,192,41634,1,0,0:0:0:0:
402,192,41634,1,0,0:0:0:0:
475,192,41634,1,0,0:0:0:0:
36,192,41734,1,0,0:0:0:0:
182,192,41734,1,0,0:0:0:0:
256,192,41834,1,0,0:0:0:0:
402,192,41834,1,0,0:0:0:0:
182,192,41884,1,0,0:0:0:0:
109,192,41934,1,0,0:0:0:0:
36,192,41984,1,0,0:0:0:0:
329,192,42034,1,0,0:0:0:0:
475,192,42034,1,0,0:0:0:0:
256,192,42084,1,0,0:0:0:0:
182,192,42134,1,0,0:0:0:0:
109,192,42184,1,0,0:0:0:0:
36,192,42234,1,0,0:0:0:0:
475,192,42259,1,0,0:0:0:0:
402,192,42284,1,0,0:0:0:0:
329,192,42309,1,0,0:0:0:0:
256,192,42334,1,0,0:0:0:0:
182,192,42359,1,0,0:0:0:0:
109,192,42384,1,0,0:0:0:0:
36,192,42409,1,0,0:0:0:0:
475,192,42434,1,0,0:0:0:0:
402,192,42434,1,0,0:0:0:0:
109,192,42534,1,0,0:0:0:0:
182,192,42534,1,0,0:0:0:0:
256,192,42634,1,0,0:0:0:0:
329,192,42634,1,0,0:0:0:0:
36,192,42734,1,0,0:0:0:0:
109,192,42759,1,0,0:0:0:0:
182,192,42784,1,0,0:0:0:0:
256,192,42809,1,0,0:0:0:0:
329,192,42834,1,0,0:0:0:0:
402,192,42859,1,0,0:0:0:0:
475,192,42884,1,0,0:0:0:0:
36,192,42909,1,0,0:0:0:0:
109,192,42934,1,0,0:0:0:0:
182,192,42959,1,0,0:0:0:0:
256,192,42984,1,0,0:0:0:0:
329,192,43009,1,0,0:0:0:0:
402,192,43034,1,0,0:0:0:0:
475,192,43059,1,0,0:0:0:0:
36,192,43084,1,0,0:0:0:0:
109,192,43109,1,0,0:0:0:0:
182,192,43134,1,0,0:0:0:0:
256,192,43159,1,0,0:0:0:0:
329,192,43184,1,0,0:0:0:0:
402,192,43209,1,0,0:0:0:0:
475,192,43234,1,0,0:0:0:0:
36,192,43259,1,0,0:0:0:0:
109,192,43284,1,0,0:0:0:0:
182,192,43309,1,0,0:0:0:0:
256,192,43334,1,0,0:0:0:0:
329,192,43334,1,0,0:0:0:0:
402,192,43384,1,0,0:0:0:0:
36,192,43434,1,0,0:0:0:0:
475,192,43434,1,0,0:0:0:0:
109,192,43434,1,0,0:0:0:0:
182,192,43534,1,0,0:0:0:0:
329,192,43534,1,0,0:0:0:0:
475,192,43634,1,0,0:0:0:0:
256,192,43634,1,0,0:0:0:0:
402,192,43634,1,0,0:0:0:0:
109,192,43734,1,0,0:0:0:0:
36,192,43834,1,0,0:0:0:0:
475,192,43859,1,0,0:0:0:0:
402,192,43884,1,0,0:0:0:0:
329,192,43909,1,0,0:0:0:0:
256,192,43934,1,0,0:0:0:0:
182,192,43959,1,0,0:0:0:0:
109,192,43984,1,0,0:0:0:0:
36,192,44009,1,0,0:0:0:0:
475,192,44034,1,0,0:0:0:0:
402,192,44034,1,0,0:0:0:0:
182,192,44134,1,0,0:0:0:0:
256,192,44134,1,0,0:0:0:0:
329,192,44234,1,0,0:0:0:0:
36,192,44234,1,0,0:0:0:0:
109,192,44284,1,0,0:0:0:0:
182,192,44334,1,0,0:0:0:0:
475,192,44334,1,0,0:0:0:0:
256,192,44384,1,0,0:0:0:0:
36,192,44434,1,0,0:0:0:0:
329,192,44434,1,0,0:0:0:0:
402,192,44484,1,0,0:0:0:0:
475,192,44534,1,0,0:0:0:0:
109,192,44534,1,0,0:0:0:0:
182,192,44634,1,0,0:0:0:0:
402,192,44734,1,0,0:0:0:0:
329,192,44734,1,0,0:0:0:0:
475,192,44834,1,0,0:0:0:0:
36,192,44859,1,0,0:0:0:0:
109,192,44884,1,0,0:0:0:0:
182,192,44909,1,0,0:0:0:0:
256,192,44934,1,0,0:0:0:0:
329,192,44959,1,0,0:0:0:0:
402,192,44984,1,0,0:0:0:0:
475,192,45009,1,0,0:0:0:0:
36,192,45034,1,0,0:0:0:0:
109,192,45034,1,0,0:0:0:0:
182,192,45034,1,0,0:0:0:0:
256,192,45134,1,0,0:0:0:0:
329,192,45134,1,0,0:0:0:0:
402,192,45234,1,0,0:0:0:0:
109,192,45234,1,0,0:0:0:0:
475,192,45234,1,0,0:0:0:0:
256,192,45334,1,0,0:0:0:0:
36,192,45334,1,0,0:0:0:0:
329,192,45434,1,0,0:0:0:0:
182,192,45534,1,0,0:0:0:0:
475,192,45634,1,0,0:0:0:0:
256,192,45634,1,0,0:0:0:0:
36,192,45634,1,0,0:0:0:0:
402,192,45684,1,0,0:0:0:0:
109,192,45734,1,0,0:0:0:0:
329,192,45734,1,0,0:0:0:0:
475,192,45834,1,0,0:0:0:0:
36,192,45934,1,0,0:0:0:0:
109,192,45959,1,0,0:0:0:0:
182,192,45984,1,0,0:0:0:0:
256,192,46009,1,0,0:0:0:0:
329,192,46034,1,0,0:0:0:0:
402,192,46034,1,0,0:0:0:0:
182,192,46134,1,0,0:0:0:0:
36,192,46234,1,0,0:0:0:0:
475,192,46259,1,0,0:0:0:0:
402,192,46284,1,0,0:0:0:0:
329,192,46309,1,0,0:0:0:0:
256,192,46334,1,0,0:0:0:0:
182,192,46359,1,0,0:0:0:0:
109,192,46384,1,0,0:0:0:0:
36,192,46409,1,0,0:0:0:0:
475,192,46434,1,0,0:0:0:0:
402,192,46434,1,0,0:0:0:0:
329,192,46534,1,0,0:0:0:0:
256,192,46559,1,0,0:0:0:0:
182,192,46584,1,0,0:0:0:0:
109,192,46609,1,0,0:0:0:0:
36,192,46634,1,0,0:0:0:0:
475,192,46634,1,0,0:0:0:0:
256,192,46734,1,0,0:0:0:0:
402,192,46834,1,0,0:0:0:0:
109,192,46834,1,0,0:0:0:0:
329,192,46884,1,0,0:0:0:0:
256,192,46934,1,0,0:0:0:0:
182,192,46984,1,0,0:0:0:0:
109,192,47034,1,0,0:0:0:0:
36,192,47034,1,0,0:0:0:0:
475,192,47134,1,0,0:0:0:0:
402,192,47159,1,0,0:0:0:0:
329,192,47184,1,0,0:0:0:0:
256,192,47209,1,0,0:0:0:0:
109,192,47234,1,0,0:0:0:0:
36,192,47234,1,0,0:0:0:0:
182,192,47284,1,0,0:0:0:0:
329,192,47334,1,0,0:0:0:0:
402,192,47384,1,0,0:0:0:0:
475,192,47434,1,0,0:0:0:0:
36,192,47459,1,0,0:0:0:0:
109,192,47484,1,0,0:0:0:0:
182,192,47509,1,0,0:0:0:0:
256,192,47534,1,0,0:0:0:0:
329,192,47559,1,0,0:0:0:0:
402,192,47584,1,0,0:0:0:0:
475,192,47609,1,0,0:0:0:0:
36,192,47634,1,0,0:0:0:0:
109,192,47634,1,0,0:0:0:0:
182,192,47734,1,0,0:0:0:0:
329,192,47734,1,0,0:0:0:0:
256,192,47834,1,0,0:0:0:0:
475,192,47834,1,0,0:0:0:0:
36,192,47834,1,0,0:0:0:0:
402,192,47934,1,0,0:0:0:0:
109,192,47934,1,0,0:0:0:0:
182,192,48034,1,0,0:0:0:0:
36,192,48034,1,0,0:0:0:0:
256,192,48084,1,0,0:0:0:0:
329,192,48134,1,0,0:0:0:0:
402,192,48184,1,0,0:0:0:0:
475,192,48234,1,0,0:0:0:0:
109,192,48234,1,0,0:0:0:0:
182,192,48234,1,0,0:0:0:0:
256,192,48334,1,0,0:0:0:0:
36,192,48334,1,0,0:0:0:0:
329,192,48384,1,0,0:0:0:0:
182,192,48434,1,0,0:0:0:0:
402,192,48434,1,0,0:0:0:0:
475,192,48534,1,0,0:0:0:0:
36,192,48559,1,0,0:0:0:0:
109,192,48584,1,0,0:0:0:0:
182,192,48609,1,0,0:0:0:0:
256,192,48634,1,0,0:0:0:0:
329,192,48659,1,0,0:0:0:0:
402,192,48684,1,0,0:0:0:0:
475,192,48709,1,0,0:0:0:0:
109,192,48734,1,0,0:0:0:0:
36,192,48734,1,0,0:0:0:0:
182,192,48784,1,0,0:0:0:0:
475,192,48834,1,0,0:0:0:0:
402,192,48859,1,0,0:0:0:0:
329,192,48884,1,0,0:0:0:0:
256,192,48909,1,0,0:0:0:0:
182,192,48934,1,0,0:0:0:0:
109,192,48959,1,0,0:0:0:0:
36,192,48984,1,0,0:0:0:0:
475,192,49009,1,0,0:0:0:0:
402,192,49034,1,0,0:0:0:0:
329,192,49034,1,0,0:0:0:0:
256,192,49134,1,0,0:0:0:0:
182,192,49134,1,0,0:0:0:0:
475,192,49234,1,0,0:0:0:0:
402,192,49259,1,0,0:0:0:0:
329,192,49284,1,0,0:0:0:0:
256,192,49309,1,0,0:0:0:0:
182,192,49334,1,0,0:0:0:0:
109,192,49334,1,0,0:0:0:0:
36,192,49434,1,0,0:0:0:0:
182,192,49534,1,0,0:0:0:0:
329,192,49534,1,0,0:0:0:0:
475,192,49634,1,0,0:0:0:0:
36,192,49634,1,0,0:0:0:0:
402,192,49684,1,0,0:0:0:0:
329,192,49734,1,0,0:0:0:0:
109,192,49734,1,0,0:0:0:0:
256,192,49784,1,0,0:0:0:0:
182,192,49834,1,0,0:0:0:0:
475,192,49834,1,0,0:0:0:0:
36,192,49934,1,0,0:0:0:0:
329,192,49934,1,0,0:0:0:0:
109,192,49984,1,0,0:0:0:0:
182,192,50034,1,0,0:0:0:0:
475,192,50059,1,0,0:0:0:0:
402,192,50084,1,0,0:0:0:0:
329,192,50109,1,0,0:0:0:0:
256,192,50134,1,0,0:0:0:0:
182,192,50159,1,0,0:0:0:0:
109,192,50184,1,0,0:0:0:0:
36,192,50209,1,0,0:0:0:0:
475,192,50234,1,0,0:0:0:0:
402,192,50259,1,0,0:0:0:0:
329,192,50284,1,0,0:0:0:0:
256,192,50309,1,0,0:0:0:0:
182,192,50334,1,0,0:0:0:0:
109,192,50359,1,0,0:0:0:0:
36,192,50384,1,0,0:0:0:0:
475,192,50409,1,0,0:0:0:0:
402,192,50434,1,0,0:0:0:0:
329,192,50434,1,0,0:0:0:0:
256,192,50534,1,0,0:0:0:0:
182,192,50534,1,0,0:0:0:0:
36,192,50634,128,0,51434:0:0:0:0:
475,192,50634,128,0,51434:0:0:0:0:
109,192,50634,1,0,0:0:0:0:
329,192,50634,1,0,0:0:0:0:
402,192,50634,1,0,0:0:0:0:
182,192,50834,1,0,0:0:0:0:
329,192,51034,1,0,0:0:0:0:
182,192,51234,1,0,0:0:0:0:
329,192,51434,128,0,53034:0:0:0:0:
402,192,51434,1,0,0:0:0:0:
256,192,51434,1,0,0:0:0:0:
109,192,51434,1,0,0:0:0:0:
36,192,51634,1,0,0:0:0:0:
475,192,51834,1,0,0:0:0:0:
182,192,52034,1,0,0:0:0:0:
402,192,52234,1,0,0:0:0:0:
109,192,52434,1,0,0:0:0:0:
256,192,52634,1,0,0:0:0:0:
36,192,52834,1,0,0:0:0:0:
182,192,53034,128,0,54634:0:0:0:0:
475,192,53034,1,0,0:0:0:0:
256,192,53034,1,0,0:0:0:0:
109,192,53234,1,0,0:0:0:0:
402,192,53434,1,0,0:0:0:0:
36,192,53634,1,0,0:0:0:0:
329,192,53834,1,0,0:0:0:0:
109,192,54034,1,0,0:0:0:0:
402,192,54234,1,0,0:0:0:0:
256,192,54434,1,0,0:0:0:0:
402,192,54634,128,0,56234:0:0:0:0:
36,192,54634,1,0,0:0:0:0:
475,192,54634,1,0,0:0:0:0:
182,192,54834,1,0,0:0:0:0:
329,192,55034,1,0,0:0:0:0:
109,192,55234,1,0,0:0:0:0:
256,192,55434,1,0,0:0:0:0:
36,192,55634,1,0,0:0:0:0:
475,192,55834,1,0,0:0:0:0:
256,192,56034,1,0,0:0:0:0:
109,192,56234,128,0,57834:0:0:0:0:
36,192,56234,1,0,0:0:0:0:
475,192,56234,1,0,0:0:0:0:
329,192,56434,1,0,0:0:0:0:
182,192,56634,1,0,0:0:0:0:
402,192,56834,1,0,0:0:0:0:
256,192,57034,1,0,0:0:0:0:
475,192,57234,1,0,0:0:0:0:
36,192,57434,1,0,0:0:0:0:
329,192,57634,1,0,0:0:0:0:
475,192,57834,128,0,59434:0:0:0:0:
36,192,57834,1,0,0:0:0:0:
402,192,57834,1,0,0:0:0:0:
182,192,58034,1,0,0:0:0:0:
329,192,58234,1,0,0:0:0:0:
109,192,58434,1,0,0:0:0:0:
256,192,58634,1,0,0:0:0:0:
36,192,58834,1,0,0:0:0:0:
182,192,59034,1,0,0:0:0:0:
329,192,59234,1,0,0:0:0:0:
256,192,59434,128,0,61034:0:0:0:0:
36,192,59434,1,0,0:0:0:0:
402,192,59434,1,0,0:0:0:0:
182,192,59634,1,0,0:0:0:0:
475,192,59834,1,0,0:0:0:0:
109,192,60034,1,0,0:0:0:0:
402,192,60234,1,0,0:0:0:0:
36,192,60434,1,0,0:0:0:0:
329,192,60634,1,0,0:0:0:0:
182,192,60834,1,0,0:0:0:0:
36,192,61034,128,0,62634:0:0:0:0:
109,192,61034,1,0,0:0:0:0:
475,192,61034,1,0,0:0:0:0:
329,192,61234,1,0,0:0:0:0:
402,192,61434,1,0,0:0:0:0:
256,192,61634,1,0,0:0:0:0:
329,192,61834,1,0,0:0:0:0:
182,192,62034,1,0,0:0:0:0:
256,192,62234,1,0,0:0:0:0:
109,192,62434,1,0,0:0:0:0:
256,192,62634,128,0,64234:0:0:0:0:
475,192,62634,1,0,0:0:0:0:
182,192,62634,1,0,0:0:0:0:
109,192,62834,1,0,0:0:0:0:
402,192,63034,1,0,0:0:0:0:
36,192,63234,1,0,0:0:0:0:
329,192,63434,1,0,0:0:0:0:
109,192,63634,1,0,0:0:0:0:
402,192,63834,1,0,0:0:0:0:
182,192,64034,1,0,0:0:0:0:
36,192,69834,132,0,70634:0:0:0:0:
475,192,69834,128,0,70634:0:0:0:0:
182,192,70634,1,0,0:0:0:0:
109,192,70634,1,0,0:0:0:0:
402,192,70634,1,0,0:0:0:0:
256,192,70634,1,0,0:0:0:0:
329,192,70634,128,0,72234:0:0:0:0:
182,192,70834,1,0,0:0:0:0:
36,192,70934,1,0,0:0:0:0:
256,192,71134,1,0,0:0:0:0:
109,192,71234,1,0,0:0:0:0:
402,192,71334,1,0,0:0:0:0:
475,192,71534,1,0,0:0:0:0:
182,192,71634,1,0,0:0:0:0:
36,192,71734,1,0,0:0:0:0:
256,192,71834,1,0,0:0:0:0:
475,192,71934,1,0,0:0:0:0:
402,192,72034,1,0,0:0:0:0:
182,192,72134,1,0,0:0:0:0:
36,192,72234,128,0,73834:0:0:0:0:
109,192,72234,1,0,0:0:0:0:
329,192,72434,1,0,0:0:0:0:
182,192,72534,1,0,0:0:0:0:
402,192,72734,1,0,0:0:0:0:
256,192,72834,1,0,0:0:0:0:
475,192,72934,1,0,0:0:0:0:
329,192,73134,1,0,0:0:0:0:
182,192,73234,1,0,0:0:0:0:
109,192,73334,1,0,0:0:0:0:
402,192,73434,1,0,0:0:0:0:
256,192,73534,1,0,0:0:0:0:
182,192,73634,1,0,0:0:0:0:
329,192,73734,1,0,0:0:0:0:
475,192,73834,128,0,75434:0:0:0:0:
402,192,73834,1,0,0:0:0:0:
182,192,74034,1,0,0:0:0:0:
329,192,74134,1,0,0:0:0:0:
109,192,74334,1,0,0:0:0:0:
256,192,74434,1,0,0:0:0:0:
36,192,74534,1,0,0:0:0:0:
182,192,74734,1,0,0:0:0:0:
329,192,74834,1,0,0:0:0:0:
402,192,74934,1,0,0:0:0:0:
256,192,75034,1,0,0:0:0:0:
109,192,75134,1,0,0:0:0:0:
182,192,75234,1,0,0:0:0:0:
329,192,75334,1,0,0:0:0:0:
182,192,75434,128,0,77034:0:0:0:0:
36,192,75434,1,0,0:0:0:0:
402,192,75634,1,0,0:0:0:0:
256,192,75734,1,0,0:0:0:0:
475,192,75934,1,0,0:0:0:0:
329,192,76034,1,0,0:0:0:0:
475,192,76134,1,0,0:0:0:0:
329,192,76334,1,0,0:0:0:0:
109,192,76434,1,0,0:0:0:0:
36,192,76534,1,0,0:0:0:0:
256,192,76634,1,0,0:0:0:0:
475,192,76734,1,0,0:0:0:0:
402,192,76834,1,0,0:0:0:0:
329,192,76934,1,0,0:0:0:0:
256,192,77034,1,0,0:0:0:0:
36,192,77034,1,0,0:0:0:0:
109,192,77034,1,0,0:0:0:0:
402,192,77034,1,0,0:0:0:0:
475,192,77034,1,0,0:0:0:0:
182,192,77134,1,0,0:0:0:0:
36,192,77234,1,0,0:0:0:0:
109,192,77284,1,0,0:0:0:0:
182,192,77334,1,0,0:0:0:0:
256,192,77384,1,0,0:0:0:0:
329,192,77434,1,0,0:0:0:0:
402,192,77484,1,0,0:0:0:0:
109,192,77534,1,0,0:0:0:0:
182,192,77584,1,0,0:0:0:0:
256,192,77634,1,0,0:0:0:0:
329,192,77684,1,0,0:0:0:0:
402,192,77734,1,0,0:0:0:0:
475,192,77784,1,0,0:0:0:0:
109,192,77834,1,0,0:0:0:0:
182,192,77884,1,0,0:0:0:0:
256,192,77934,1,0,0:0:0:0:
329,192,77984,1,0,0:0:0:0:
36,192,78034,1,0,0:0:0:0:
109,192,78084,1,0,0:0:0:0:
182,192,78134,1,0,0:0:0:0:
256,192,78184,1,0,0:0:0:0:
402,192,78234,1,0,0:0:0:0:
329,192,78284,1,0,0:0:0:0:
256,192,78334,1,0,0:0:0:0:
182,192,78384,1,0,0:0:0:0:
475,192,78434,1,0,0:0:0:0:
402,192,78484,1,0,0:0:0:0:
329,192,78534,1,0,0:0:0:0:
256,192,78584,1,0,0:0:0:0:
36,192,78634,1,0,0:0:0:0:
182,192,78634,1,0,0:0:0:0:
402,192,78634,1,0,0:0:0:0:
475,192,78634,1,0,0:0:0:0:
329,192,78734,1,0,0:0:0:0:
475,192,78834,1,0,0:0:0:0:
402,192,78884,1,0,0:0:0:0:
329,192,78934,1,0,0:0:0:0:
256,192,78984,1,0,0:0:0:0:
182,192,79034,1,0,0:0:0:0:
109,192,79084,1,0,0:0:0:0:
402,192,79134,1,0,0:0:0:0:
329,192,79184,1,0,0:0:0:0:
256,192,79234,1,0,0:0:0:0:
182,192,79284,1,0,0:0:0:0:
109,192,79334,1,0,0:0:0:0:
36,192,79384,1,0,0:0:0:0:
402,192,79434,1,0,0:0:0:0:
329,192,79484,1,0,0:0:0:0:
256,192,79534,1,0,0:0:0:0:
182,192,79584,1,0,0:0:0:0:
475,192,79634,1,0,0:0:0:0:
402,192,79684,1,0,0:0:0:0:
329,192,79734,1,0,0:0:0:0:
256,192,79784,1,0,0:0:0:0:
109,192,79834,1,0,0:0:0:0:
182,192,79884,1,0,0:0:0:0:
256,192,79934,1,0,0:0:0:0:
329,192,79984,1,0,0:0:0:0:
36,192,80034,1,0,0:0:0:0:
109,192,80084,1,0,0:0:0:0:
182,192,80134,1,0,0:0:0:0:
256,192,80184,1,0,0:0:0:0:
36,192,80234,1,0,0:0:0:0:
109,192,80234,1,0,0:0:0:0:
329,192,80234,1,0,0:0:0:0:
475,192,80234,1,0,0:0:0:0:
256,192,80334,1,0,0:0:0:0:
36,192,80434,1,0,0:0:0:0:
182,192,80434,1,0,0:0:0:0:
475,192,80434,1,0,0:0:0:0:
402,192,80434,1,0,0:0:0:0:
329,192,80534,1,0,0:0:0:0:
109,192,80634,1,0,0:0:0:0:
182,192,80684,1,0,0:0:0:0:
256,192,80734,1,0,0:0:0:0:
329,192,80784,1,0,0:0:0:0:
402,192,80834,1,0,0:0:0:0:
182,192,80884,1,0,0:0:0:0:
256,192,80934,1,0,0:0:0:0:
329,192,80984,1,0,0:0:0:0:
182,192,81034,1,0,0:0:0:0:
36,192,81034,1,0,0:0:0:0:
475,192,81034,1,0,0:0:0:0:
402,192,81034,1,0,0:0:0:0:
256,192,81134,1,0,0:0:0:0:
475,192,81234,1,0,0:0:0:0:
329,192,81234,1,0,0:0:0:0:
36,192,81234,1,0,0:0:0:0:
109,192,81234,1,0,0:0:0:0:
182,192,81334,1,0,0:0:0:0:
402,192,81434,1,0,0:0:0:0:
329,192,81484,1,0,0:0:0:0:
256,192,81534,1,0,0:0:0:0:
182,192,81584,1,0,0:0:0:0:
109,192,81634,1,0,0:0:0:0:
329,192,81684,1,0,0:0:0:0:
256,192,81734,1,0,0:0:0:0:
182,192,81784,1,0,0:0:0:0:
109,192,81834,1,0,0:0:0:0:
36,192,81834,1,0,0:0:0:0:
475,192,81834,1,0,0:0:0:0:
402,192,81884,1,0,0:0:0:0:
329,192,81934,1,0,0:0:0:0:
256,192,81984,1,0,0:0:0:0:
182,192,82034,1,0,0:0:0:0:
36,192,82034,1,0,0:0:0:0:
475,192,82084,1,0,0:0:0:0:
402,192,82134,1,0,0:0:0:0:
329,192,82184,1,0,0:0:0:0:
256,192,82234,1,0,0:0:0:0:
36,192,82234,1,0,0:0:0:0:
109,192,82284,1,0,0:0:0:0:
182,192,82334,1,0,0:0:0:0:
256,192,82384,1,0,0:0:0:0:
329,192,82434,1,0,0:0:0:0:
475,192,82434,1,0,0:0:0:0:
36,192,82484,1,0,0:0:0:0:
109,192,82534,1,0,0:0:0:0:
182,192,82584,1,0,0:0:0:0:
256,192,82634,5,0,0:0:0:0:
256,192,83034,5,0,0:0:0:0:
256,192,83234,1,0,0:0:0:0:
36,192,83434,1,0,0:0:0:0:
109,192,83434,1,0,0:0:0:0:
256,192,83434,1,0,0:0:0:0:
402,192,83434,1,0,0:0:0:0:
475,192,83434,1,0,0:0:0:0:
182,192,83534,1,0,0:0:0:0:
329,192,83534,1,0,0:0:0:0:
36,192,83634,1,0,0:0:0:0:
475,192,83634,1,0,0:0:0:0:
256,192,83634,1,0,0:0:0:0:
402,192,83734,1,0,0:0:0:0:
109,192,83734,1,0,0:0:0:0:
182,192,83834,1,0,0:0:0:0:
329,192,83834,1,0,0:0:0:0:
475,192,83934,1,0,0:0:0:0:
256,192,83934,1,0,0:0:0:0:
109,192,84034,1,0,0:0:0:0:
329,192,84034,1,0,0:0:0:0:
36,192,84034,1,0,0:0:0:0:
182,192,84134,1,0,0:0:0:0:
402,192,84134,1,0,0:0:0:0:
256,192,84234,1,0,0:0:0:0:
36,192,84234,1,0,0:0:0:0:
329,192,84334,1,0,0:0:0:0:
475,192,84334,1,0,0:0:0:0:
36,192,84434,1,0,0:0:0:0:
402,192,84434,1,0,0:0:0:0:
109,192,84434,1,0,0:0:0:0:
256,192,84534,1,0,0:0:0:0:
182,192,84534,1,0,0:0:0:0:
475,192,84634,1,0,0:0:0:0:
402,192,84634,1,0,0:0:0:0:
329,192,84684,1,0,0:0:0:0:
256,192,84734,1,0,0:0:0:0:
182,192,84784,1,0,0:0:0:0:
475,192,84834,1,0,0:0:0:0:
36,192,84834,1,0,0:0:0:0:
402,192,84884,1,0,0:0:0:0:
329,192,84934,1,0,0:0:0:0:
256,192,84984,1,0,0:0:0:0:
182,192,85034,1,0,0:0:0:0:
109,192,85034,1,0,0:0:0:0:
329,192,85134,1,0,0:0:0:0:
402,192,85134,1,0,0:0:0:0:
36,192,85234,1,0,0:0:0:0:
182,192,85234,1,0,0:0:0:0:
475,192,85234,1,0,0:0:0:0:
402,192,85334,1,0,0:0:0:0:
256,192,85334,1,0,0:0:0:0:
109,192,85434,1,0,0:0:0:0:
182,192,85434,1,0,0:0:0:0:
475,192,85534,1,0,0:0:0:0:
329,192,85534,1,0,0:0:0:0:
109,192,85634,1,0,0:0:0:0:
256,192,85634,1,0,0:0:0:0:
36,192,85634,1,0,0:0:0:0:
475,192,85734,1,0,0:0:0:0:
402,192,85734,1,0,0:0:0:0:
182,192,85834,1,0,0:0:0:0:
36,192,85834,1,0,0:0:0:0:
256,192,85884,1,0,0:0:0:0:
329,192,85934,1,0,0:0:0:0:
402,192,85984,1,0,0:0:0:0:
109,192,86034,1,0,0:0:0:0:
475,192,86034,1,0,0:0:0:0:
182,192,86084,1,0,0:0:0:0:
256,192,86134,1,0,0:0:0:0:
329,192,86184,1,0,0:0:0:0:
36,192,86234,1,0,0:0:0:0:
109,192,86259,1,0,0:0:0:0:
182,192,86284,1,0,0:0:0:0:
256,192,86309,1,0,0:0:0:0:
329,192,86334,1,0,0:0:0:0:
402,192,86359,1,0,0:0:0:0:
475,192,86384,1,0,0:0:0:0:
36,192,86409,1,0,0:0:0:0:
109,192,86434,1,0,0:0:0:0:
182,192,86459,1,0,0:0:0:0:
256,192,86484,1,0,0:0:0:0:
329,192,86509,1,0,0:0:0:0:
402,192,86534,1,0,0:0:0:0:
475,192,86559,1,0,0:0:0:0:
36,192,86584,1,0,0:0:0:0:
109,192,86609,1,0,0:0:0:0:
182,192,86634,1,0,0:0:0:0:
256,192,86634,1,0,0:0:0:0:
36,192,86734,1,0,0:0:0:0:
329,192,86734,1,0,0:0:0:0:
182,192,86834,1,0,0:0:0:0:
475,192,86834,1,0,0:0:0:0:
402,192,86834,1,0,0:0:0:0:
109,192,86934,1,0,0:0:0:0:
329,192,86934,1,0,0:0:0:0:
36,192,87034,1,0,0:0:0:0:
256,192,87034,1,0,0:0:0:0:
402,192,87134,1,0,0:0:0:0:
475,192,87134,1,0,0:0:0:0:
182,192,87234,1,0,0:0:0:0:
329,192,87234,1,0,0:0:0:0:
109,192,87234,1,0,0:0:0:0:
256,192,87334,1,0,0:0:0:0:
402,192,87334,1,0,0:0:0:0:
36,192,87434,1,0,0:0:0:0:
109,192,87434,1,0,0:0:0:0:
475,192,87534,1,0,0:0:0:0:
329,192,87534,1,0,0:0:0:0:
256,192,87634,1,0,0:0:0:0:
36,192,87634,1,0,0:0:0:0:
402,192,87634,1,0,0:0:0:0:
329,192,87734,1,0,0:0:0:0:
109,192,87734,1,0,0:0:0:0:
182,192,87834,1,0,0:0:0:0:
475,192,87834,1,0,0:0:0:0:
36,192,87934,1,0,0:0:0:0:
256,192,87934,1,0,0:0:0:0:
402,192,88034,1,0,0:0:0:0:
109,192,88034,1,0,0:0:0:0:
475,192,88034,1,0,0:0:0:0:
329,192,88134,1,0,0:0:0:0:
182,192,88134,1,0,0:0:0:0:
256,192,88234,1,0,0:0:0:0:
109,192,88234,1,0,0:0:0:0:
329,192,88284,1,0,0:0:0:0:
402,192,88334,1,0,0:0:0:0:
475,192,88384,1,0,0:0:0:0:
182,192,88434,1,0,0:0:0:0:
36,192,88434,1,0,0:0:0:0:
256,192,88484,1,0,0:0:0:0:
329,192,88534,1,0,0:0:0:0:
402,192,88584,1,0,0:0:0:0:
109,192,88634,1,0,0:0:0:0:
475,192,88634,1,0,0:0:0:0:
182,192,88684,1,0,0:0:0:0:
256,192,88734,1,0,0:0:0:0:
329,192,88784,1,0,0:0:0:0:
36,192,88834,1,0,0:0:0:0:
402,192,88834,1,0,0:0:0:0:
109,192,88884,1,0,0:0:0:0:
182,192,88934,1,0,0:0:0:0:
256,192,88984,1,0,0:0:0:0:
475,192,89034,1,0,0:0:0:0:
402,192,89059,1,0,0:0:0:0:
329,192,89084,1,0,0:0:0:0:
256,192,89109,1,0,0:0:0:0:
182,192,89134,1,0,0:0:0:0:
109,192,89159,1,0,0:0:0:0:
36,192,89184,1,0,0:0:0:0:
475,192,89209,1,0,0:0:0:0:
402,192,89234,1,0,0:0:0:0:
329,192,89259,1,0,0:0:0:0:
256,192,89284,1,0,0:0:0:0:
182,192,89309,1,0,0:0:0:0:
109,192,89334,1,0,0:0:0:0:
36,192,89359,1,0,0:0:0:0:
475,192,89384,1,0,0:0:0:0:
402,192,89409,1,0,0:0:0:0:
329,192,89434,128,0,89534:0:0:0:0:
256,192,89534,128,0,89634:0:0:0:0:
182,192,89634,128,0,89734:0:0:0:0:
109,192,89734,128,0,89834:0:0:0:0:
36,192,89834,1,0,0:0:0:0:
256,192,89834,1,0,0:0:0:0:
329,192,89834,1,0,0:0:0:0:
475,192,89834,1,0,0:0:0:0:
402,192,89834,1,0,0:0:0:0:
182,192,89934,1,0,0:0:0:0:
109,192,89934,1,0,0:0:0:0:
475,192,90034,1,0,0:0:0:0:
329,192,90034,1,0,0:0:0:0:
256,192,90034,1,0,0:0:0:0:
182,192,90134,1,0,0:0:0:0:
36,192,90134,1,0,0:0:0:0:
109,192,90234,1,0,0:0:0:0:
402,192,90234,1,0,0:0:0:0:
256,192,90334,1,0,0:0:0:0:
475,192,90334,1,0,0:0:0:0:
36,192,90434,1,0,0:0:0:0:
329,192,90434,1,0,0:0:0:0:
182,192,90434,1,0,0:0:0:0:
475,192,90534,1,0,0:0:0:0:
402,192,90534,1,0,0:0:0:0:
256,192,90634,1,0,0:0:0:0:
109,192,90634,1,0,0:0:0:0:
329,192,90734,1,0,0:0:0:0:
402,192,90734,1,0,0:0:0:0:
475,192,90834,1,0,0:0:0:0:
36,192,90834,1,0,0:0:0:0:
182,192,90834,1,0,0:0:0:0:
256,192,90934,1,0,0:0:0:0:
329,192,90934,1,0,0:0:0:0:
109,192,91034,1,0,0:0:0:0:
36,192,91034,1,0,0:0:0:0:
182,192,91084,1,0,0:0:0:0:
256,192,91134,1,0,0:0:0:0:
329,192,91184,1,0,0:0:0:0:
402,192,91234,1,0,0:0:0:0:
36,192,91234,1,0,0:0:0:0:
109,192,91284,1,0,0:0:0:0:
182,192,91334,1,0,0:0:0:0:
256,192,91384,1,0,0:0:0:0:
329,192,91434,1,0,0:0:0:0:
475,192,91434,1,0,0:0:0:0:
182,192,91534,1,0,0:0:0:0:
402,192,91534,1,0,0:0:0:0:
36,192,91634,1,0,0:0:0:0:
256,192,91634,1,0,0:0:0:0:
475,192,91634,1,0,0:0:0:0:
109,192,91734,1,0,0:0:0:0:
329,192,91734,1,0,0:0:0:0:
182,192,91834,1,0,0:0:0:0:
475,192,91834,1,0,0:0:0:0:
256,192,91934,1,0,0:0:0:0:
402,192,91934,1,0,0:0:0:0:
36,192,92034,1,0,0:0:0:0:
329,192,92034,1,0,0:0:0:0:
109,192,92034,1,0,0:0:0:0:
182,192,92134,1,0,0:0:0:0:
256,192,92134,1,0,0:0:0:0:
475,192,92234,1,0,0:0:0:0:
402,192,92234,1,0,0:0:0:0:
329,192,92284,1,0,0:0:0:0:
256,192,92334,1,0,0:0:0:0:
182,192,92384,1,0,0:0:0:0:
475,192,92434,1,0,0:0:0:0:
109,192,92434,1,0,0:0:0:0:
402,192,92484,1,0,0:0:0:0:
329,192,92534,1,0,0:0:0:0:
256,192,92584,1,0,0:0:0:0:
36,192,92634,1,0,0:0:0:0:
109,192,92659,1,0,0:0:0:0:
182,192,92684,1,0,0:0:0:0:
256,192,92709,1,0,0:0:0:0:
329,192,92734,1,0,0:0:0:0:
402,192,92759,1,0,0:0:0:0:
475,192,92784,1,0,0:0:0:0:
36,192,92809,1,0,0:0:0:0:
109,192,92834,1,0,0:0:0:0:
182,192,92859,1,0,0:0:0:0:
256,192,92884,1,0,0:0:0:0:
329,192,92909,1,0,0:0:0:0:
402,192,92934,1,0,0:0:0:0:
475,192,92959,1,0,0:0:0:0:
36,192,92984,1,0,0:0:0:0:
109,192,93009,1,0,0:0:0:0:
182,192,93034,1,0,0:0:0:0:
256,192,93034,1,0,0:0:0:0:
329,192,93034,1,0,0:0:0:0:
36,192,93134,1,0,0:0:0:0:
402,192,93134,1,0,0:0:0:0:
475,192,93234,1,0,0:0:0:0:
109,192,93234,1,0,0:0:0:0:
329,192,93234,1,0,0:0:0:0:
182,192,93334,1,0,0:0:0:0:
256,192,93334,1,0,0:0:0:0:
329,192,93434,1,0,0:0:0:0:
36,192,93434,1,0,0:0:0:0:
182,192,93534,1,0,0:0:0:0:
402,192,93534,1,0,0:0:0:0:
109,192,93634,1,0,0:0:0:0:
329,192,93634,1,0,0:0:0:0:
475,192,93634,1,0,0:0:0:0:
256,192,93734,1,0,0:0:0:0:
402,192,93734,1,0,0:0:0:0:
182,192,93834,1,0,0:0:0:0:
36,192,93834,1,0,0:0:0:0:
329,192,93934,1,0,0:0:0:0:
475,192,93934,1,0,0:0:0:0:
256,192,94034,1,0,0:0:0:0:
109,192,94034,1,0,0:0:0:0:
182,192,94034,1,0,0:0:0:0:
36,192,94134,1,0,0:0:0:0:
402,192,94134,1,0,0:0:0:0:
182,192,94234,1,0,0:0:0:0:
329,192,94234,1,0,0:0:0:0:
109,192,94334,1,0,0:0:0:0:
475,192,94334,1,0,0:0:0:0:
402,192,94434,1,0,0:0:0:0:
256,192,94434,1,0,0:0:0:0:
36,192,94434,1,0,0:0:0:0:
182,192,94534,1,0,0:0:0:0:
329,192,94534,1,0,0:0:0:0:
109,192,94634,1,0,0:0:0:0:
36,192,94634,1,0,0:0:0:0:
402,192,94634,1,0,0:0:0:0:
475,192,94634,1,0,0:0:0:0:
329,192,94684,1,0,0:0:0:0:
256,192,94734,1,0,0:0:0:0:
182,192,94784,1,0,0:0:0:0:
109,192,94834,1,0,0:0:0:0:
475,192,94834,1,0,0:0:0:0:
402,192,94884,1,0,0:0:0:0:
329,192,94934,1,0,0:0:0:0:
256,192,94984,1,0,0:0:0:0:
36,192,95034,1,0,0:0:0:0:
109,192,95034,1,0,0:0:0:0:
182,192,95084,1,0,0:0:0:0:
256,192,95134,1,0,0:0:0:0:
329,192,95184,1,0,0:0:0:0:
36,192,95234,1,0,0:0:0:0:
402,192,95234,1,0,0:0:0:0:
109,192,95284,1,0,0:0:0:0:
182,192,95334,1,0,0:0:0:0:
256,192,95384,1,0,0:0:0:0:
36,192,95434,128,0,95834:0:0:0:0:
329,192,95434,1,0,0:0:0:0:
475,192,95434,1,0,0:0:0:0:
402,192,95434,1,0,0:0:0:0:
109,192,95534,128,0,95834:0:0:0:0:
182,192,95634,128,0,95834:0:0:0:0:
256,192,95734,128,0,95834:0:0:0:0:
329,192,95834,5,0,0:0:0:0:
256,192,95934,1,0,0:0:0:0:
402,192,95934,1,0,0:0:0:0:
109,192,96034,1,0,0:0:0:0:
475,192,96034,1,0,0:0:0:0:
36,192,96034,1,0,0:0:0:0:
182,192,96084,1,0,0:0:0:0:
256,192,96134,1,0,0:0:0:0:
329,192,96184,1,0,0:0:0:0:
36,192,96234,5,0,0:0:0:0:
109,192,96234,1,0,0:0:0:0:
182,192,96234,1,0,0:0:0:0:
402,192,96234,1,0,0:0:0:0:
475,192,96234,1,0,0:0:0:0:
329,192,96334,1,0,0:0:0:0:
256,192,96334,1,0,0:0:0:0:
109,192,96434,1,0,0:0:0:0:
475,192,96434,1,0,0:0:0:0:
36,192,96434,1,0,0:0:0:0:
402,192,96484,1,0,0:0:0:0:
329,192,96534,1,0,0:0:0:0:
182,192,96534,1,0,0:0:0:0:
109,192,96584,1,0,0:0:0:0:
475,192,96634,1,0,0:0:0:0:
256,192,96634,1,0,0:0:0:0:
36,192,96634,1,0,0:0:0:0:
182,192,96734,1,0,0:0:0:0:
402,192,96734,1,0,0:0:0:0:
109,192,96834,1,0,0:0:0:0:
475,192,96834,1,0,0:0:0:0:
329,192,96834,1,0,0:0:0:0:
182,192,96934,1,0,0:0:0:0:
402,192,96934,1,0,0:0:0:0:
36,192,97034,1,0,0:0:0:0:
256,192,97034,1,0,0:0:0:0:
475,192,97034,1,0,0:0:0:0:
109,192,97084,1,0,0:0:0:0:
182,192,97134,1,0,0:0:0:0:
329,192,97134,1,0,0:0:0:0:
402,192,97184,1,0,0:0:0:0:
256,192,97234,1,0,0:0:0:0:
475,192,97234,1,0,0:0:0:0:
36,192,97234,1,0,0:0:0:0:
109,192,97284,1,0,0:0:0:0:
182,192,97334,1,0,0:0:0:0:
329,192,97334,1,0,0:0:0:0:
36,192,97434,1,0,0:0:0:0:
402,192,97434,1,0,0:0:0:0:
475,192,97434,1,0,0:0:0:0:
256,192,97534,1,0,0:0:0:0:
109,192,97534,1,0,0:0:0:0:
402,192,97634,1,0,0:0:0:0:
182,192,97634,1,0,0:0:0:0:
329,192,97634,1,0,0:0:0:0:
109,192,97734,1,0,0:0:0:0:
475,192,97734,1,0,0:0:0:0:
36,192,97834,1,0,0:0:0:0:
256,192,97834,1,0,0:0:0:0:
402,192,97834,1,0,0:0:0:0:
329,192,97934,1,0,0:0:0:0:
182,192,97934,1,0,0:0:0:0:
109,192,98034,1,0,0:0:0:0:
256,192,98034,1,0,0:0:0:0:
475,192,98034,1,0,0:0:0:0:
182,192,98134,1,0,0:0:0:0:
402,192,98134,1,0,0:0:0:0:
36,192,98234,1,0,0:0:0:0:
329,192,98234,1,0,0:0:0:0:
109,192,98234,1,0,0:0:0:0:
402,192,98284,1,0,0:0:0:0:
182,192,98334,1,0,0:0:0:0:
475,192,98334,1,0,0:0:0:0:
256,192,98384,1,0,0:0:0:0:
329,192,98434,1,0,0:0:0:0:
36,192,98434,1,0,0:0:0:0:
402,192,98434,1,0,0:0:0:0:
182,192,98534,1,0,0:0:0:0:
256,192,98534,1,0,0:0:0:0:
109,192,98584,1,0,0:0:0:0:
329,192,98634,1,0,0:0:0:0:
36,192,98634,1,0,0:0:0:0:
402,192,98634,1,0,0:0:0:0:
256,192,98684,1,0,0:0:0:0:
475,192,98734,1,0,0:0:0:0:
182,192,98734,1,0,0:0:0:0:
402,192,98784,1,0,0:0:0:0:
329,192,98834,1,0,0:0:0:0:
109,192,98834,1,0,0:0:0:0:
36,192,98834,1,0,0:0:0:0:
402,192,98934,1,0,0:0:0:0:
182,192,98934,1,0,0:0:0:0:
475,192,99034,1,0,0:0:0:0:
256,192,99034,1,0,0:0:0:0:
36,192,99034,1,0,0:0:0:0:
182,192,99134,1,0,0:0:0:0:
329,192,99134,1,0,0:0:0:0:
109,192,99234,1,0,0:0:0:0:
475,192,99234,1,0,0:0:0:0:
402,192,99234,1,0,0:0:0:0:
182,192,99334,1,0,0:0:0:0:
329,192,99334,1,0,0:0:0:0:
475,192,99434,1,0,0:0:0:0:
256,192,99434,1,0,0:0:0:0:
109,192,99434,1,0,0:0:0:0:
36,192,99434,1,0,0:0:0:0:
182,192,99634,1,0,0:0:0:0:
329,192,99634,1,0,0:0:0:0:
256,192,99834,1,0,0:0:0:0:
36,192,99834,1,0,0:0:0:0:
402,192,99834,1,0,0:0:0:0:
475,192,99834,1,0,0:0:0:0:
182,192,100034,1,0,0:0:0:0:
329,192,100034,1,0,0:0:0:0:
36,192,100234,1,0,0:0:0:0:
109,192,100234,1,0,0:0:0:0:
475,192,100234,1,0,0:0:0:0:
402,192,100234,1,0,0:0:0:0:
256,192,100334,1,0,0:0:0:0:
329,192,100334,1,0,0:0:0:0:
182,192,100334,1,0,0:0:0:0:
36,192,100434,1,0,0:0:0:0:
109,192,100434,1,0,0:0:0:0:
402,192,100434,1,0,0:0:0:0:
475,192,100434,1,0,0:0:0:0:
36,192,100634,1,0,0:0:0:0:
182,192,100634,1,0,0:0:0:0:
329,192,100634,1,0,0:0:0:0:
475,192,100634,1,0,0:0:0:0:
109,192,100834,1,0,0:0:0:0:
402,192,100834,1,0,0:0:0:0:
182,192,100934,1,0,0:0:0:0:
256,192,100934,1,0,0:0:0:0:
329,192,100934,1,0,0:0:0:0:
36,192,101034,1,0,0:0:0:0:
109,192,101034,1,0,0:0:0:0:
402,192,101034,1,0,0:0:0:0:
475,192,101034,1,0,0:0:0:0:
36,192,101234,1,0,0:0:0:0:
182,192,101234,1,0,0:0:0:0:
329,192,101234,1,0,0:0:0:0:
475,192,101234,1,0,0:0:0:0:
109,192,101434,1,0,0:0:0:0:
182,192,101434,1,0,0:0:0:0:
329,192,101434,1,0,0:0:0:0:
402,192,101434,1,0,0:0:0:0:
475,192,101634,1,0,0:0:0:0:
402,192,101634,1,0,0:0:0:0:
36,192,101634,1,0,0:0:0:0:
109,192,101634,1,0,0:0:0:0:
475,192,101834,1,0,0:0:0:0:
402,192,101859,1,0,0:0:0:0:
329,192,101884,1,0,0:0:0:0:
256,192,101909,1,0,0:0:0:0:
182,192,101934,1,0,0:0:0:0:
109,192,101959,1,0,0:0:0:0:
36,192,101984,1,0,0:0:0:0:
475,192,102009,1,0,0:0:0:0:
402,192,102034,1,0,0:0:0:0:
329,192,102059,1,0,0:0:0:0:
256,192,102084,1,0,0:0:0:0:
182,192,102109,1,0,0:0:0:0:
109,192,102134,1,0,0:0:0:0:
36,192,102159,1,0,0:0:0:0:
475,192,102184,1,0,0:0:0:0:
402,192,102209,1,0,0:0:0:0:
329,192,102234,1,0,0:0:0:0:
256,192,102259,1,0,0:0:0:0:
182,192,102284,1,0,0:0:0:0:
109,192,102309,1,0,0:0:0:0:
36,192,102334,1,0,0:0:0:0:
475,192,102359,1,0,0:0:0:0:
402,192,102384,1,0,0:0:0:0:
329,192,102409,1,0,0:0:0:0:
256,192,102434,1,0,0:0:0:0:
182,192,102459,1,0,0:0:0:0:
109,192,102484,1,0,0:0:0:0:
36,192,102509,1,0,0:0:0:0:
475,192,102534,1,0,0:0:0:0:
402,192,102559,1,0,0:0:0:0:
329,192,102584,1,0,0:0:0:0:
256,192,102609,1,0,0:0:0:0:
109,192,102634,1,0,0:0:0:0:
36,192,102634,1,0,0:0:0:0:
182,192,102634,1,0,0:0:0:0:
402,192,102734,1,0,0:0:0:0:
475,192,102734,1,0,0:0:0:0:
256,192,102834,1,0,0:0:0:0:
36,192,102834,1,0,0:0:0:0:
329,192,102834,1,0,0:0:0:0:
109,192,102884,1,0,0:0:0:0:
402,192,102934,1,0,0:0:0:0:
182,192,102934,1,0,0:0:0:0:
256,192,102984,1,0,0:0:0:0:
36,192,103034,1,0,0:0:0:0:
329,192,103034,1,0,0:0:0:0:
475,192,103034,1,0,0:0:0:0:
182,192,103134,1,0,0:0:0:0:
109,192,103134,1,0,0:0:0:0:
402,192,103234,1,0,0:0:0:0:
256,192,103234,1,0,0:0:0:0:
475,192,103234,1,0,0:0:0:0:
109,192,103334,1,0,0:0:0:0:
36,192,103334,1,0,0:0:0:0:
182,192,103434,1,0,0:0:0:0:
475,192,103434,1,0,0:0:0:0:
256,192,103434,1,0,0:0:0:0:
402,192,103484,1,0,0:0:0:0:
109,192,103534,1,0,0:0:0:0:
329,192,103534,1,0,0:0:0:0:
256,192,103584,1,0,0:0:0:0:
182,192,103634,1,0,0:0:0:0:
475,192,103634,1,0,0:0:0:0:
36,192,103634,1,0,0:0:0:0:
402,192,103684,1,0,0:0:0:0:
329,192,103734,1,0,0:0:0:0:
256,192,103734,1,0,0:0:0:0:
109,192,103834,1,0,0:0:0:0:
475,192,103834,1,0,0:0:0:0:
36,192,103834,1,0,0:0:0:0:
182,192,103934,1,0,0:0:0:0:
402,192,103934,1,0,0:0:0:0:
256,192,104034,1,0,0:0:0:0:
329,192,104034,1,0,0:0:0:0:
36,192,104034,1,0,0:0:0:0:
182,192,104134,1,0,0:0:0:0:
402,192,104134,1,0,0:0:0:0:
36,192,104234,1,0,0:0:0:0:
475,192,104234,1,0,0:0:0:0:
256,192,104234,1,0,0:0:0:0:
109,192,104234,1,0,0:0:0:0:
182,192,104334,1,0,0:0:0:0:
329,192,104334,1,0,0:0:0:0:
475,192,104434,1,0,0:0:0:0:
256,192,104434,1,0,0:0:0:0:
402,192,104434,1,0,0:0:0:0:
109,192,104534,1,0,0:0:0:0:
329,192,104534,1,0,0:0:0:0:
256,192,104634,1,0,0:0:0:0:
36,192,104634,1,0,0:0:0:0:
475,192,104634,1,0,0:0:0:0:
182,192,104684,1,0,0:0:0:0:
402,192,104734,1,0,0:0:0:0:
109,192,104734,1,0,0:0:0:0:
329,192,104784,1,0,0:0:0:0:
475,192,104834,1,0,0:0:0:0:
36,192,104834,1,0,0:0:0:0:
182,192,104834,1,0,0:0:0:0:
329,192,104934,1,0,0:0:0:0:
256,192,104934,1,0,0:0:0:0:
402,192,104984,1,0,0:0:0:0:
109,192,105034,1,0,0:0:0:0:
182,192,105034,1,0,0:0:0:0:
475,192,105034,1,0,0:0:0:0:
256,192,105084,1,0,0:0:0:0:
329,192,105134,1,0,0:0:0:0:
36,192,105134,1,0,0:0:0:0:
109,192,105184,1,0,0:0:0:0:
475,192,105234,1,0,0:0:0:0:
182,192,105234,1,0,0:0:0:0:
402,192,105234,1,0,0:0:0:0:
329,192,105334,1,0,0:0:0:0:
109,192,105334,1,0,0:0:0:0:
36,192,105434,1,0,0:0:0:0:
475,192,105434,1,0,0:0:0:0:
256,192,105434,1,0,0:0:0:0:
182,192,105534,1,0,0:0:0:0:
402,192,105534,1,0,0:0:0:0:
36,192,105634,1,0,0:0:0:0:
475,192,105634,1,0,0:0:0:0:
109,192,105634,1,0,0:0:0:0:
329,192,105734,1,0,0:0:0:0:
182,192,105734,1,0,0:0:0:0:
36,192,105834,1,0,0:0:0:0:
402,192,105834,1,0,0:0:0:0:
256,192,105834,1,0,0:0:0:0:
475,192,105834,1,0,0:0:0:0:
109,192,105834,1,0,0:0:0:0:
182,192,106034,1,0,0:0:0:0:
329,192,106034,1,0,0:0:0:0:
36,192,106234,1,0,0:0:0:0:
109,192,106234,1,0,0:0:0:0:
475,192,106234,1,0,0:0:0:0:
402,192,106234,1,0,0:0:0:0:
329,192,106434,1,0,0:0:0:0:
182,192,106434,1,0,0:0:0:0:
109,192,106634,1,0,0:0:0:0:
36,192,106634,1,0,0:0:0:0:
256,192,106634,1,0,0:0:0:0:
402,192,106634,1,0,0:0:0:0:
475,192,106634,1,0,0:0:0:0:
109,192,106834,1,0,0:0:0:0:
36,192,106834,1,0,0:0:0:0:
402,192,106834,1,0,0:0:0:0:
475,192,106834,1,0,0:0:0:0:
329,192,107034,1,0,0:0:0:0:
402,192,107034,1,0,0:0:0:0:
182,192,107034,1,0,0:0:0:0:
109,192,107034,1,0,0:0:0:0:
182,192,107234,1,0,0:0:0:0:
329,192,107234,1,0,0:0:0:0:
36,192,107434,1,0,0:0:0:0:
182,192,107434,1,0,0:0:0:0:
256,192,107434,1,0,0:0:0:0:
329,192,107434,1,0,0:0:0:0:
475,192,107434,1,0,0:0:0:0:
109,192,107634,1,0,0:0:0:0:
182,192,107634,1,0,0:0:0:0:
402,192,107634,1,0,0:0:0:0:
329,192,107634,1,0,0:0:0:0:
36,192,107834,5,0,0:0:0:0:
109,192,107834,1,0,0:0:0:0:
256,192,107834,1,0,0:0:0:0:
475,192,107834,1,0,0:0:0:0:
402,192,107834,1,0,0:0:0:0:
182,192,108034,1,0,0:0:0:0:
36,192,108034,1,0,0:0:0:0:
329,192,108034,1,0,0:0:0:0:
475,192,108034,1,0,0:0:0:0:
182,192,108234,5,0,0:0:0:0:
109,192,108234,1,0,0:0:0:0:
36,192,108234,1,0,0:0:0:0:
256,192,108259,1,0,0:0:0:0:
329,192,108284,1,0,0:0:0:0:
402,192,108309,1,0,0:0:0:0:
475,192,108334,1,0,0:0:0:0:
36,192,108359,1,0,0:0:0:0:
109,192,108384,1,0,0:0:0:0:
182,192,108409,1,0,0:0:0:0:
256,192,108434,1,0,0:0:0:0:
329,192,108459,1,0,0:0:0:0:
402,192,108484,1,0,0:0:0:0:
475,192,108509,1,0,0:0:0:0:
36,192,108534,1,0,0:0:0:0:
109,192,108559,1,0,0:0:0:0:
182,192,108584,1,0,0:0:0:0:
256,192,108609,1,0,0:0:0:0:
36,192,109034,1,0,0:0:0:0:
182,192,109034,1,0,0:0:0:0:
329,192,109034,1,0,0:0:0:0:
475,192,109034,1,0,0:0:0:0:
