osu file format v12

[General]
AudioFilename: 31 Destin Histoire -TV size-.mp3
AudioLeadIn: 2000
PreviewTime: 49100
Countdown: 0
SampleSet: Soft
StackLeniency: 0.7
Mode: 0
LetterboxInBreaks: 0
WidescreenStoryboard: 0

[Editor]
DistanceSpacing: 0.9
BeatDivisor: 4
GridSize: 4
TimelineZoom: 1

[Metadata]
Title:Destin Histoire (TV Size)
TitleUnicode:Destin Histoire (TV Size)
Artist:yoshiki*lisa
ArtistUnicode:yoshiki*lisa
Creator:wendao2000
Version:Normal
Source:GOSICK -ゴシック-
Tags:吉木りさ opening Story of Fate Gothic Yoshiki Risa Original Soundtrack Poche Destiny History
BeatmapID:376679
BeatmapSetID:121120

[Difficulty]
HPDrainRate:4
CircleSize:3
OverallDifficulty:5
ApproachRate:5
SliderMultiplier:1.2
SliderTickRate:1

[Events]
//Background and Video events
0,0,"bg.jpg",0,0
Video,-300,"vid.flv"
//Break Periods
//Storyboard Layer 0 (Background)
//Storyboard Layer 1 (Fail)
//Storyboard Layer 2 (Pass)
//Storyboard Layer 3 (Foreground)
//Storyboard Sound Samples
Sample,35188,0,"soft-hitclap.wav",35
//Background Colour Transformations
3,100,210,210,210

[TimingPoints]
125,361.44578313253,4,2,2,40,1,0
5185,-100,4,3,1,60,0,0
5908,-100,4,2,1,60,0,0
10426,-100,4,2,1,50,0,0
10606,-100,4,2,1,60,0,0
11149,-100,4,2,1,50,0,0
11329,-100,4,2,1,60,0,0
13859,-100,4,3,1,60,0,0
14582,-125,4,2,2,50,0,0
16390,-125,4,2,2,35,0,0
16570,-125,4,2,2,50,0,0
17835,-125,4,2,2,35,0,0
18016,-125,4,2,2,50,0,0
19281,-125,4,2,2,35,0,0
19462,-125,4,2,2,50,0,0
20727,-125,4,2,2,35,0,0
20908,-125,4,2,2,50,0,0
22173,-125,4,2,2,35,0,0
22353,-125,4,2,2,50,0,0
23618,-125,4,2,2,35,0,0
23799,-125,4,2,2,50,0,0
26149,-100,4,2,1,60,0,0
36992,-100,4,2,1,58,0,0
37353,-100,4,2,1,54,0,0
37715,-125,4,2,1,50,0,0
46028,-125,4,2,1,44,0,0
46209,-125,4,2,1,52,0,0
46390,-100,4,2,1,60,0,0
48197,-100,4,2,1,54,0,0
48558,-100,4,3,1,50,0,0
49281,-100,4,2,1,70,0,1
60124,-100,4,2,2,60,0,0
60847,-100,4,2,1,70,0,1
71691,-100,4,2,1,69,0,1
71871,-100,4,2,1,67,0,1
72052,-100,4,2,1,64,0,1
72233,-100,4,2,1,62,0,1
72414,-100,4,2,1,60,0,0
74582,-100,4,2,1,55,0,0
75305,-100,4,2,1,60,0,0
78197,-100,4,2,2,60,0,0
84703,-100,4,2,2,70,0,0
85426,-100,4,2,2,60,0,0
86149,-100,4,2,2,50,0,0
86871,-100,4,2,2,40,0,0
87594,-100,4,2,2,30,0,0
88317,-100,4,2,2,20,0,0
89040,-100,4,2,2,10,0,0
89402,-100,4,2,2,5,0,0

[Colours]
Combo1 : 210,210,210
Combo2 : 240,160,80
Combo3 : 240,90,90
Combo4 : 240,240,60
Combo5 : 120,180,240

[HitObjects]
172,84,125,5,2,0:0:0:0:
364,108,1570,1,2,0:0:0:0:
340,300,3016,1,2,0:0:0:0:
148,276,4462,1,2,0:0:0:0:
256,192,5185,6,0,L|340:200,1,60
396,280,5908,6,0,P|340:300|304:348,1,120,4|8,0:0|0:0,0:0:0:0:
207,346,6631,2,0,P|171:299|116:280,1,120,0|8,0:0|0:0,0:0:0:0:
72,300,7173,2,0,B|88:240|88:240|80:184|80:184|96:124,1,180,4|8,0:0|0:0,0:0:0:0:
180,80,8076,1,0,0:0:0:0:
260,130,8438,1,8,0:0:0:0:
344,84,8799,6,0,P|392:118|416:173,1,120,4|8,0:0|0:0,0:0:0:0:
332,220,9522,2,0,P|341:278|378:324,1,120,0|8,0:0|0:0,0:0:0:0:
420,348,10064,2,0,B|360:336|360:336|304:356,1,120,4|2,0:0|0:0,0:0:0:0:
208,356,10787,2,0,B|152:336|152:336|92:348,1,120,4|2,0:0|0:0,0:0:0:0:
48,364,11329,1,8,0:0:0:0:
84,248,11691,6,0,L|76:128,1,120,4|8,0:0|0:0,0:0:0:0:
44,92,12233,2,0,P|128:124|212:100,1,180,4|4,0:0|0:0,0:0:0:0:
300,28,13859,1,0,0:0:0:0:
300,28,14040,1,0,0:0:0:0:
364,156,14583,6,0,L|372:252,1,96,10|8,0:0|0:0,0:0:0:0:
464,276,15305,2,0,L|456:180,1,96,10|8,0:0|0:0,0:0:0:0:
364,156,16028,2,0,P|292:216|200:204,1,192,10|10,0:0|0:0,0:0:0:0:
152,120,17112,1,8,0:0:0:0:
103,203,17474,6,0,B|112:256|140:288|184:312|244:308,1,192,10|10,0:0|0:0,0:0:0:0:
328,276,18558,1,8,0:0:0:0:
408,328,18920,2,0,L|432:137,1,192,10|10,0:0|0:0,0:0:0:0:
504,16,20365,6,0,P|424:68|332:60,1,192,10|10,0:0|0:0,0:0:0:0:
256,0,21450,1,8,0:0:0:0:
180,59,21811,2,0,P|86:67|8:15,1,192,10|10,0:0|0:0,0:0:0:0:
60,160,23257,6,0,P|156:172|260:128,1,192,8|8,0:0|0:0,0:0:0:0:
324,88,24341,1,8,0:0:0:0:
328,183,24703,2,0,B|296:227|252:239|252:239|244:291|292:319|292:319|340:347|384:327|384:327|428:307|476:335,1,384,8|4,0:0|0:0,0:0:0:0:
508,244,26510,5,8,0:0:0:0:
484,148,26871,1,0,0:0:0:0:
400,100,27233,1,8,0:0:0:0:
304,104,27594,2,0,P|268:152|272:212,1,120,0|8,0:0|0:0,0:0:0:0:
336,288,28317,2,0,P|372:240|368:180,1,120,0|8,0:0|0:0,0:0:0:0:
304,104,29040,6,0,L|184:96,1,120,0|8,0:0|0:0,0:0:0:0:
96,148,29763,2,0,P|60:196|64:256,2,120,0|8|0,0:0|0:0|0:0,0:0:0:0:
184,96,30847,1,8,0:0:0:0:
185,198,31209,2,0,P|208:253|262:279,1,120,0|8,0:0|0:0,0:0:0:0:
360,260,31932,6,0,P|395:212|391:152,1,120,0|8,0:0|0:0,0:0:0:0:
326,77,32655,2,0,P|266:69|216:103,1,120,0|8,0:0|0:0,0:0:0:0:
185,198,33378,2,0,P|176:264|136:308,2,120,0|8|0,0:0|0:0|0:0,0:0:0:0:
117,120,34462,1,8,0:0:0:0:
83,217,34823,6,0,P|180:280|296:256,1,240,0|0,0:0|0:0,0:0:0:0:
260,160,35908,2,0,L|268:40,1,120,8|0,0:0|0:0,0:0:0:0:
372,36,36631,1,8,0:0:0:0:
436,120,36992,2,0,L|444:240,1,120,8|2,0:0|0:0,0:0:0:0:
464,324,37715,1,4,0:0:0:0:
464,324,38257,5,0,0:0:0:0:
464,324,38438,2,0,P|396:300|328:316,1,144,8|8,0:0|0:0,0:0:0:0:
248,348,39341,6,0,L|152:344,1,96,8|0,0:0|0:0,0:0:0:0:
116,368,39884,2,0,B|136:300|136:300|116:268|120:228,1,144,8|8,0:0|0:0,0:0:0:0:
140,192,40606,5,0,0:0:0:0:
212,144,40968,1,0,0:0:0:0:
296,164,41329,2,0,P|364:188|432:172,1,144,8|8,0:0|0:0,0:0:0:0:
492,108,42233,6,0,L|496:60,2,48,8|0|0,0:0|0:0|0:0,0:0:0:0:
488,152,42775,2,0,B|496:196|480:228|480:228|504:252|508:288,1,144,8|8,0:0|0:0,0:0:0:0:
492,328,43498,5,4,0:0:0:0:
408,308,43859,1,0,0:0:0:0:
324,332,44221,2,0,P|260:348|188:320,1,144,8|8,0:0|0:0,0:0:0:0:
128,264,45124,6,0,L|80:260,2,48,8|0|0,0:0|0:0|0:0,0:0:0:0:
152,228,45667,1,8,0:0:0:0:
224,180,46028,6,0,L|272:176,1,48,8|8,0:0|0:0,0:0:0:0:
312,212,46390,2,0,P|279:129|290:40,1,180,4|4,0:0|0:0,0:0:0:0:
480,36,47655,6,0,P|513:119|501:207,1,180,4|8,0:0|0:0,0:0:0:0:
432,276,48558,2,0,L|436:336,1,60,6|12,0:2|0:2,0:0:0:0:
436,336,49281,6,0,P|384:308|324:312,1,120,4|8,0:0|0:0,0:0:0:0:
240,356,50004,2,0,P|180:354|131:320,1,120,0|8,0:0|0:0,0:0:0:0:
148,276,50546,2,0,P|164:192|128:108,1,180,4|8,0:0|0:0,0:0:0:0:
64,36,51450,1,0,0:0:0:0:
156,0,51811,1,8,0:0:0:0:
240,44,52173,6,0,L|360:44,1,120,4|8,0:0|0:0,0:0:0:0:
404,128,52896,2,0,P|348:148|312:196,1,120,0|8,0:0|0:0,0:0:0:0:
332,240,53438,2,0,P|324:308|232:300,1,180,4|8,0:0|0:0,0:0:0:0:
224,252,54161,2,0,B|196:244|176:220|176:220|124:264|60:232,1,180,4|12,0:0|0:0,0:0:0:0:
112,152,55065,5,4,0:0:0:0:
200,112,55426,2,0,P|256:132|312:112,1,120,8|0,0:0|0:0,0:0:0:0:
400,152,56149,1,8,0:0:0:0:
400,152,56329,2,0,B|372:204|372:204|384:324,1,180,4|8,0:0|0:0,0:0:0:0:
480,340,57233,2,0,L|468:220,1,120,0|8,0:0|0:0,0:0:0:0:
400,152,57956,6,0,P|320:192|236:172,1,180,4|4,0:0|0:0,0:0:0:0:
188,88,58859,1,8,0:0:0:0:
139,170,59221,2,0,P|184:248|268:276,1,180,4|8,0:0|0:0,0:0:0:0:
340,216,60124,2,0,L|400:220,4,60,2|2|2|2|4,0:0|0:0|0:0|0:0|0:0,0:0:0:0:
300,128,61209,6,0,B|248:96|248:96|188:88,1,120,8|8,0:0|0:0,2:0:0:0:
108,148,61932,1,8,0:0:0:0:
108,148,62112,2,0,P|160:171|194:222,1,120,4|0,0:0|0:0,0:0:0:0:
207,255,62655,1,8,0:0:0:0:
300,228,63016,2,0,P|356:252|416:248,1,120,8|8,0:0|0:0,0:0:0:0:
428,152,63739,6,0,P|372:128|312:132,1,120,4|8,0:0|0:0,0:0:0:0:
224,168,64462,2,0,P|167:144|127:99,1,120,8|8,0:0|0:0,0:0:0:0:
100,64,65004,2,0,B|84:120|84:120|36:160,1,120,4|0,0:0|0:0,0:0:0:0:
4,196,65546,2,0,L|0:316,1,120,8|12,0:0|0:0,0:0:0:0:
80,372,66269,1,8,0:0:0:0:
176,356,66631,6,0,P|232:348|288:376,1,120,4|8,0:0|0:0,0:0:0:0:
376,336,67353,1,8,0:0:0:0:
364,240,67715,2,0,L|368:180,1,60,8|4,0:0|0:0,0:0:0:0:
456,140,68257,2,0,L|452:200,1,60,0|8,0:0|0:0,0:0:0:0:
480,292,68799,2,0,P|428:332|376:336,1,120,8|8,0:0|0:0,0:0:0:0:
292,288,69522,6,0,P|216:240|128:248,1,180,4|4,0:0|0:0,0:0:0:0:
56,308,70426,1,8,0:0:0:0:
40,212,70787,2,0,B|60:170|107:157|107:157|154:145|175:103,1,180,4|0,0:0|0:0,0:0:0:0:
256,44,71691,6,0,L|316:52,1,60,8|8,0:0|0:0,0:0:0:0:
356,72,72052,2,0,L|416:80,1,60,8|8,0:0|0:0,0:0:0:0:
456,100,72414,1,4,0:0:0:0:
256,192,72594,12,2,74582,3:0:0:0:
104,328,75305,5,4,0:0:0:0:
56,192,75847,1,4,0:0:0:0:
104,56,76390,2,0,P|184:96|272:92,1,180,4|8,0:0|0:0,0:0:0:0:
352,40,77293,2,0,P|364:72|364:104,1,60,8|8,0:3|0:3,0:0:0:0:
344,140,77655,2,0,P|340:174|348:204,1,60,0|8,0:0|0:3,0:0:0:0:
408,272,78197,5,4,0:0:0:0:
256,192,79643,5,0,0:0:0:0:
104,272,81088,5,2,0:0:0:0:
256,192,81269,12,2,83980,0:0:0:0:
256,192,84161,12,0,89402,0:0:0:0:
