osu file format v12

[General]
AudioFilename: 31 Destin Histoire -TV size-.mp3
AudioLeadIn: 2000
PreviewTime: 49100
Countdown: 0
SampleSet: Soft
StackLeniency: 0.7
Mode: 0
LetterboxInBreaks: 0
WidescreenStoryboard: 0

[Editor]
DistanceSpacing: 0.9
BeatDivisor: 4
GridSize: 4
TimelineZoom: 1

[Metadata]
Title:Destin Histoire (TV Size)
TitleUnicode:Destin Histoire (TV Size)
Artist:yoshiki*lisa
ArtistUnicode:yoshiki*lisa
Creator:wendao2000
Version:Insane
Source:GOSICK -ゴシック-
Tags:吉木りさ opening Story of Fate Gothic Yoshiki Risa Original Soundtrack Poche Destiny History
BeatmapID:382975
BeatmapSetID:121120

[Difficulty]
HPDrainRate:7
CircleSize:4
OverallDifficulty:7
ApproachRate:9
SliderMultiplier:2
SliderTickRate:1

[Events]
//Background and Video events
0,0,"bg.jpg",0,0
Video,-300,"vid.flv"
//Break Periods
//Storyboard Layer 0 (Background)
//Storyboard Layer 1 (Fail)
//Storyboard Layer 2 (Pass)
//Storyboard Layer 3 (Foreground)
//Storyboard Sound Samples
Sample,23989,0,"soft-hitclap2.wav",35
//Background Colour Transformations
3,100,210,210,210

[TimingPoints]
125,361.44578313253,4,2,2,40,1,0
125,-125,4,2,2,40,0,0
5185,-166.666666666667,4,3,1,60,0,0
5908,-83.3333333333333,4,2,1,60,0,0
6450,-100,4,2,1,60,0,0
10426,-100,4,2,1,50,0,0
10606,-100,4,2,1,60,0,0
11149,-100,4,2,1,50,0,0
11329,-100,4,2,1,60,0,0
13317,-100,4,2,1,56,0,0
13408,-100,4,2,1,52,0,0
13498,-100,4,2,1,48,0,0
13588,-100,4,2,1,44,0,0
13679,-100,4,2,1,40,0,0
13859,-166.666666666667,4,3,1,60,0,0
14582,-125,4,2,2,50,0,0
24703,-100,4,2,2,52,0,0
24884,-100,4,2,0,54,0,0
25064,-100,4,2,0,56,0,0
25245,-100,4,2,0,58,0,0
25426,-100,4,2,0,60,0,0
25606,-166.666666666667,4,2,1,60,0,0
26149,-83.3333333333333,4,2,1,60,0,0
26691,-100,4,2,1,60,0,0
31390,-125,4,2,1,60,0,0
31932,-100,4,2,1,60,0,0
36992,-100,4,2,1,55,0,0
37173,-100,4,2,1,50,0,0
37353,-100,4,2,1,45,0,0
37534,-100,4,2,1,40,0,0
37715,-125,4,2,1,50,0,0
46028,-125,4,2,1,44,0,0
46118,-125,4,2,1,48,0,0
46209,-125,4,2,1,52,0,0
46299,-125,4,2,1,56,0,0
46390,-100,4,2,1,60,0,0
48016,-100,4,2,1,58,0,0
48106,-100,4,2,1,56,0,0
48197,-100,4,2,1,54,0,0
48287,-100,4,2,1,52,0,0
48378,-100,4,2,1,50,0,0
48558,-166.666666666667,4,3,1,40,0,0
49100,-166.666666666667,4,2,1,40,0,0
49281,-83.3333333333333,4,2,1,70,0,1
49643,-100,4,2,1,70,0,1
51631,-100,4,2,1,45,0,1
51811,-100,4,2,1,70,0,1
54522,-100,4,2,1,45,0,1
54703,-100,4,2,1,70,0,1
57414,-100,4,2,1,45,0,1
57594,-100,4,2,1,70,0,1
60124,-100,4,2,2,60,0,0
60847,-100,4,2,1,70,0,1
62293,-100,4,2,1,45,0,1
62474,-100,4,2,1,70,0,1
65185,-100,4,2,1,45,0,1
65365,-100,4,2,1,70,0,1
68076,-100,4,2,1,45,0,1
68257,-100,4,2,1,70,0,1
71600,-100,4,2,1,45,0,1
71691,-100,4,2,1,69,0,1
71781,-100,4,2,1,68,0,1
71871,-100,4,2,1,67,0,1
71962,-100,4,2,1,66,0,1
72052,-100,4,2,1,64,0,1
72143,-100,4,2,1,63,0,1
72233,-100,4,2,1,62,0,1
72323,-100,4,2,1,61,0,1
72414,-100,4,2,1,60,0,0
73859,-100,4,2,1,45,0,0
73980,-100,4,2,1,58,0,0
74100,-100,4,2,1,56,0,0
74221,-100,4,2,1,54,0,0
74341,-100,4,2,1,52,0,0
74462,-100,4,2,1,50,0,0
74582,-100,4,2,1,55,0,0
74703,-100,4,2,1,53,0,0
74823,-100,4,2,1,51,0,0
74944,-100,4,2,1,49,0,0
75064,-100,4,2,1,47,0,0
75185,-100,4,2,1,45,0,0
75305,-100,4,2,1,60,0,0
78197,-125,4,2,2,60,0,0
84703,-125,4,2,2,70,0,0
85426,-125,4,2,2,60,0,0
86149,-125,4,2,2,50,0,0
86871,-125,4,2,2,40,0,0
87594,-125,4,2,2,30,0,0
88317,-125,4,2,2,20,0,0
89040,-125,4,2,2,10,0,0
89402,-125,4,2,2,5,0,0

[Colours]
Combo1 : 210,210,210
Combo2 : 240,160,80
Combo3 : 240,90,90
Combo4 : 240,240,60
Combo5 : 120,180,240

[HitObjects]
152,68,125,6,0,L|144:148,1,80,2|0,0:0|0:0,0:0:0:0:
92,208,486,1,0,0:0:0:0:
92,208,667,2,0,P|168:184|240:212,1,160,2|0,0:0|0:0,0:0:0:0:
360,316,1390,1,0,0:0:0:0:
360,316,1570,6,0,L|368:236,1,80,2|0,0:0|0:0,0:0:0:0:
420,176,1932,1,0,0:0:0:0:
420,176,2112,2,0,P|344:200|272:172,1,160,2|0,0:0|0:0,0:0:0:0:
152,68,2835,1,0,0:0:0:0:
152,68,3016,6,0,L|144:148,1,80,2|0,0:0|0:0,0:0:0:0:
68,172,3378,2,0,L|76:92,1,80,0|2,0:0|0:0,0:0:0:0:
134,269,3920,1,0,0:0:0:0:
260,132,4281,1,0,0:0:0:0:
316,188,4462,6,0,L|396:196,1,80,2|0,0:0|0:0,0:0:0:0:
464,156,4823,1,0,0:0:0:0:
400,296,5004,1,0,0:0:0:0:
364,104,5185,6,0,L|368:44,1,59.9999981689454
372,48,5908,6,0,P|288:88|164:29,1,239.999992675781,4|8,0:0|0:0,0:0:0:0:
128,124,6450,1,0,0:0:0:0:
188,208,6631,2,0,L|180:308,1,100,0|0,0:0|0:0,0:0:0:0:
92,360,6992,1,8,0:0:0:0:
92,360,7173,6,0,P|184:320|276:344,1,200,4|0,0:0|0:0,0:0:0:0:
368,384,7715,2,0,P|448:324|472:228,1,200,8|0,0:0|0:0,0:0:0:0:
432,140,8257,2,0,P|416:92|420:44,1,100,2|8,0:0|0:0,0:0:0:0:
512,0,8618,1,0,0:0:0:0:
392,208,8799,6,0,P|320:136|296:44,1,200,4|8,0:0|0:0,0:0:0:0:
392,16,9341,1,0,0:0:0:0:
368,112,9522,2,0,P|328:144|280:152,1,100
216,76,9884,1,8,0:0:0:0:
216,76,10064,6,0,P|126:120|85:206,1,200,4|2,0:0|0:0,0:0:0:0:
120,320,10606,1,8,0:0:0:0:
238,336,10787,22,0,P|317:278|344:184,1,200,4|2,0:0|0:0,0:0:0:0:
436,100,11329,1,8,0:0:0:0:
462,221,11510,1,0,0:0:0:0:
344,184,11691,6,0,P|245:199|157:158,1,200,4|8,0:0|0:0,0:0:0:0:
63,320,12233,6,0,P|157:288|252:312,1,200,4|8,0:0|0:0,0:0:0:0:
280,340,12685,1,2,0:0:0:0:
284,344,12775,6,0,P|372:296|404:112,1,300,4|8,0:0|0:0,0:0:0:0:
384,72,13408,1,8,0:0:0:0:
349,42,13498,1,8,0:0:0:0:
305,29,13588,1,8,0:0:0:0:
260,35,13679,1,2,0:0:0:0:
212,160,13860,6,0,B|208:220,1,59.9999981689454,0|0,0:0|0:0,0:0:0:0:
204,224,14582,6,0,P|280:199|356:215,1,160,10|8,0:0|0:0,0:0:0:0:
408,276,15124,1,0,0:0:0:0:
408,276,15305,2,0,L|420:116,1,160,10|8,0:0|0:0,0:0:0:0:
428,36,15847,1,0,0:0:0:0:
428,36,16028,6,0,P|365:83|287:88,1,160,10|8,0:0|0:0,0:0:0:0:
220,44,16570,1,2,0:0:0:0:
144,20,16751,2,0,L|64:24,1,80,10|0,0:0|0:0,0:0:0:0:
60,104,17112,2,0,L|140:100,1,80,8|0,0:0|0:0,0:0:0:0:
224,156,17474,6,0,P|180:224|188:300,1,160,10|8,0:0|0:0,0:0:0:0:
244,356,18016,1,0,0:0:0:0:
320,332,18197,2,0,P|364:264|356:188,1,160,10|8,0:0|0:0,0:0:0:0:
300,132,18739,1,0,0:0:0:0:
224,156,18920,6,0,P|180:224|188:300,1,160,10|8,0:0|0:0,0:0:0:0:
244,356,19462,2,0,L|324:352,1,80,2|10,0:0|0:0,0:0:0:0:
384,276,19823,1,0,0:0:0:0:
304,216,20004,1,8,0:0:0:0:
316,116,20185,1,0,0:0:0:0:
404,52,20365,22,0,L|244:40,1,160,10|8,0:0|0:0,0:0:0:0:
168,16,20908,1,0,0:0:0:0:
168,16,21088,2,0,P|204:88|188:164,1,160,10|8,0:0|0:0,0:0:0:0:
116,200,21631,1,0,0:0:0:0:
116,200,21811,6,0,P|134:278|195:326,1,160,10|8,0:0|0:0,0:0:0:0:
256,276,22353,1,2,0:0:0:0:
344,352,22534,2,0,L|352:272,1,80,10|0,0:0|0:0,0:0:0:0:
404,136,22896,2,0,L|412:216,1,80,8|0,0:0|0:0,0:0:0:0:
464,64,23257,6,0,P|392:100|316:92,1,160,10|8,0:0|0:0,0:0:0:0:
256,36,23799,2,0,P|188:80|157:150,1,160,2|0,0:0|0:0,0:0:0:0:
200,220,24341,2,0,P|216:260|212:296,1,80,10|0,0:0|0:0,0:0:0:0:
152,348,24703,5,8,0:0:0:0:
308,312,24884,1,2,0:0:0:0:
272,156,25064,1,8,0:0:0:0:
116,192,25245,1,0,0:0:0:0:
308,312,25426,1,6,0:0:0:0:
508,208,25606,6,8,L|512:148,2,59.9999981689454
500,304,26149,6,0,P|388:260|372:152,1,239.999992675781,4|8,0:0|0:0,0:0:0:0:
432,72,26691,1,0,0:0:0:0:
336,248,26871,2,0,L|236:260,1,100
156,120,27233,2,0,L|256:108,1,100,8|0,0:0|0:0,0:0:0:0:
444,40,27594,6,0,L|344:52,1,100,0|0,0:0|0:0,0:0:0:0:
246,184,27956,1,8,0:0:0:0:
246,184,28137,1,0,0:0:0:0:
409,202,28317,6,0,L|509:190,1,100,0|0,0:0|0:0,0:0:0:0:
311,334,28679,2,0,L|211:322,1,100,8|0,0:0|0:0,0:0:0:0:
124,256,29040,6,0,P|108:208|116:160,1,100
324,129,29402,2,0,P|292:166|246:183,1,100,8|0,0:0|0:0,0:0:0:0:
114,18,29763,2,0,P|163:28|201:59,1,100
124,256,30124,2,0,P|74:245|36:214,1,100,8|0,0:0|0:0,0:0:0:0:
32,100,30486,21,0,0:0:0:0:
160,156,30667,1,0,0:0:0:0:
204,288,30847,2,0,L|304:276,1,100,8|0,0:0|0:0,0:0:0:0:
392,228,31209,1,0,0:0:0:0:
384,132,31390,54,0,L|392:52,1,80,0|8,0:0|0:0,0:0:0:0:
452,0,31751,1,0,0:0:0:0:
384,132,31932,22,0,P|340:156|288:152,1,100
204,104,32293,2,0,P|180:60|184:8,1,100,8|0,0:0|0:0,0:0:0:0:
329,11,32655,2,0,P|331:60|308:104,1,100,0|0,0:0|0:0,0:0:0:0:
220,153,33016,2,0,P|171:155|128:132,1,100,8|0,0:0|0:0,0:0:0:0:
60,56,33378,6,0,P|12:144|20:240,1,200,0|8,0:0|0:0,0:0:0:0:
84,316,33920,1,0,0:0:0:0:
172,254,34100,2,0,P|206:289|254:299,1,100
338,129,34462,2,0,P|304:94|256:84,1,100,8|0,0:0|0:0,0:0:0:0:
256,192,34823,5,0,0:0:0:0:
361,242,35004,1,0,0:0:0:0:
171,254,35185,1,8,0:0:0:0:
256,84,35365,1,0,0:0:0:0:
267,80,35727,1,0,0:0:0:0:
279,76,36088,1,8,0:0:0:0:
284,80,36269,22,0,L|384:80,1,100
464,220,36631,2,0,L|364:220,1,100,8|0,0:0|0:0,0:0:0:0:
256,300,36992,53,8,0:0:0:0:
244,303,37173,1,8,0:0:0:0:
232,307,37353,1,2,0:0:0:0:
220,311,37534,1,0,0:0:0:0:
208,315,37715,22,0,P|236:240|220:164,1,160,4|0,0:0|0:0,0:0:0:0:
164,108,38257,1,0,0:0:0:0:
164,108,38437,2,0,P|237:138|314:129,1,160,8|0,0:0|0:0,0:0:0:0:
372,72,38980,1,8,0:0:0:0:
452,60,39161,1,0,0:0:0:0:
404,196,39341,6,0,P|380:272|416:340,1,160,8|0,0:0|0:0,0:0:0:0:
348,276,39884,2,0,P|272:252|192:260,1,160,8|0,0:0|0:0,0:0:0:0:
128,336,40426,1,8,0:0:0:0:
120,352,40606,6,0,L|108:192,1,160,0|0,0:0|0:0,0:0:0:0:
100,112,41149,1,0,0:0:0:0:
100,112,41329,2,0,P|165:155|244:151,1,160,8|0,0:0|0:0,0:0:0:0:
300,84,41871,1,8,0:0:0:0:
330,166,42052,1,0,0:0:0:0:
244,152,42233,22,0,P|316:117|396:121,1,160,8|0,0:0|0:0,0:0:0:0:
424,256,42775,2,0,P|352:291|272:287,1,160,8|0,0:0|0:0,0:0:0:0:
192,232,43317,1,8,0:0:0:0:
100,272,43498,1,4,0:0:0:0:
100,112,43859,5,0,0:0:0:0:
192,152,44040,1,0,0:0:0:0:
274,95,44221,2,0,P|353:92|424:128,1,160,8|0,0:0|0:0,0:0:0:0:
388,200,44763,1,8,0:0:0:0:
408,276,44944,2,0,L|416:356,1,80,0|8,0:0|0:0,0:0:0:0:
420,360,45486,6,0,L|412:280,1,80,0|8,0:0|0:0,0:0:0:0:
388,200,45847,1,0,0:0:0:0:
316,164,46028,2,0,L|276:176,1,40,8|8,0:0|0:0,0:0:0:0:
240,240,46209,2,0,L|200:228,1,40,8|8,0:0|0:0,0:0:0:0:
148,176,46390,6,0,P|88:256|100:352,1,200,4|8,0:0|0:0,0:0:0:0:
267,338,46932,22,0,P|326:261|316:164,1,200,4|8,0:0|0:0,0:0:0:0:
288,124,47384,1,8,0:0:0:0:
240,112,47474,1,8,0:0:0:0:
267,339,47655,6,0,P|360:308|414:227,1,200,4|8,0:0|0:0,0:0:0:0:
424,180,48106,1,8,0:0:0:0:
415,131,48197,1,8,0:0:0:0:
384,92,48287,1,8,0:0:0:0:
339,71,48378,1,8,0:0:0:0:
196,212,48558,38,0,L|136:212,1,59.9999981689454,6|12,0:2|0:2,0:0:0:0:
136,212,49100,1,0,0:0:0:0:
256,260,49281,38,0,L|376:260,1,119.999996337891,4|0,0:0|0:0,0:0:0:0:
462,312,49643,1,8,0:0:0:0:
424,180,49823,2,0,B|324:180|324:180|288:112|200:140,1,200
124,344,50365,1,8,0:0:0:0:
124,344,50546,6,0,P|213:306|247:215,1,200,4|0,0:0|0:0,0:0:0:0:
160,64,51088,2,0,L|260:52,1,100,8|0,0:0|0:0,0:0:0:0:
404,8,51450,1,0,0:0:0:0:
324,180,51631,1,2,0:0:0:0:
490,87,51811,1,8,0:0:0:0:
302,66,51992,1,0,0:0:0:0:
440,194,52173,22,0,P|460:240|456:288,1,100,4|0,0:0|0:0,0:0:0:0:
228,126,52534,2,0,P|256:86|302:66,1,100,8|0,0:0|0:0,0:0:0:0:
275,342,52896,2,0,P|226:337|186:309,2,100,0|0|8,0:0|0:0|0:0,0:0:0:0:
440,194,53438,6,0,P|366:133|273:161,1,200,4|0,0:0|0:0,0:0:0:0:
72,190,53980,1,8,0:0:0:0:
72,190,54161,2,0,P|145:250|238:222,1,200,4|2,0:0|0:0,0:0:0:0:
302,66,54703,1,12,0:0:0:0:
364,308,54884,1,0,0:0:0:0:
168,140,55064,6,0,P|216:124|264:128,1,100,4|0,0:0|0:0,0:0:0:0:
440,196,55426,2,0,P|392:212|344:208,1,100,8|0,0:0|0:0,0:0:0:0:
302,66,55787,1,0,0:0:0:0:
364,308,55968,1,0,0:0:0:0:
456,75,56149,1,8,0:0:0:0:
243,208,56329,6,0,P|154:246|60:219,1,200,4|0,0:0|0:0,0:0:0:0:
136,56,56871,2,0,P|152:104|148:152,1,100,8|0,0:0|0:0,0:0:0:0:
296,126,57233,2,0,P|278:172|244:208,1,100,0|2,0:0|0:0,0:0:0:0:
375,284,57594,2,0,P|331:307|282:312,1,100,8|0,0:0|0:0,0:0:0:0:
92,152,57956,22,0,P|168:88|264:96,1,200,4|8,0:0|0:0,0:0:0:0:
408,296,58498,6,0,P|332:360|236:352,1,200,4|8,0:0|0:0,0:0:0:0:
216,312,58950,1,8,0:0:0:0:
176,292,59040,1,8,0:0:0:0:
68,344,59221,6,0,P|132:268|120:172,1,200,4|8,0:0|0:0,0:0:0:0:
105,135,59673,1,8,0:0:0:0:
113,94,59763,1,8,0:0:0:0:
141,64,59853,1,8,0:0:0:0:
180,53,59944,1,8,0:0:0:0:
220,64,60034,1,8,0:0:0:0:
249,95,60124,22,0,L|270:140,7,50,2|2|2|2|2|2|2|2,0:0|0:0|0:0|0:0|0:0|0:0|0:0|0:0,0:0:0:0:
280,176,60847,54,0,P|324:200|372:200,1,100,4|0,0:0|0:0,0:0:0:0:
412,80,61209,2,0,P|368:56|320:56,1,100,8|0,0:0|0:0,0:0:0:0:
280,176,61570,1,8,0:0:0:0:
444,156,61751,1,0,0:0:0:0:
344,23,61932,1,8,0:0:0:0:
280,176,62112,22,0,L|252:272,1,100,4|2,0:0|0:0,0:0:0:0:
372,336,62474,2,0,L|400:240,1,100,0|8,0:0|0:0,0:0:0:0:
392,64,62835,2,0,L|364:160,1,100,0|8,0:0|0:0,0:0:0:0:
484,224,63197,2,0,L|512:128,1,100,0|8,0:0|0:0,0:0:0:0:
408,48,63558,1,0,0:0:0:0:
192,64,63739,6,0,P|144:152|168:244,1,200,4|8,0:0|0:0,0:0:0:0:
244,344,64281,1,0,0:0:0:0:
112,300,64462,2,0,L|12:304,2,100,8|0|8,0:0|0:0|0:0,0:0:0:0:
268,112,65004,6,0,P|312:136|340:176,1,100,4|2,0:0|0:0,0:0:0:0:
192,64,65365,2,0,P|234:37|283:33,1,100,0|8,0:0|0:0,0:0:0:0:
112,105,65727,2,0,P|110:54|131:10,1,100,0|12,0:0|0:0,0:0:0:0:
268,112,66088,2,0,P|269:162|248:206,1,100,0|12,0:0|0:0,0:0:0:0:
112,272,66450,5,0,0:0:0:0:
112,272,66540,1,0,0:0:0:0:
112,272,66631,2,0,P|212:288|272:360,1,200,4|8,0:0|0:0,0:0:0:0:
352,272,67173,1,0,0:0:0:0:
456,328,67353,1,8,0:0:0:0:
392,192,67534,2,0,L|400:92,1,100,0|8,0:0|0:0,0:0:0:0:
256,48,67896,22,0,L|248:148,1,100,4|2,0:0|0:0,0:0:0:0:
296,316,68257,2,0,L|304:216,1,100,0|8,0:0|0:0,0:0:0:0:
160,172,68618,2,0,L|152:272,1,100,0|8,0:0|0:0,0:0:0:0:
392,192,68980,2,0,L|400:92,1,100,0|8,0:0|0:0,0:0:0:0:
456,328,69341,5,0,0:0:0:0:
456,328,69432,1,0,0:0:0:0:
456,328,69522,2,0,P|380:264|288:284,1,200,4|8,0:0|0:0,0:0:0:0:
152,272,70064,6,0,P|237:222|250:128,1,200,4|8,0:0|0:0,0:0:0:0:
220,88,70516,1,8,0:0:0:0:
172,72,70606,1,8,0:0:0:0:
52,300,70787,6,0,P|124:363|219:344,1,200,4|0,0:0|0:0,0:0:0:0:
240,298,71239,1,0,0:0:0:0:
238,249,71329,1,8,0:0:0:0:
214,205,71420,1,8,0:0:0:0:
174,176,71510,1,0,0:0:0:0:
125,168,71600,1,2,0:0:0:0:
78,182,71691,6,0,L|72:132,1,50,8|8,0:0|0:0,0:0:0:0:
148,148,71871,2,0,L|141:98,1,50,8|8,0:0|0:0,0:0:0:0:
218,114,72052,2,0,L|211:63,1,50,8|8,0:0|0:0,0:0:0:0:
288,80,72233,2,0,L|281:30,1,50,8|8,0:0|0:0,0:0:0:0:
358,46,72414,6,0,B|372:148|372:148|332:180|336:240,1,200,4|8,0:0|0:0,0:0:0:0:
464,260,72956,6,0,P|388:196|288:192,1,200,4|8,0:0|0:0,0:0:0:0:
140,280,73498,6,0,P|216:344|316:348,1,200,4|2,0:0|0:0,0:0:0:0:
384,312,73980,22,0,P|410:291|427:263,1,66.6666666666667,0|0,3:0|3:0,0:0:0:0:
452,188,74221,2,0,P|454:154|448:122,1,66.6666666666667,0|0,3:0|3:0,0:0:0:0:
412,52,74462,2,0,P|391:25|363:8,2,66.6666666666667,0|2|0,3:0|3:0|3:0,0:0:0:0:
451,126,74823,2,0,P|458:158|456:192,1,66.6666666666667,0|0,3:0|3:0,0:0:0:0:
431,267,75064,2,0,P|414:295|388:316,1,66.6666666666667,0|0,3:0|3:0,0:0:0:0:
313,348,75305,54,0,P|214:343|140:280,1,200,4|8,0:0|0:0,0:0:0:0:
290,191,75847,22,0,P|389:196|464:260,1,200,4|8,0:0|0:0,0:0:0:0:
400,308,76299,1,2,0:0:0:0:
396,304,76390,22,0,P|386:200|438:115,1,200,4|0,0:0|0:0,2:0:0:0:
512,56,76932,1,8,0:0:0:0:
290,191,77293,5,8,0:3:0:0:
136,140,77474,1,8,0:3:0:0:
231,271,77655,1,0,0:0:0:0:
231,110,77835,1,8,0:3:0:0:
136,240,78016,1,0,0:0:0:0:
290,191,78197,5,4,0:0:0:0:
426,331,79643,5,0,0:0:0:0:
466,125,81088,5,2,0:0:0:0:
256,192,81269,12,2,83980,0:0:0:0:
256,192,84161,12,0,89402,0:0:0:0:
