osu file format v12

[General]
AudioFilename: 31 Destin Histoire -TV size-.mp3
AudioLeadIn: 2000
PreviewTime: 49100
Countdown: 0
SampleSet: Soft
StackLeniency: 0.7
Mode: 0
LetterboxInBreaks: 0
WidescreenStoryboard: 0

[Editor]
DistanceSpacing: 0.9
BeatDivisor: 2
GridSize: 4
TimelineZoom: 1

[Metadata]
Title:Destin Histoire (TV Size)
TitleUnicode:Destin Histoire (TV Size)
Artist:yoshiki*lisa
ArtistUnicode:yoshiki*lisa
Creator:wendao2000
Version:Hard
Source:GOSICK -ゴシック-
Tags:吉木りさ opening Story of Fate Gothic Yoshiki Risa Original Soundtrack Poche Destiny History
BeatmapID:325028
BeatmapSetID:121120

[Difficulty]
HPDrainRate:5
CircleSize:4
OverallDifficulty:6
ApproachRate:7
SliderMultiplier:1.6
SliderTickRate:1

[Events]
//Background and Video events
0,0,"bg.jpg",0,0
Video,-300,"vid.flv"
//Break Periods
//Storyboard Layer 0 (Background)
//Storyboard Layer 1 (Fail)
//Storyboard Layer 2 (Pass)
//Storyboard Layer 3 (Foreground)
//Storyboard Sound Samples
//Background Colour Transformations
3,100,210,210,210

[TimingPoints]
125,361.44578313253,4,2,2,40,1,0
125,-125,4,2,2,40,0,0
486,-125,4,2,1,40,0,0
667,-125,4,2,2,40,0,0
1932,-125,4,2,1,40,0,0
2112,-125,4,2,2,40,0,0
3378,-125,4,2,1,40,0,0
3558,-125,4,2,2,40,0,0
4823,-125,4,2,1,40,0,0
5004,-125,4,2,2,40,0,0
5185,-83.3333333333333,4,3,1,60,0,0
5908,-83.3333333333333,4,2,1,60,0,0
6269,-100,4,2,1,60,0,0
10426,-100,4,2,1,50,0,0
10606,-100,4,2,1,60,0,0
11149,-100,4,2,1,50,0,0
11329,-100,4,2,1,60,0,0
13498,-100,4,2,1,48,0,0
13859,-200,4,3,1,60,0,0
14402,-200,4,2,1,20,0,0
14582,-125,4,2,2,50,0,0
16390,-125,4,2,2,35,0,0
16570,-125,4,2,2,50,0,0
17835,-125,4,2,2,35,0,0
18016,-125,4,2,2,50,0,0
19281,-125,4,2,2,35,0,0
19462,-125,4,2,2,50,0,0
22173,-125,4,2,2,35,0,0
22353,-125,4,2,2,50,0,0
23618,-125,4,2,2,35,0,0
23799,-125,4,2,2,50,0,0
23980,-125,4,2,2,35,0,0
24161,-125,4,2,2,50,0,0
25787,-125,4,2,1,60,0,0
26149,-100,4,2,1,60,0,0
36992,-100,4,2,1,58,0,0
37173,-100,4,2,1,56,0,0
37353,-100,4,2,1,54,0,0
37534,-100,4,2,1,52,0,0
37715,-125,4,2,1,50,0,0
46028,-125,4,2,1,44,0,0
46118,-125,4,2,1,48,0,0
46209,-125,4,2,1,52,0,0
46299,-125,4,2,1,56,0,0
46390,-100,4,2,1,60,0,0
48197,-100,4,2,1,54,0,0
48558,-166.666666666667,4,3,1,40,0,0
49100,-166.666666666667,4,2,1,40,0,0
49281,-100,4,2,1,70,0,1
60124,-100,4,2,2,60,0,0
60847,-100,4,2,1,70,0,1
62293,-100,4,2,1,45,0,1
62474,-100,4,2,1,70,0,1
65185,-100,4,2,1,45,0,1
65365,-100,4,2,1,70,0,1
71691,-100,4,2,1,69,0,1
71781,-100,4,2,1,68,0,1
71871,-100,4,2,1,67,0,1
71962,-100,4,2,1,66,0,1
72052,-100,4,2,1,64,0,1
72143,-100,4,2,1,63,0,1
72233,-100,4,2,1,62,0,1
72323,-100,4,2,1,61,0,1
72414,-100,4,2,1,60,0,0
73980,-100,4,2,1,58,0,0
74100,-100,4,2,1,56,0,0
74221,-100,4,2,1,54,0,0
74341,-100,4,2,1,52,0,0
74462,-100,4,2,1,50,0,0
74582,-100,4,2,1,55,0,0
74703,-100,4,2,1,53,0,0
74823,-100,4,2,1,51,0,0
74944,-100,4,2,1,49,0,0
75064,-100,4,2,1,47,0,0
75185,-100,4,2,1,45,0,0
75305,-100,4,2,1,60,0,0
78197,-100,4,2,2,60,0,0
84703,-100,4,2,2,70,0,0
85426,-100,4,2,2,60,0,0
86149,-100,4,2,2,50,0,0
86871,-100,4,2,2,40,0,0
87594,-100,4,2,2,30,0,0
88317,-100,4,2,2,20,0,0
89040,-100,4,2,2,10,0,0
89402,-100,4,2,2,5,0,0

[Colours]
Combo1 : 210,210,210
Combo2 : 240,160,80
Combo3 : 240,90,90
Combo4 : 240,240,60
Combo5 : 120,180,240

[HitObjects]
80,80,125,6,0,P|160:132|252:124,1,192,2|2,0:0|0:0,0:0:0:0:
300,40,1028,1,0,0:0:0:0:
344,160,1390,1,0,0:0:0:0:
344,160,1570,6,0,P|264:212|168:220,1,192,2|2,0:0|0:0,0:0:0:0:
112,144,2474,1,0,0:0:0:0:
80,268,2835,1,0,0:0:0:0:
80,268,3016,6,0,P|172:244|256:284,1,192,2|2,0:0|0:0,0:0:0:0:
304,368,3920,1,0,0:0:0:0:
336,244,4281,1,0,0:0:0:0:
336,244,4462,6,0,B|304:160|368:144|336:56,1,192,2|0,0:0|0:0,0:0:0:0:
236,68,5185,6,0,L|140:64,1,95.9999970703126,0|0,0:0|0:0,0:0:0:0:
140,64,5908,6,0,P|204:136|188:224,1,191.999994140625,4|8,0:0|0:0,0:0:0:0:
132,280,6450,1,0,0:0:0:0:
216,336,6631,2,0,L|296:336,1,80,0|0,0:0|0:0,0:0:0:0:
368,300,6992,1,8,0:0:0:0:
436,368,7173,6,0,P|388:304|392:228,1,160,4|0,0:0|0:0,0:0:0:0:
456,180,7715,2,0,P|504:244|500:320,1,160,8|0,0:0|0:0,0:0:0:0:
436,368,8257,1,2,0:0:0:0:
368,300,8438,1,8,0:0:0:0:
276,324,8618,1,0,0:0:0:0:
208,256,8799,1,4,0:0:0:0:
172,100,9161,6,0,P|208:116|248:112,1,80,8|0,0:0|0:0,0:0:0:0:
320,76,9522,2,0,P|358:69|396:84,1,80,0|0,0:0|0:0,0:0:0:0:
440,152,9884,1,8,0:0:0:0:
396,236,10064,2,0,P|328:280|252:280,1,160,4|2,0:0|0:0,0:0:0:0:
44,256,10787,2,0,P|112:212|188:212,1,160,4|2,0:0|0:0,0:0:0:0:
252,280,11329,2,0,L|260:120,1,160,8|4,0:0|0:0,0:0:0:0:
408,60,12052,5,8,0:0:0:0:
408,60,12233,2,0,L|400:220,1,160,4|8,0:0|0:0,0:0:0:0:
453,279,12775,2,0,P|349:219|313:367,1,320,4|8,0:0|0:3,0:0:0:0:
313,367,13859,5,0,0:0:0:0:
248,320,14040,2,0,L|128:320,1,120,0|10,0:0|0:0,0:0:0:0:
92,224,14944,5,8,0:0:0:0:
172,160,15305,1,10,0:0:0:0:
257,216,15667,1,8,0:0:0:0:
230,314,16028,2,0,P|328:288|328:144,1,256,10|10,0:0|0:0,0:0:0:0:
256,84,17112,1,8,0:0:0:0:
168,136,17474,6,0,P|264:220|388:220,1,256,10|10,0:0|0:0,0:0:0:0:
440,132,18558,1,8,0:0:0:0:
384,48,18920,2,0,P|308:152|320:272,1,256,10|10,0:0|0:0,0:0:0:0:
388,360,20004,1,8,0:0:0:0:
280,340,20365,6,0,L|152:336,1,128,10|8,0:0|0:0,0:0:0:0:
52,356,21088,2,0,P|100:312|108:252,1,128,10|8,0:0|0:0,0:0:0:0:
20,160,21811,2,0,P|128:228|244:196,1,256,10|10,0:0|0:0,0:0:0:0:
300,80,22896,1,8,0:0:0:0:
360,208,23257,6,0,B|384:300|384:300|376:352|336:380,2,192,10|2|10,0:0|0:0|0:0,0:0:0:0:
256,192,24522,12,8,25787,0:0:0:0:
460,80,26149,22,0,P|424:96|384:92,1,80,4|0,0:0|0:0,0:0:0:0:
312,56,26510,2,0,P|236:80|192:144,2,160,8|0|8,0:0|0:0|0:0,0:0:0:0:
372,108,27414,1,0,0:0:0:0:
352,184,27594,6,0,P|336:220|336:260,1,80,0|0,0:0|0:0,0:0:0:0:
380,328,27956,2,0,P|304:352|228:336,1,160,8|0,0:0|0:0,0:0:0:0:
180,272,28498,1,0,0:0:0:0:
188,192,28679,1,8,0:0:0:0:
248,140,28859,1,0,0:0:0:0:
328,140,29040,6,0,L|336:60,1,80,0|0,0:0|0:0,0:0:0:0:
412,36,29402,2,0,L|396:196,1,160,8|0,0:0|0:0,0:0:0:0:
443,260,29944,2,0,P|407:275|368:268,1,80,0|8,0:0|0:0,0:0:0:0:
300,228,30305,1,0,0:0:0:0:
300,228,30486,6,0,P|224:204|152:232,2,160,0|8|0,0:0|0:0|0:0,0:0:0:0:
352,288,31390,1,0,0:0:0:0:
452,232,31570,1,8,0:0:0:0:
476,120,31751,1,0,0:0:0:0:
436,12,31932,22,0,P|364:48|288:40,1,160,0|8,0:0|0:0,0:0:0:0:
216,4,32474,1,0,0:0:0:0:
140,28,32655,2,0,B|100:48|100:48|136:96|120:160,1,160,0|8,0:0|0:0,0:0:0:0:
64,216,33197,1,0,0:0:0:0:
64,216,33378,6,0,P|136:252|212:244,1,160,0|8,0:0|0:0,0:0:0:0:
256,176,33920,1,0,0:0:0:0:
332,152,34100,2,0,L|412:144,2,80,0|0|8,0:0|0:0|0:0,0:0:0:0:
314,229,34643,1,0,0:0:0:0:
256,176,34823,6,0,P|181:152|137:88,1,160,0|8,0:0|0:0,0:0:0:0:
216,80,35365,2,0,P|192:155|128:199,2,160,0|0|8,0:0|0:0|0:0,0:0:0:0:
180,8,36269,1,0,0:0:0:0:
244,56,36450,1,0,0:0:0:0:
324,56,36631,1,8,0:0:0:0:
392,12,36811,1,0,0:0:0:0:
340,92,36992,6,0,P|324:128|324:168,1,80,8|8,0:0|0:0,0:0:0:0:
464,204,37353,2,0,P|440:172|406:152,1,80,2|0,0:0|0:0,0:0:0:0:
305,255,37715,5,4,0:0:0:0:
305,255,38257,5,0,0:0:0:0:
309,259,38438,2,0,P|128:264|116:264,1,192,8|8,0:0|0:0,0:0:0:0:
117,264,39341,2,0,P|145:207|149:143,1,128,8|0,0:0|0:0,0:0:0:0:
101,79,39884,5,8,0:0:0:0:
101,79,40245,2,0,P|153:83|165:83,1,64,0|8,0:0|0:0,0:0:0:0:
229,35,40606,5,0,0:0:0:0:
229,35,41149,1,0,0:0:0:0:
233,39,41329,2,0,P|325:67|385:139,1,192,8|8,0:0|0:0,0:0:0:0:
385,139,42233,6,0,P|377:171|381:203,1,64,8|0,0:0|0:0,0:0:0:0:
438,260,42594,1,0,0:0:0:0:
359,279,42775,2,0,P|298:260|258:212,1,128,8|0,0:0|0:0,0:0:0:0:
254,132,43317,1,8,0:0:0:0:
302,68,43498,1,4,0:0:0:0:
302,68,44040,21,0,0:0:0:0:
254,132,44221,2,0,P|194:152|94:84,1,192,8|8,0:0|0:0,0:0:0:0:
94,85,45124,6,0,L|86:149,1,64,8|0,0:0|0:0,0:0:0:0:
174,224,45486,2,0,L|165:160,1,64,0|8,0:0|0:0,0:0:0:0:
90,264,45847,1,0,0:0:0:0:
166,316,46028,6,0,L|198:320,3,32,8|8|8|8,0:0|0:0|0:0|0:0,0:0:0:0:
226,320,46390,2,0,P|302:296|334:228,1,160,4|8,0:0|0:0,0:0:0:0:
306,152,46932,2,0,P|320:75|386:34,1,160,4|8,0:0|0:0,0:0:0:0:
386,34,47655,6,0,P|278:84|162:68,1,240,4|8,0:0|3:0,0:0:0:0:
161,68,48558,5,6,0:2:0:0:
104,132,48739,2,0,L|92:228,1,95.9999970703126,12|0,0:2|0:0,0:0:0:0:
36,320,49281,6,0,P|112:296|184:324,1,160,4|8,0:0|0:0,0:0:0:0:
244,376,49823,2,0,P|324:356|368:296,1,160,0|0,0:0|0:0,0:0:0:0:
344,220,50365,1,8,0:0:0:0:
290,278,50546,6,0,P|368:296|424:220,1,160,4|0,0:0|0:0,0:0:0:0:
392,152,51088,2,0,P|413:116|444:95,1,80,8|0,0:0|0:0,0:0:0:0:
360,52,51450,2,0,P|318:50|284:34,1,80,0|0,0:0|0:0,0:0:0:0:
289,129,51811,2,0,P|308:165|311:202,1,80,8|0,0:0|0:0,0:0:0:0:
304,288,52173,6,0,P|228:316|156:292,2,160,4|8|0,0:0|0:0|0:0,0:0:0:0:
340,216,53076,1,0,0:0:0:0:
412,180,53257,1,8,0:0:0:0:
492,188,53438,6,0,P|512:116|500:28,1,160,4|0,0:0|0:0,0:0:0:0:
420,16,53980,1,8,0:0:0:0:
349,60,54161,2,0,P|329:137|340:216,1,160,4|0,0:0|0:0,0:0:0:0:
384,280,54703,2,0,P|348:296|310:288,1,80,12|0,0:0|0:0,0:0:0:0:
252,208,55064,22,0,P|213:201|104:244,2,160,4|8|0,0:0|0:0|0:0,0:0:0:0:
304,268,55968,1,0,0:0:0:0:
272,340,56149,1,8,0:0:0:0:
350,331,56329,6,0,P|404:272|412:196,1,160,4|0,0:0|0:0,0:0:0:0:
348,148,56871,2,0,L|372:72,1,80,8|0,0:0|0:0,0:0:0:0:
269,139,57233,2,0,L|251:61,1,80,0|0,0:0|0:0,0:0:0:0:
196,170,57594,2,0,L|142:111,1,80,8|0,0:0|0:0,0:0:0:0:
104,40,57956,6,0,P|112:120|60:172,1,160,4|8,0:0|0:0,0:0:0:0:
0,228,58498,2,0,P|80:240|152:272,1,160,4|8,0:0|0:0,0:0:0:0:
152,272,59221,6,0,P|224:304|303:315,1,160,4|8,0:0|0:0,0:0:0:0:
388,292,59763,1,8,0:0:0:0:
432,216,59944,1,0,0:0:0:0:
432,128,60124,6,0,P|416:116|396:112,8,40,2|2|2|2|2|2|2|2|4,0:0|0:0|0:0|0:0|0:0|0:0|0:0|0:0|0:0,0:0:0:0:
475,292,61209,6,0,P|436:304|396:300,1,80,8|0,0:0|0:0,0:0:0:0:
340,244,61570,2,0,P|301:232|261:236,1,80,8|0,0:0|0:0,0:0:0:0:
205,292,61932,2,0,P|166:304|126:300,1,80,8|4,0:0|0:0,0:0:0:0:
68,232,62293,1,2,0:0:0:0:
92,144,62474,6,0,P|131:132|171:136,1,80,0|8,0:0|0:0,0:0:0:0:
244,104,62835,2,0,P|216:68|176:56,2,80,0|8|0,0:0|0:0|0:0,0:0:0:0:
234,184,63378,2,0,P|279:177|309:149,1,80,8|0,0:0|0:0,0:0:0:0:
328,80,63739,6,0,P|352:156|416:200,1,160,4|8,0:0|0:0,0:0:0:0:
488,164,64281,1,0,0:0:0:0:
482,244,64462,1,8,0:0:0:0:
512,316,64643,2,0,P|476:308|440:320,1,80,0|8,0:0|0:0,0:0:0:0:
372,376,65004,1,4,0:0:0:0:
280,364,65185,6,0,L|200:368,1,80,2|0,0:0|0:0,0:0:0:0:
116,284,65546,2,0,L|196:288,1,80,8|0,0:0|0:0,0:0:0:0:
252,220,65908,1,4,0:0:0:0:
337,240,66088,2,0,P|370:262|389:296,1,80,0|4,0:0|0:0,0:0:0:0:
372,376,66450,1,0,0:0:0:0:
448,352,66631,22,0,P|487:283|475:207,1,160,4|8,0:0|0:0,0:0:0:0:
416,156,67173,2,0,P|400:120|404:80,1,80,0|8,0:0|0:0,0:0:0:0:
452,16,67534,1,0,0:0:0:0:
376,44,67715,1,8,0:0:0:0:
296,32,67896,6,0,P|216:40|152:84,1,160,4|0,0:0|0:0,0:0:0:0:
96,140,68438,2,0,P|64:168|28:180,1,80,8|0,0:0|0:0,0:0:0:0:
168,188,68799,2,0,P|154:228|129:256,1,80,8|0,0:0|0:0,0:0:0:0:
254,193,69161,2,0,P|262:234|254:271,1,80,8|0,0:0|0:0,0:0:0:0:
331,154,69522,6,0,P|392:196|428:272,1,160,4|0,0:0|0:0,0:0:0:0:
394,343,70064,2,0,P|316:338|252:384,1,160,4|0,0:0|0:0,0:0:0:0:
252,384,70787,6,0,P|296:316|288:240,1,160,4|0,0:0|0:0,0:0:0:0:
232,184,71329,2,0,P|220:144|224:104,1,80,8|0,0:0|0:0,0:0:0:0:
296,72,71691,6,0,P|303:90|304:110,8,40,8|8|8|8|8|8|8|8|4,0:0|0:0|0:0|0:0|0:0|0:0|0:0|0:0|0:0,0:0:0:0:
232,184,72775,5,8,0:0:0:0:
232,184,72956,2,0,P|300:228|376:224,1,160,4|8,0:0|0:0,0:0:0:0:
436,172,73498,1,4,0:0:0:0:
472,312,73859,6,0,L|480:368,2,53.3333333333333,2|0|0,0:0|3:0|3:0,0:0:0:0:
432,328,74221,2,0,L|425:384,2,53.3333333333333,0|0|0,3:0|3:0|3:0,0:0:0:0:
388,332,74582,2,0,L|366:384,2,53.3333333333333,2|0|0,3:0|3:0|3:0,0:0:0:0:
345,325,74944,2,0,L|311:370,2,53.3333333333333,0|0|0,3:0|3:0|3:0,0:0:0:0:
304,308,75305,6,0,P|260:344|164:328,1,160,4|8,0:0|0:0,0:0:0:0:
152,248,75847,2,0,P|217:206|292:228,1,160,4|8,0:0|0:0,0:0:0:0:
367,256,76390,2,0,B|384:196|348:148|296:132|296:132|272:96|284:56,1,240,4|8,0:0|0:0,0:0:0:0:
284,56,77293,6,0,L|204:44,2,80,8|8|0,0:3|0:3|0:0,0:0:0:0:
380,72,77835,2,0,L|460:60,2,80,8|0|4,0:3|0:3|0:0,0:0:0:0:
356,176,79643,5,0,0:0:0:0:
332,280,81088,5,2,0:0:0:0:
256,192,81269,12,2,83980,0:0:0:0:
256,192,84161,12,0,89402,0:0:0:0:
