osu file format v12

[General]
AudioFilename: 31 Destin Histoire -TV size-.mp3
AudioLeadIn: 2000
PreviewTime: 49100
Countdown: 0
SampleSet: None
StackLeniency: 0.7
Mode: 0
LetterboxInBreaks: 0
WidescreenStoryboard: 0

[Editor]
DistanceSpacing: 0.9
BeatDivisor: 4
GridSize: 4
TimelineZoom: 1

[Metadata]
Title:Destin Histoire (TV Size)
TitleUnicode:Destin Histoire (TV Size)
Artist:yoshiki*lisa
ArtistUnicode:yoshiki*lisa
Creator:wendao2000
Version:Easy
Source:GOSICK -ゴシック-
Tags:吉木りさ opening Story of Fate Gothic Yoshiki Risa Original Soundtrack Poche Destiny History
BeatmapID:377116
BeatmapSetID:121120

[Difficulty]
HPDrainRate:3
CircleSize:3
OverallDifficulty:3
ApproachRate:0
SliderMultiplier:0.8
SliderTickRate:1

[Events]
//Background and Video events
0,0,"bg.jpg",0,0
Video,-300,"vid.flv"
//Break Periods
//Storyboard Layer 0 (Background)
//Storyboard Layer 1 (Fail)
//Storyboard Layer 2 (Pass)
//Storyboard Layer 3 (Foreground)
//Storyboard Sound Samples
Sample,6272,0,"soft-hitclap.wav",35
Sample,9164,0,"soft-hitclap.wav",35
Sample,10609,0,"soft-hitclap.wav",35
Sample,11332,0,"soft-hitclap.wav",35
Sample,26513,0,"soft-hitclap.wav",35
Sample,27959,0,"soft-hitclap.wav",35
Sample,29405,0,"soft-hitclap.wav",35
Sample,30850,0,"soft-hitclap.wav",35
Sample,32296,0,"soft-hitclap.wav",35
Sample,33742,0,"soft-hitclap.wav",35
Sample,35188,0,"soft-hitclap.wav",35
Sample,48561,0,"soft-hitfinish.wav",35
Sample,48561,0,"soft-hitclap.wav",35
Sample,50368,0,"soft-hitclap.wav",45
Sample,52537,0,"soft-hitclap.wav",45
Sample,56152,0,"soft-hitclap.wav",45
Sample,66995,0,"soft-hitclap.wav",45
//Background Colour Transformations
3,100,210,210,210

[TimingPoints]
125,361.44578313253,4,2,2,40,1,0
305,-100,4,2,1,40,0,0
1028,-100,4,2,2,40,0,0
1751,-100,4,2,1,40,0,0
2474,-100,4,2,2,40,0,0
3197,-100,4,2,1,40,0,0
3920,-100,4,2,2,40,0,0
5185,-100,4,3,1,60,0,0
5908,-100,4,2,1,60,0,0
11149,-100,4,2,1,50,0,0
11329,-100,4,2,1,60,0,0
13317,-100,4,2,1,56,0,0
13859,-100,4,3,1,60,0,0
14582,-100,4,2,2,50,0,0
14944,-100,4,2,2,35,0,0
15124,-100,4,2,2,50,0,0
16390,-100,4,2,2,35,0,0
16570,-100,4,2,2,50,0,0
17835,-100,4,2,2,35,0,0
18016,-100,4,2,2,50,0,0
19281,-100,4,2,2,35,0,0
19462,-100,4,2,2,50,0,0
20727,-100,4,2,2,35,0,0
20908,-100,4,2,2,50,0,0
22173,-100,4,2,2,35,0,0
22353,-100,4,2,2,50,0,0
24341,-100,4,2,2,35,0,0
24522,-100,4,2,2,50,0,0
24703,-100,4,2,2,52,0,0
25064,-100,4,2,0,56,0,0
25426,-100,4,2,0,60,0,0
25787,-100,4,2,1,60,0,0
26149,-100,4,2,1,60,0,0
36992,-100,4,2,1,58,0,0
37715,-100,4,2,1,50,0,0
46028,-100,4,2,1,44,0,0
46390,-100,4,2,1,60,0,0
48558,-100,4,3,1,40,0,0
49281,-100,4,2,1,70,0,1
60124,-100,4,2,2,60,0,0
60847,-100,4,2,1,70,0,1
71691,-100,4,2,1,69,0,1
72052,-100,4,2,1,64,0,1
72414,-100,4,2,1,60,0,0
74582,-100,4,2,1,55,0,0
75305,-100,4,2,1,60,0,0
78197,-100,4,2,2,60,0,0
84703,-100,4,2,2,70,0,0
85426,-100,4,2,2,60,0,0
86149,-100,4,2,2,50,0,0
86871,-100,4,2,2,40,0,0
87594,-100,4,2,2,30,0,0
88317,-100,4,2,2,20,0,0
89040,-100,4,2,2,10,0,0
89402,-100,4,2,2,5,0,0

[Colours]
Combo1 : 210,210,210
Combo2 : 240,160,80
Combo3 : 240,90,90
Combo4 : 240,240,60
Combo5 : 120,180,240

[HitObjects]
160,112,125,6,0,B|144:152|148:188|148:188|88:208|44:256,1,200,2|2,0:0|0:0,0:0:0:0:
120,348,1570,2,0,P|212:296|300:312,1,200,2|2,0:0|0:0,0:0:0:0:
384,228,3016,6,0,L|364:28,1,200,2|2,0:0|0:0,0:0:0:0:
264,96,4462,2,0,L|272:176,1,80,2|0,0:0|0:0,0:0:0:0:
224,240,5185,2,0,L|220:284,1,40,0|4,0:0|0:0,0:0:0:0:
148,376,5908,6,0,P|220:340|296:352,1,160,4|0,0:0|0:0,0:0:0:0:
412,380,7173,2,0,P|432:324|428:264,1,120,4|8,0:0|0:0,0:0:0:0:
376,204,8076,1,0,0:0:0:0:
400,128,8438,1,8,0:0:0:0:
480,112,8799,6,0,P|432:52|336:76,1,160,4|0,0:0|0:0,0:0:0:0:
284,96,9884,1,8,0:0:0:0:
124,80,10606,2,0,B|92:124|92:124|92:180|124:224,1,160
184,280,11691,6,0,P|246:301|299:294,2,120,4|4|4,0:0|0:0|0:0,0:0:0:0:
204,116,13498,1,2,0:0:0:0:
284,96,13859,1,4,0:2:0:0:
412,0,14582,6,0,P|380:72|400:148,1,160,10|10,0:0|0:0,0:0:0:0:
456,208,15667,1,8,0:0:0:0:
440,288,16028,2,0,P|384:340|304:340,1,160,10|10,0:0|0:0,0:0:0:0:
152,288,17474,6,0,B|107:289|80:319|80:319|64:281|27:261,1,160,10|10,0:0|0:0,0:0:0:0:
72,192,18558,1,8,0:0:0:0:
27,122,18920,2,0,B|64:102|80:64|80:64|107:94|152:96,1,160,10|10,0:0|0:0,0:0:0:0:
300,40,20365,6,0,B|336:58|376:48|376:48|411:22|455:23,1,160,10|10,0:0|0:0,0:0:0:0:
484,100,21450,1,8,0:0:0:0:
452,176,21811,2,0,B|410:177|375:151|375:151|336:141|299:159,1,160,10|10,0:0|0:0,0:0:0:0:
280,240,22896,1,8,0:0:0:0:
312,316,23257,6,0,P|282:345|245:362,1,80,10|8,0:0|0:0,0:0:0:0:
168,344,23980,2,0,B|128:336|88:348|88:348|92:308|76:268,1,160,10|10,0:0|0:0,0:0:0:0:
60,188,25064,1,8,0:0:0:0:
104,116,25426,1,4,0:0:0:0:
188,104,25787,1,8,0:0:0:0:
260,148,26149,6,0,P|336:172|412:156,1,160,4|0,0:0|0:0,0:0:0:0:
448,84,27233,1,8,0:0:0:0:
496,148,27594,2,0,P|485:227|437:291,1,160,0|0,0:0|0:0,0:0:0:0:
360,312,28678,1,8,0:0:0:0:
284,284,29041,6,0,B|244:296|204:276|204:276|164:256|124:268,1,160,0|0,0:0|0:0,0:0:0:0:
156,344,30124,1,8,0:0:0:0:
156,344,30486,2,0,P|208:276|180:204,1,160,0|0,0:0|0:0,0:0:0:0:
56,116,31932,6,0,B|132:140|132:140|172:112|216:120,1,160,0|0,0:0|0:0,0:0:0:0:
256,56,33016,1,8,0:0:0:0:
304,118,33378,2,0,B|340:112|380:140|380:140|456:116,1,160,0|0,0:0|0:0,0:0:0:0:
504,268,34823,6,0,P|436:312|360:304,1,160,0|0,0:0|0:0,0:0:0:0:
304,248,35908,1,8,0:0:0:0:
256,312,36269,1,0,0:0:0:0:
208,248,36631,1,8,0:0:0:0:
151,304,36992,2,0,P|73:311|8:268,1,160,8|4,0:0|0:0,0:0:0:0:
0,108,38438,6,0,L|160:96,1,160,8|0,0:0|0:0,0:0:0:0:
292,8,39884,2,0,P|332:76|328:154,1,160,8|0,0:0|0:0,0:0:0:0:
182,229,41329,2,0,P|179:307|219:375,1,160,8|0,0:0|0:0,0:0:0:0:
352,288,42775,2,0,L|512:276,1,160,8|4,0:0|0:0,0:0:0:0:
512,120,44221,6,0,L|352:132,1,160,8|0,0:0|0:0,0:0:0:0:
212,208,45667,2,0,P|172:200|140:176,1,80,8|8,0:0|0:0,0:0:0:0:
108,104,46390,6,0,P|104:164|76:216,1,120,4|4,0:0|0:0,0:0:0:0:
8,360,47655,2,0,B|61:327|123:345|123:345|185:364|238:331,1,240,4|12,0:0|0:2,0:0:0:0:
312,236,49281,6,0,L|316:156,1,80,4|8,0:0|0:0,0:0:0:0:
364,92,50004,2,0,P|304:108|248:100,1,120,0|4,0:0|0:0,0:0:0:0:
140,48,51088,1,8,0:0:0:0:
152,128,51450,2,0,L|144:208,1,80,0|8,0:0|0:0,0:0:0:0:
108,280,52173,6,0,P|180:316|256:308,1,160,4|0,0:0|0:0,0:0:0:0:
348,224,53438,2,0,P|400:240|442:289,1,120,4|8,0:0|0:0,0:0:0:0:
464,368,54341,1,0,0:0:0:0:
386,347,54703,1,12,0:0:0:0:
308,364,55064,6,0,L|228:360,1,80,4|8,0:0|0:0,0:0:0:0:
156,324,55787,2,0,P|112:284|96:228,2,120,0|4|8,0:0|0:0|0:0,0:0:0:0:
224,280,57233,2,0,L|304:284,1,80,0|8,0:0|0:0,0:0:0:0:
380,260,57956,6,0,P|424:220|440:164,1,120,4|4,0:0|0:0,0:0:0:0:
304,80,59221,2,0,P|260:120|244:176,1,120,4|8,0:0|0:0,0:0:0:0:
272,252,60125,2,0,L|276:332,1,80,2|2,0:0|0:0,0:0:0:0:
356,344,60847,6,0,L|352:264,1,80,4|8,0:0|0:0,0:0:0:0:
388,192,61570,1,8,0:0:0:0:
352,120,61932,2,0,L|356:40,2,80,8|2|8,0:0|0:0|0:0,0:0:0:0:
307,187,63016,2,0,P|268:200|228:196,1,80,8|8,0:0|0:0,0:0:0:0:
168,144,63739,6,0,P|126:141|89:155,1,80,4|8,0:0|0:0,0:0:0:0:
140,220,64462,1,8,0:0:0:0:
112,296,64823,2,0,P|153:298|190:284,1,80,8|2,0:0|0:0,0:0:0:0:
256,240,65546,1,8,0:0:0:0:
322,285,65908,2,0,P|360:298|400:296,1,80,12|12,0:0|0:0,0:0:0:0:
456,240,66631,6,0,P|444:160|392:104,1,160,4|8,0:0|0:0,0:0:0:0:
320,140,67715,1,8,0:0:0:0:
256,92,68076,2,0,L|256:12,2,80,2|8|8,0:0|0:0|0:0,0:0:0:0:
192,140,69161,1,8,0:0:0:0:
120,103,69522,6,0,P|76:144|56:200,1,120,4|4,0:0|0:0,0:0:0:0:
176,308,70787,2,0,P|219:267|239:211,1,120,4|8,0:0|0:0,0:0:0:0:
284,144,71691,2,0,L|364:144,1,80,8|8,0:0|0:0,0:0:0:0:
256,192,72414,12,2,74582,3:0:0:0:
155,220,75305,6,0,P|157:279|196:324,1,120,4|4,0:0|0:0,0:0:0:0:
316,324,76390,2,0,P|352:284|356:220,1,120,4|8,0:0|0:0,0:0:0:0:
293,120,77474,2,0,P|256:108|219:120,1,80,8|8,0:3|0:3,0:0:0:0:
256,192,78197,5,4,0:0:0:0:
256,192,79643,5,0,0:0:0:0:
256,192,81088,5,2,0:0:0:0:
256,192,81269,12,2,83980,0:0:0:0:
256,192,84161,12,0,89402,0:0:0:0:
