osu file format v9

[General]
AudioFilename: Destin Histoire (TV Size).mp3
AudioLeadIn: 1000
PreviewTime: 49454
Countdown: 0
SampleSet: Normal
StackLeniency: 0.7
Mode: 1
LetterboxInBreaks: 1

[Editor]
DistanceSpacing: 1
BeatDivisor: 4
GridSize: 8

[Metadata]
Title:Destin Histoire (TV Size)
Artist:yoshiki*lisa
Creator:Mok
Version:Taiko
Source:GOSICK
Tags:destiny story victorique kazuya victorica numuto

[Difficulty]
HPDrainRate:5
CircleSize:5
OverallDifficulty:5
ApproachRate:5
SliderMultiplier:1.4
SliderTickRate:2

[Events]
//Background and Video events
Video,0,"Destin Histoire (TV Size).avi"
0,0,"Destin Histoire (TV Size) Taiko BG.jpg"
//Break Periods
//Storyboard Layer 0 (Background)
//Storyboard Layer 1 (Fail)
//Storyboard Layer 2 (Pass)
//Storyboard Layer 3 (Foreground)
//Storyboard Sound Samples
//Background Colour Transformations
3,100,163,162,255

[TimingPoints]
569,361.44578313253,4,1,0,50,1,0
49725,-100,4,1,0,50,0,1
78641,-100,4,1,0,50,0,0

[Colours]
Combo1 : 21,97,242
Combo2 : 166,18,61
Combo3 : 40,208,173

[HitObjects]
256,192,5629,1,4
256,192,5809,1,4
256,192,6352,5,0
256,192,6532,1,0
256,192,6713,1,2
256,192,7075,5,0
256,192,7255,1,0
256,192,7436,1,2
256,192,7617,1,0
256,192,7978,5,0
256,192,8159,1,2
256,192,8340,1,0
256,192,8520,1,0
256,192,8701,1,0
256,192,8882,1,0
256,192,9062,1,2
256,192,9243,1,0
256,192,9424,1,0
256,192,9605,1,0
256,192,9785,1,2
256,192,9966,1,0
256,192,10147,1,0
256,192,10328,1,2
256,192,10508,1,0
256,192,10870,5,0
256,192,11050,1,0
256,192,11231,1,6
256,192,11593,1,2
256,192,11773,1,2
256,192,12135,5,0
256,192,12315,1,0
256,192,12496,1,2
256,192,12677,1,0
256,192,13038,5,0
256,192,13129,1,0
256,192,13219,1,2
256,192,13761,5,0
256,192,13852,1,0
256,192,13942,1,0
256,192,14303,1,4
256,192,14484,1,4
256,192,15026,5,0
256,192,15388,1,0
256,192,15568,1,0
256,192,15749,1,0
256,192,16111,1,0
256,192,16291,1,0
256,192,16472,1,2
256,192,16834,1,0
256,192,17014,1,0
256,192,17195,1,0
256,192,17556,1,0
256,192,17737,1,2
256,192,17918,1,0
256,192,18279,1,0
256,192,18460,1,0
256,192,18641,1,0
256,192,19002,1,2
256,192,19183,1,0
256,192,19364,1,0
256,192,19725,1,0
256,192,19906,1,0
256,192,20087,1,2
256,192,20448,5,0
256,192,20629,1,0
256,192,20809,1,0
256,192,21171,1,0
256,192,21352,1,0
256,192,21532,1,0
256,192,21894,1,0
256,192,22075,1,0
256,192,22255,1,2
256,192,22617,1,0
256,192,22797,1,0
256,192,22978,1,0
256,192,23340,1,0
256,192,23520,1,2
256,192,23701,1,0
256,192,24062,1,2
256,192,24243,1,0
256,192,24424,1,0
256,192,24605,1,2
256,192,24785,1,0
256,192,24966,1,2
256,192,25328,5,0
256,192,25508,1,0
256,192,25689,1,0
256,192,25870,1,0
256,192,26050,1,4
256,192,26231,1,6
256,192,26412,1,6
256,192,26593,5,0
256,192,26773,1,0
256,192,26954,1,2
256,192,27135,1,0
256,192,27225,1,0
256,192,27315,1,0
256,192,27496,1,0
256,192,27677,1,2
256,192,27858,1,0
256,192,28038,1,0
256,192,28219,1,0
256,192,28400,1,2
256,192,28581,1,0
256,192,28671,1,0
256,192,28761,1,0
256,192,28942,1,0
256,192,29123,1,2
256,192,29303,1,0
256,192,29484,1,0
256,192,29665,1,0
256,192,29755,1,0
256,192,29846,1,2
256,192,30026,1,0
256,192,30117,1,0
256,192,30207,1,0
256,192,30388,1,0
256,192,30568,1,2
256,192,30749,1,0
256,192,30840,1,0
256,192,30930,1,0
256,192,31111,1,0
256,192,31291,1,2
256,192,31472,1,0
256,192,31562,1,0
256,192,31653,1,0
256,192,31834,1,0
256,192,31924,1,0
256,192,32014,1,2
256,192,32195,5,0
256,192,32376,1,0
256,192,32556,1,0
256,192,32647,1,0
256,192,32737,1,2
256,192,32918,1,0
256,192,33099,1,0
256,192,33279,1,0
256,192,33370,1,0
256,192,33460,1,2
256,192,33641,1,0
256,192,33822,1,2
256,192,34002,1,0
256,192,34093,1,0
256,192,34183,1,2
256,192,34364,1,0
256,192,34544,1,2
256,192,34725,1,0
256,192,34815,1,0
256,192,34906,1,2
256,192,35087,5,2
256,192,35267,1,0
256,192,35448,1,0
256,192,35538,1,0
256,192,35629,1,0
256,192,35809,1,2
256,192,35990,1,0
256,192,36171,1,0
256,192,36352,1,2
256,192,36532,1,2
256,192,36623,1,2
256,192,36713,1,0
256,192,36894,1,0
256,192,37075,1,2
256,192,37436,5,0
256,192,37526,1,2
256,192,37797,1,2
256,192,37978,1,0
256,192,38159,1,0
256,192,38340,1,0
256,192,38520,1,0
256,192,38611,1,0
256,192,38701,1,0
256,192,38882,1,0
256,192,39062,1,0
256,192,39424,5,0
256,192,39605,1,2
256,192,39785,1,0
256,192,39876,1,0
256,192,39966,1,0
256,192,40147,1,0
256,192,40328,1,0
256,192,40689,5,0
256,192,40870,1,2
256,192,41050,1,0
256,192,41231,1,0
256,192,41322,1,0
256,192,41412,1,0
256,192,41593,1,2
256,192,41773,1,0
256,192,41864,1,0
256,192,41954,1,0
256,192,42135,1,2
256,192,42315,1,0
256,192,42677,1,0
256,192,42858,1,2
256,192,43038,1,0
256,192,43400,1,2
256,192,43942,5,0
256,192,44123,1,0
256,192,44303,1,2
256,192,44484,1,0
256,192,44665,1,0
256,192,44846,1,0
256,192,45026,1,2
256,192,45207,1,0
256,192,45388,1,2
256,192,45569,1,0
256,192,45749,1,2
256,192,45930,1,0
256,192,46111,1,0
256,192,46291,1,0
256,192,46472,5,2
256,192,46562,1,2
256,192,46653,1,2
256,192,46743,1,2
256,192,46834,1,0
256,192,47014,1,0
256,192,47105,1,0
256,192,47195,1,2
256,192,47376,1,4
256,192,47556,1,0
256,192,47647,1,0
256,192,47737,1,2
256,192,47918,1,0
256,192,48099,1,4
256,192,49002,5,4
256,192,49183,1,4
256,192,49725,5,0
256,192,49906,1,0
256,192,49996,1,0
256,192,50087,1,2
256,192,50267,1,0
256,192,50448,1,0
256,192,50629,1,0
256,192,50719,1,0
256,192,50809,1,2
256,192,50990,1,0
256,192,51171,1,0
256,192,51352,1,0
256,192,51442,1,0
256,192,51532,1,2
256,192,51713,1,0
256,192,51894,1,0
256,192,52075,1,0
256,192,52165,1,0
256,192,52255,1,2
256,192,52436,1,0
256,192,52617,1,0
256,192,52797,1,0
256,192,52888,1,0
256,192,52978,1,2
256,192,53159,1,0
256,192,53340,1,0
256,192,53520,1,0
256,192,53611,1,0
256,192,53701,1,2
256,192,53882,1,0
256,192,54062,1,0
256,192,54153,1,0
256,192,54243,1,0
256,192,54424,1,2
256,192,54605,1,2
256,192,54966,5,0
256,192,55147,1,2
256,192,55328,1,0
256,192,55418,1,0
256,192,55508,1,0
256,192,55689,1,0
256,192,55779,1,0
256,192,55870,1,2
256,192,56050,1,0
256,192,56141,1,0
256,192,56231,1,0
256,192,56412,1,0
256,192,56593,1,2
256,192,56773,1,0
256,192,56864,1,0
256,192,56954,1,0
256,192,57135,1,0
256,192,57315,1,2
256,192,57496,1,0
256,192,57587,1,0
256,192,57677,1,0
256,192,57858,1,0
256,192,58038,1,2
256,192,58219,1,0
256,192,58400,1,0
256,192,58490,1,2
256,192,58581,1,2
256,192,58761,1,2
256,192,58942,1,0
256,192,59032,1,0
256,192,59123,1,0
256,192,59303,1,2
256,192,59394,1,2
256,192,59484,1,0
256,192,59665,1,6
256,192,60026,5,0
256,192,60117,1,2
256,192,60207,1,2
256,192,60297,1,2
256,192,60388,1,0
256,192,60569,1,0
256,192,60749,1,2
256,192,60840,1,2
256,192,60930,1,0
256,192,61111,5,2
256,192,61291,1,0
256,192,61472,1,2
256,192,61653,1,0
256,192,61743,1,0
256,192,61834,1,2
256,192,62014,1,0
256,192,62195,1,2
256,192,62285,1,2
256,192,62376,1,0
256,192,62556,1,2
256,192,62737,1,0
256,192,62918,1,2
256,192,63099,1,0
256,192,63189,1,0
256,192,63279,1,2
256,192,63460,1,0
256,192,63641,1,2
256,192,63731,1,2
256,192,63822,1,0
256,192,64002,1,2
256,192,64183,1,0
256,192,64364,1,2
256,192,64544,1,0
256,192,64635,1,0
256,192,64725,1,2
256,192,64906,1,0
256,192,65087,1,2
256,192,65177,1,2
256,192,65267,1,0
256,192,65448,1,0
256,192,65538,1,0
256,192,65629,1,0
256,192,65809,1,0
256,192,65990,1,2
256,192,66171,1,0
256,192,66352,1,0
256,192,66713,5,0
256,192,66894,1,2
256,192,66984,1,2
256,192,67075,1,0
256,192,67255,1,2
256,192,67436,1,0
256,192,67526,1,0
256,192,67617,1,2
256,192,67797,1,0
256,192,67978,1,2
256,192,68069,1,2
256,192,68159,1,0
256,192,68340,1,2
256,192,68520,1,0
256,192,68701,1,2
256,192,68882,1,0
256,192,68972,1,0
256,192,69062,1,2
256,192,69243,1,0
256,192,69424,1,2
256,192,69514,1,2
256,192,69605,1,0
256,192,69785,1,2
256,192,69966,1,0
256,192,70056,1,2
256,192,70147,1,2
256,192,70237,1,0
256,192,70328,1,0
256,192,70508,1,0
256,192,70599,1,0
256,192,70689,1,0
256,192,70870,1,2
256,192,70960,1,2
256,192,71050,1,0
256,192,71231,1,4
256,192,71412,1,0
256,192,71593,1,2
256,192,71773,1,0
256,192,71864,1,2
256,192,71954,1,0
256,192,72044,1,0
256,192,72135,1,0
256,192,72225,1,0
256,192,72315,1,2
256,192,72406,1,2
256,192,72496,1,2
256,40,72858,6,4,B|104:40|0:0|0:376|144:384|264:384|440:384|512:376|512:272|512:144|496:64|408:32|328:32|320:56,1,1050
256,192,75749,1,4
256,192,76291,1,4
256,192,76834,1,4
256,192,78641,5,2
256,192,79002,1,2
256,192,79183,1,2
256,192,80087,5,2
256,192,80448,1,2
256,192,80629,1,2
256,192,81532,5,2
256,192,81894,1,2
256,192,82075,1,2
256,192,82436,1,2
256,192,82797,1,2
