osu file format v9

[General]
AudioFilename: Destin Histoire (TV Size).mp3
AudioLeadIn: 1000
PreviewTime: 49454
Countdown: 0
SampleSet: Normal
StackLeniency: 0.7
Mode: 0
LetterboxInBreaks: 1

[Editor]
Bookmarks: 25856
DistanceSpacing: 0.9
BeatDivisor: 4
GridSize: 8

[Metadata]
Title:Destin Histoire (TV Size)
Artist:yoshiki*lisa
Creator:Mok
Version:Normal
Source:GOSICK
Tags:destiny story victorique kazuya victorica numuto

[Difficulty]
HPDrainRate:2
CircleSize:3
OverallDifficulty:2
ApproachRate:4
SliderMultiplier:1
SliderTickRate:2

[Events]
//Background and Video events
0,0,"Destin Histoire (TV Size) BG.jpg"
Video,0,"Destin Histoire (TV Size).avi"
//Break Periods
//Storyboard Layer 0 (Background)
//Storyboard Layer 1 (Fail)
//Storyboard Layer 2 (Pass)
//Storyboard Layer 3 (Foreground)
//Storyboard Sound Samples
//Background Colour Transformations
3,100,163,162,255

[TimingPoints]
569,361.44578313253,4,1,0,40,1,0
15026,-100,4,2,0,44,0,0
25870,-100,4,1,0,44,0,0
48822,-100,4,1,0,55,0,0
49725,-100,4,1,0,50,0,1
59936,-100,4,2,0,65,0,0
61020,-100,4,1,0,59,0,1
74123,-100,4,1,1,50,0,1
75930,-100,4,1,0,50,0,1
76201,-100,4,1,1,50,0,1
76743,-100,4,1,0,50,0,1
77828,-100,4,1,1,50,0,1
78641,-100,4,2,0,44,0,0

[Colours]
Combo1 : 21,97,242
Combo2 : 166,18,61
Combo3 : 40,208,173

[HitObjects]
256,192,5629,1,4
256,192,5809,1,4
152,280,6352,5,0
216,336,6713,2,0,B|168:384|88:368|64:320|72:272,2,200,0|0|4
256,256,8520,2,0,B|256:192,2,50
304,336,9243,5,4
304,336,9605,2,0,B|352:384|432:368|456:320|448:272,2,200,0|4|0
256,208,11593,1,0
256,208,11773,1,0
192,144,12135,5,4
256,24,12677,5,4
320,144,13219,5,4
96,296,14303,5,4
96,296,14484,1,4
168,208,15026,6,0,B|208:264|320:264|352:192,1,200,2|0
256,104,16291,1,2
256,104,16472,1,0
176,64,16834,2,0,B|128:96,2,50,0|2|0
256,104,17556,2,0,B|256:160,2,50,2|0|2
336,64,18279,2,0,B|392:96,2,50,0|2|0
334,154,19002,5,0
256,104,19364,1,2
178,154,19725,1,0
256,104,20087,1,0
256,192,20448,5,0
176,232,20809,2,0,B|200:296|312:304|344:224,2,200,2|0|2
136,360,22797,1,0
136,360,22978,1,0
256,296,23520,5,2
256,296,23701,1,2
376,360,24243,1,0
344,232,24785,2,0,B|312:184|200:184|160:232,1,200,2|2
160,136,25870,6,2,B|120:96,3,50,2|0|0|2
256,80,26954,1,2
256,80,27315,1,2
392,96,27858,2,0,B|356:132,3,50,0|0|0|2
432,184,28761,1,2
432,184,29123,1,0
360,240,29484,2,0,B|144:240,1,200,0|2
88,128,30749,1,0
88,128,30930,2,0,B|288:128,1,200,0|2
256,216,32014,5,0
256,304,32376,1,0
176,256,32737,1,2
176,168,33099,1,2
256,128,33460,1,0
336,168,33822,1,0
336,256,34183,1,2
416,304,34544,2,0,B|392:368|264:368|248:296,2,200,2|0|2
336,256,36352,5,0
256,216,36713,1,0
176,256,37075,1,2
96,304,37436,2,0,B|120:368|248:368|264:296,2,200,2|4|0
176,256,39243,6,0,B|176:136,1,100,4|0
256,112,39966,2,0,B|256:168,2,50,0|4|0
344,144,40689,1,0
344,232,41050,1,4
256,336,41593,5,0
256,336,41954,1,0
256,248,42315,1,0
256,248,42677,1,0
168,144,43219,1,0
168,232,43581,1,4
104,296,43942,6,0,B|176:344|248:296,1,150,0|4
408,224,45207,5,0
408,224,45388,2,0,B|336:176|264:224,1,150,0|4
256,192,46472,12,4,49002
256,192,49544,5,4
256,192,49725,1,4
208,112,50087,2,0,B|136:152|144:240|216:272,1,200
212,270,50990,1,0
299,270,51352,1,0
256,192,51713,1,0
256,192,52075,1,4
256,104,52436,6,0,B|256:56,2,50
344,112,53159,2,0,B|416:152|408:240|336:272,1,200,4|0
339,270,54062,1,0
304,192,54424,1,0
304,192,54605,1,0
216,192,54966,1,4
88,240,55508,6,0,B|88:120,2,100
176,272,56593,2,0,B|248:232|240:144|168:112,2,200
256,320,58400,1,4
312,192,58942,1,4
256,24,59665,1,4
256,192,61291,5,0
344,192,61653,2,0,B|504:192,2,150
384,272,63099,1,0
296,272,63460,1,0
296,272,63641,1,4
256,192,64002,6,0,B|256:32,2,150
128,144,65629,1,0
128,56,65990,1,0
128,56,66352,1,4
256,96,66894,5,0
256,96,67075,2,0,B|280:24|400:32|416:96,1,200
336,144,68159,1,0
256,192,68520,1,0
176,144,68882,1,0
256,96,69243,2,0,B|232:24|112:32|96:96,1,200,0|4
176,208,70508,2,0,B|200:280|320:272|336:208,1,200,4|0
256,104,71773,5,0
256,104,72135,1,0
256,104,72496,1,0
256,192,72858,5,4
328,312,73400,5,4
184,312,73942,5,4
104,272,74303,2,0,B|128:200|248:208|264:272,2,200,0|0|4
56,144,76291,5,4
192,144,76834,5,4
128,264,77376,5,4
208,304,77737,1,4
208,304,77918,2,0,B|184:376|64:368|40:296,1,200,0|4
112,40,79364,5,2
256,152,80087,1,2
400,40,80809,1,2
256,152,81532,1,0
256,192,82075,12,2,84424
