osu file format v9

[General]
AudioFilename: Destin Histoire (TV Size).mp3
AudioLeadIn: 1000
PreviewTime: 49454
Countdown: 0
SampleSet: Normal
StackLeniency: 0.7
Mode: 0
LetterboxInBreaks: 1

[Editor]
Bookmarks: 25856
DistanceSpacing: 0.9
BeatDivisor: 4
GridSize: 8

[Metadata]
Title:Destin Histoire (TV Size)
Artist:yoshiki*lisa
Creator:Mok
Version:Hard
Source:GOSICK
Tags:destiny story victorique kazuya victorica numuto

[Difficulty]
HPDrainRate:6
CircleSize:4
OverallDifficulty:6
ApproachRate:6
SliderMultiplier:1.2
SliderTickRate:2

[Events]
//Background and Video events
0,0,"Destin Histoire (TV Size) BG.jpg"
Video,0,"Destin Histoire (TV Size).avi"
//Break Periods
//Storyboard Layer 0 (Background)
//Storyboard Layer 1 (Fail)
//Storyboard Layer 2 (Pass)
//Storyboard Layer 3 (Foreground)
//Storyboard Sound Samples
//Background Colour Transformations
3,100,163,162,255

[TimingPoints]
569,361.44578313253,4,1,0,40,1,0
15026,-100,4,2,0,44,0,0
25870,-100,4,1,0,44,0,0
49725,-100,4,1,0,50,0,1
59936,-100,4,2,0,65,0,0
61020,-100,4,1,0,50,0,1
74123,-100,4,1,1,50,0,1
75930,-100,4,1,0,50,0,1
76201,-100,4,1,1,50,0,1
76743,-100,4,1,0,50,0,1
77828,-100,4,1,1,50,0,1
78641,-100,4,2,0,44,0,0

[Colours]
Combo1 : 21,97,242
Combo2 : 166,18,61
Combo3 : 40,208,173

[HitObjects]
256,192,5629,1,4
256,192,5809,1,4
200,344,6352,6,0,B|264:368|344:336,2,120,4|0|0
120,272,7436,1,0
120,272,7617,1,0
192,192,7978,2,0,B|256:168|336:200,2,120
192,192,8882,1,4
176,88,9243,6,0,B|112:112|32:80,2,120
176,88,10147,1,0
192,192,10508,2,0,B|320:192,1,120,4|0
352,296,11231,2,0,B|168:296,1,180,0|4
172,296,11954,1,0
172,296,12135,5,0
256,160,12677,5,4
340,296,13219,5,4
256,192,14303,5,4
256,192,14484,1,4
136,80,15026,6,0,B|272:80,2,120,2|0|2
192,176,16111,1,2
192,176,16291,1,0
192,176,16472,2,0,B|88:224|-8:128|40:48,2,240,2|2|0
256,88,18279,1,0
256,88,18641,1,2
320,176,19002,1,0
320,176,19183,1,2
320,176,19364,2,2,B|424:224|520:128|472:48,2,240
256,264,21171,5,0
360,296,21532,2,0,B|312:368|192:368|136:272,2,240,2|0|2
208,232,23520,1,0
208,232,23701,1,2
312,232,24062,1,2
312,232,24243,1,0
256,144,24605,1,0
152,168,24966,2,0,B|104:224|144:312|208:320,1,180
328,320,25870,2,0,B|377:315|417:227|369:171,1,180
336,128,26593,5,4
256,200,26954,2,0,B|256:72,1,120,2|2
176,128,27677,1,0
256,200,28038,1,0
200,296,28400,2,0,B|256:328|320:296,2,120,2|2|0
256,200,29484,5,0
144,200,29846,1,2
216,120,30207,2,0,B|312:96|376:192|312:280,2,240,2|2|2
304,56,32014,5,2
384,128,32376,1,0
408,224,32737,1,2
408,224,32918,1,0
408,224,33099,1,2
304,192,33460,1,0
304,192,33641,1,2
304,192,33822,1,0
256,288,34183,2,0,B|256:360,2,60,2|0|2
208,192,34906,5,0
208,192,35267,1,0
104,224,35629,1,2
104,224,35809,1,0
120,120,36171,1,2
208,56,36532,1,4
208,56,36713,1,4
256,192,36894,12,4,38159
256,192,38520,1,0
256,192,38701,1,0
360,192,39062,2,0,B|432:192,2,60
360,192,39605,5,0
256,192,39966,1,0
256,192,40147,1,0
152,192,40508,2,0,B|80:192,2,60
152,192,41050,5,0
208,96,41412,1,0
304,96,41773,1,0
360,192,42135,1,0
360,192,42315,1,0
312,288,42677,1,0
208,288,43038,1,0
256,192,43400,1,0
256,32,43942,5,0
176,104,44303,1,0
176,104,44484,1,0
144,152,44665,2,0,B|256:224|376:152,1,240
344,104,45569,1,0
344,104,45749,1,0
440,152,46111,1,0
440,152,46472,5,0
416,256,46834,1,4
312,216,47195,1,0
312,216,47376,2,0,B|256:176|192:216,1,120,0|4
96,256,48099,1,0
56,152,48460,1,0
224,104,49002,5,4
280,104,49183,1,4
256,208,49544,5,0
256,272,49725,1,4
192,184,50087,2,0,B|112:200|48:88|104:16,1,240
104,15,50990,1,2
200,64,51352,1,0
312,64,51713,1,2
408,16,52075,1,0
408,16,52255,2,0,B|464:88|400:200|320:184,1,240,2|2
256,272,53340,1,0
256,272,53520,1,2
200,176,53882,6,0,B|136:176,2,60
256,176,54424,1,4
312,176,54605,2,0,B|384:176,2,60
256,80,55328,5,0
256,80,55508,1,4
200,176,55870,1,4
200,176,56050,1,0
256,272,56412,1,0
352,312,56773,2,0,B|304:376|232:360,2,120,0|4|0
256,272,57858,1,0
160,224,58219,2,0,B|208:160|280:176,2,120,4|0|4
160,96,59303,1,0
160,96,59484,1,0
160,96,59665,1,4
256,144,60026,5,2
328,200,60207,1,0
304,288,60388,1,2
208,288,60569,1,0
176,200,60749,1,2
256,144,60930,1,0
256,88,61111,6,0,B|256:24,1,60,4|0
152,40,61653,1,0
152,40,61834,1,0
152,152,62195,2,0,B|64:64,2,120
184,256,63279,1,0
216,296,63460,1,0
216,296,63641,1,0
320,256,64002,5,0
288,296,64183,1,0
256,192,64544,1,0
256,192,64725,1,0
144,192,65087,1,0
200,104,65448,1,0
200,104,65629,2,0,B|256:56|320:112,1,120
256,192,66352,1,4
312,288,66713,5,0
362,288,66894,1,0
418,288,67075,1,0
362,192,67436,1,4
202,256,67797,5,0
152,256,67978,1,0
96,256,68159,1,0
146,352,68520,1,4
256,344,68882,2,0,B|312:296|280:224,2,120,0|4|0
256,344,69785,1,0
256,344,69966,1,4
392,248,70508,1,0
464,336,70870,1,4
464,336,71231,1,0
360,304,71593,5,0
360,304,71773,1,4
256,264,72135,1,0
152,304,72496,1,4
152,304,72677,1,0
152,304,72858,5,0
32,192,73400,1,4
152,80,73942,1,4
48,96,74303,6,0,B|144:136|144:248|48:280,2,240,0|0|4
152,80,76111,1,4
152,80,76291,1,2
360,80,76834,1,4
464,112,77195,2,0,B|368:152|368:264|464:296,2,240,0|0|4
256,40,79364,5,2
408,192,80087,1,2
256,344,80809,1,2
96,192,81532,1,2
256,192,82075,1,2
256,192,82436,12,2,84424
