osu file format v14

[General]
AudioFilename: yes we cant wh.mp3
AudioLeadIn: 0
PreviewTime: 23173
Countdown: 0
SampleSet: Soft
StackLeniency: 0.7
Mode: 3
LetterboxInBreaks: 0
SpecialStyle: 0
WidescreenStoryboard: 1

[Editor]
DistanceSpacing: 1.1
BeatDivisor: 4
GridSize: 4
TimelineZoom: 1

[Metadata]
Title:wh
TitleUnicode:wh
Artist:yes we cant
ArtistUnicode:yes we cant
Creator:YunoFanatic
Version:6K Normal
Source:
Tags:barney england flag sax soundclown yakety
BeatmapID:696242
BeatmapSetID:311758

[Difficulty]
HPDrainRate:7
CircleSize:6
OverallDifficulty:7
ApproachRate:5
SliderMultiplier:1.4
SliderTickRate:1

[Events]
//Background and Video events
0,0,"BG.png",0,0
//Break Periods
//Storyboard Layer 0 (Background)
//Storyboard Layer 1 (Fail)
//Storyboard Layer 2 (Pass)
//Storyboard Layer 3 (Foreground)
//Storyboard Sound Samples

[TimingPoints]
1020,461.538461538462,4,2,0,40,1,0

[HitObjects]
42,192,1020,5,0,0:0:0:0:
469,192,1020,1,0,0:0:0:0:
213,192,1250,1,0,0:0:0:0:
298,192,1250,1,0,0:0:0:0:
128,192,1481,1,0,0:0:0:0:
384,192,1481,1,0,0:0:0:0:
213,192,1712,1,0,0:0:0:0:
298,192,1712,1,0,0:0:0:0:
42,192,1943,1,0,0:0:0:0:
128,192,1943,1,0,0:0:0:0:
384,192,2173,1,0,0:0:0:0:
469,192,2173,1,0,0:0:0:0:
128,192,2404,1,0,0:0:0:0:
42,192,2404,1,0,0:0:0:0:
128,192,2635,1,0,0:0:0:0:
384,192,2635,1,0,0:0:0:0:
469,192,2866,128,0,4712:0:0:0:0:
384,192,4020,1,0,0:0:0:0:
42,192,4712,1,0,0:0:0:0:
213,192,4712,1,0,0:0:0:0:
128,192,4943,1,0,0:0:0:0:
213,192,5058,1,0,0:0:0:0:
298,192,5173,1,0,0:0:0:0:
469,192,5173,1,0,0:0:0:0:
384,192,5404,1,0,0:0:0:0:
42,192,5635,1,0,0:0:0:0:
128,192,5866,1,0,0:0:0:0:
213,192,6096,1,0,0:0:0:0:
469,192,6096,1,0,0:0:0:0:
298,192,6327,1,0,0:0:0:0:
469,192,6558,1,0,0:0:0:0:
384,192,6673,1,0,0:0:0:0:
298,192,6789,1,0,0:0:0:0:
42,192,7020,1,0,0:0:0:0:
128,192,7135,1,0,0:0:0:0:
213,192,7250,1,0,0:0:0:0:
469,192,7481,1,0,0:0:0:0:
384,192,7596,1,0,0:0:0:0:
298,192,7712,1,0,0:0:0:0:
469,192,7943,1,0,0:0:0:0:
42,192,7943,1,0,0:0:0:0:
128,192,8173,1,0,0:0:0:0:
384,192,8173,1,0,0:0:0:0:
42,192,8404,128,0,8866:0:0:0:0:
469,192,8404,1,0,0:0:0:0:
128,192,8866,1,0,0:0:0:0:
384,192,8866,1,0,0:0:0:0:
213,192,9096,1,0,0:0:0:0:
469,192,9327,1,0,0:0:0:0:
42,192,9327,1,0,0:0:0:0:
469,192,9558,1,0,0:0:0:0:
42,192,9789,1,0,0:0:0:0:
469,192,9789,1,0,0:0:0:0:
128,192,10020,1,0,0:0:0:0:
298,192,10250,1,0,0:0:0:0:
384,192,10250,1,0,0:0:0:0:
469,192,10481,1,0,0:0:0:0:
213,192,10712,1,0,0:0:0:0:
128,192,10712,1,0,0:0:0:0:
42,192,10943,1,0,0:0:0:0:
213,192,11173,1,0,0:0:0:0:
298,192,11173,1,0,0:0:0:0:
298,192,11635,1,0,0:0:0:0:
213,192,11635,1,0,0:0:0:0:
384,192,11866,1,0,0:0:0:0:
469,192,12096,128,0,12327:0:0:0:0:
42,192,12327,128,0,12558:0:0:0:0:
128,192,12558,128,0,12789:0:0:0:0:
213,192,12789,128,0,13020:0:0:0:0:
298,192,13020,128,0,13250:0:0:0:0:
42,192,13250,128,0,13481:0:0:0:0:
128,192,13481,128,0,13712:0:0:0:0:
213,192,13712,128,0,13943:0:0:0:0:
469,192,13943,128,0,14173:0:0:0:0:
384,192,14173,128,0,14404:0:0:0:0:
298,192,14404,128,0,14635:0:0:0:0:
213,192,14635,128,0,14866:0:0:0:0:
128,192,14866,128,0,15327:0:0:0:0:
42,192,15327,128,0,15558:0:0:0:0:
298,192,15558,128,0,15789:0:0:0:0:
384,192,15789,128,0,16020:0:0:0:0:
469,192,16020,128,0,16250:0:0:0:0:
384,192,16250,128,0,16481:0:0:0:0:
298,192,16481,128,0,16712:0:0:0:0:
213,192,16712,128,0,16943:0:0:0:0:
128,192,16943,128,0,17173:0:0:0:0:
42,192,17173,128,0,17404:0:0:0:0:
128,192,17404,128,0,17635:0:0:0:0:
213,192,17635,128,0,17866:0:0:0:0:
469,192,17866,128,0,18096:0:0:0:0:
384,192,18096,128,0,18327:0:0:0:0:
298,192,18327,128,0,18558:0:0:0:0:
42,192,18558,128,0,18789:0:0:0:0:
128,192,18789,128,0,19020:0:0:0:0:
469,192,19020,128,0,19481:0:0:0:0:
42,192,19481,128,0,19712:0:0:0:0:
128,192,19712,128,0,19943:0:0:0:0:
213,192,19943,128,0,20173:0:0:0:0:
128,192,20173,128,0,20404:0:0:0:0:
42,192,20404,128,0,20635:0:0:0:0:
469,192,20635,128,0,20866:0:0:0:0:
384,192,20866,128,0,21096:0:0:0:0:
298,192,21096,128,0,21327:0:0:0:0:
42,192,21327,128,0,23173:0:0:0:0:
128,192,22481,1,0,0:0:0:0:
469,192,23173,1,0,0:0:0:0:
298,192,23404,1,0,0:0:0:0:
42,192,23635,1,0,0:0:0:0:
128,192,23750,1,0,0:0:0:0:
213,192,23866,1,0,0:0:0:0:
298,192,23981,1,0,0:0:0:0:
384,192,24096,1,0,0:0:0:0:
469,192,24327,1,0,0:0:0:0:
384,192,24443,1,0,0:0:0:0:
298,192,24558,1,0,0:0:0:0:
213,192,24673,1,0,0:0:0:0:
42,192,24789,1,0,0:0:0:0:
128,192,24904,1,0,0:0:0:0:
213,192,25020,1,0,0:0:0:0:
298,192,25020,1,0,0:0:0:0:
469,192,25250,128,0,25481:0:0:0:0:
384,192,25481,1,0,0:0:0:0:
128,192,25481,1,0,0:0:0:0:
42,192,25712,1,0,0:0:0:0:
213,192,25943,1,0,0:0:0:0:
298,192,25943,1,0,0:0:0:0:
384,192,26173,1,0,0:0:0:0:
469,192,26404,1,0,0:0:0:0:
128,192,26404,1,0,0:0:0:0:
42,192,26520,1,0,0:0:0:0:
213,192,26635,1,0,0:0:0:0:
384,192,26750,1,0,0:0:0:0:
469,192,26866,1,0,0:0:0:0:
298,192,27096,1,0,0:0:0:0:
213,192,27327,1,0,0:0:0:0:
42,192,27327,1,0,0:0:0:0:
469,192,27443,1,0,0:0:0:0:
384,192,27558,1,0,0:0:0:0:
298,192,27673,1,0,0:0:0:0:
128,192,27789,1,0,0:0:0:0:
42,192,27789,1,0,0:0:0:0:
213,192,28020,1,0,0:0:0:0:
298,192,28250,1,0,0:0:0:0:
384,192,28250,1,0,0:0:0:0:
469,192,28366,1,0,0:0:0:0:
298,192,28481,1,0,0:0:0:0:
128,192,28596,1,0,0:0:0:0:
42,192,28712,1,0,0:0:0:0:
469,192,28943,1,0,0:0:0:0:
298,192,29173,1,0,0:0:0:0:
128,192,29404,1,0,0:0:0:0:
42,192,29635,1,0,0:0:0:0:
213,192,29635,1,0,0:0:0:0:
298,192,29866,1,0,0:0:0:0:
469,192,29866,1,0,0:0:0:0:
128,192,30096,1,0,0:0:0:0:
384,192,30096,1,0,0:0:0:0:
213,192,30212,1,0,0:0:0:0:
298,192,30327,1,0,0:0:0:0:
384,192,30443,1,0,0:0:0:0:
42,192,30558,128,0,30789:0:0:0:0:
469,192,30789,128,0,31020:0:0:0:0:
128,192,31020,128,0,31250:0:0:0:0:
384,192,31250,128,0,31481:0:0:0:0:
213,192,31481,128,0,31712:0:0:0:0:
298,192,31712,128,0,31943:0:0:0:0:
42,192,31943,128,0,32173:0:0:0:0:
469,192,32173,128,0,32404:0:0:0:0:
384,192,32404,128,0,32635:0:0:0:0:
298,192,32635,128,0,32866:0:0:0:0:
213,192,32866,128,0,33096:0:0:0:0:
128,192,33096,128,0,33327:0:0:0:0:
42,192,33327,128,0,33558:0:0:0:0:
128,192,33558,128,0,33789:0:0:0:0:
213,192,33789,128,0,34020:0:0:0:0:
298,192,34020,128,0,34250:0:0:0:0:
384,192,34250,1,0,0:0:0:0:
469,192,34481,1,0,0:0:0:0:
384,192,34712,1,0,0:0:0:0:
298,192,34943,1,0,0:0:0:0:
213,192,35173,1,0,0:0:0:0:
298,192,35404,1,0,0:0:0:0:
42,192,35635,1,0,0:0:0:0:
384,192,36096,128,0,37943:0:0:0:0:
469,192,37481,1,0,0:0:0:0:
