osu file format v14

[General]
AudioFilename: yes we cant wh.mp3
AudioLeadIn: 0
PreviewTime: 23173
Countdown: 0
SampleSet: Soft
StackLeniency: 0.7
Mode: 3
LetterboxInBreaks: 0
SpecialStyle: 0
WidescreenStoryboard: 1

[Editor]
DistanceSpacing: 1.1
BeatDivisor: 4
GridSize: 4
TimelineZoom: 1

[Metadata]
Title:wh
TitleUnicode:wh
Artist:yes we cant
ArtistUnicode:yes we cant
Creator:YunoFanatic
Version:5K Hard
Source:
Tags:barney england flag sax soundclown yakety
BeatmapID:696239
BeatmapSetID:311758

[Difficulty]
HPDrainRate:8
CircleSize:5
OverallDifficulty:8
ApproachRate:5
SliderMultiplier:1.4
SliderTickRate:1

[Events]
//Background and Video events
0,0,"BG.png",0,0
//Break Periods
//Storyboard Layer 0 (Background)
//Storyboard Layer 1 (Fail)
//Storyboard Layer 2 (Pass)
//Storyboard Layer 3 (Foreground)
//Storyboard Sound Samples

[TimingPoints]
1020,461.538461538462,4,2,0,40,1,0

[HitObjects]
51,192,1020,5,0,0:0:0:0:
256,192,1020,1,0,0:0:0:0:
460,192,1020,1,0,0:0:0:0:
153,192,1250,1,0,0:0:0:0:
358,192,1250,1,0,0:0:0:0:
153,192,1481,1,0,0:0:0:0:
358,192,1481,1,0,0:0:0:0:
460,192,1712,1,0,0:0:0:0:
51,192,1712,1,0,0:0:0:0:
153,192,1943,1,0,0:0:0:0:
358,192,1943,1,0,0:0:0:0:
51,192,2173,1,0,0:0:0:0:
256,192,2173,1,0,0:0:0:0:
460,192,2404,1,0,0:0:0:0:
256,192,2404,1,0,0:0:0:0:
256,192,2635,1,0,0:0:0:0:
51,192,2635,1,0,0:0:0:0:
51,192,2866,128,0,4712:0:0:0:0:
460,192,2866,128,0,4712:0:0:0:0:
358,192,4020,128,0,4712:0:0:0:0:
256,192,4250,1,0,0:0:0:0:
153,192,4250,1,0,0:0:0:0:
256,192,4712,1,0,0:0:0:0:
153,192,4712,1,0,0:0:0:0:
153,192,4943,1,0,0:0:0:0:
358,192,4943,1,0,0:0:0:0:
460,192,5058,1,0,0:0:0:0:
358,192,5173,1,0,0:0:0:0:
153,192,5173,1,0,0:0:0:0:
51,192,5173,1,0,0:0:0:0:
51,192,5404,1,0,0:0:0:0:
153,192,5635,1,0,0:0:0:0:
358,192,5635,128,0,6096:0:0:0:0:
256,192,5866,1,0,0:0:0:0:
460,192,6096,1,0,0:0:0:0:
153,192,6096,1,0,0:0:0:0:
51,192,6096,1,0,0:0:0:0:
256,192,6327,1,0,0:0:0:0:
51,192,6327,1,0,0:0:0:0:
153,192,6558,1,0,0:0:0:0:
358,192,6558,1,0,0:0:0:0:
256,192,6673,1,0,0:0:0:0:
51,192,6789,1,0,0:0:0:0:
460,192,6789,1,0,0:0:0:0:
358,192,7020,1,0,0:0:0:0:
460,192,7020,1,0,0:0:0:0:
153,192,7020,1,0,0:0:0:0:
51,192,7135,1,0,0:0:0:0:
153,192,7250,1,0,0:0:0:0:
256,192,7250,1,0,0:0:0:0:
358,192,7366,1,0,0:0:0:0:
51,192,7481,1,0,0:0:0:0:
460,192,7481,1,0,0:0:0:0:
256,192,7596,1,0,0:0:0:0:
153,192,7712,1,0,0:0:0:0:
51,192,7712,1,0,0:0:0:0:
358,192,7827,1,0,0:0:0:0:
51,192,7943,1,0,0:0:0:0:
460,192,7943,1,0,0:0:0:0:
256,192,7943,1,0,0:0:0:0:
358,192,8173,1,0,0:0:0:0:
153,192,8173,1,0,0:0:0:0:
51,192,8404,1,0,0:0:0:0:
358,192,8404,128,0,8866:0:0:0:0:
460,192,8404,128,0,8866:0:0:0:0:
256,192,8866,1,0,0:0:0:0:
153,192,8866,1,0,0:0:0:0:
51,192,9096,1,0,0:0:0:0:
153,192,9327,1,0,0:0:0:0:
358,192,9327,1,0,0:0:0:0:
460,192,9558,1,0,0:0:0:0:
256,192,9789,1,0,0:0:0:0:
51,192,9789,1,0,0:0:0:0:
358,192,10020,1,0,0:0:0:0:
153,192,10250,1,0,0:0:0:0:
256,192,10250,1,0,0:0:0:0:
460,192,10250,1,0,0:0:0:0:
51,192,10481,1,0,0:0:0:0:
358,192,10712,1,0,0:0:0:0:
460,192,10712,1,0,0:0:0:0:
256,192,10712,1,0,0:0:0:0:
51,192,10943,1,0,0:0:0:0:
51,192,11173,1,0,0:0:0:0:
256,192,11173,1,0,0:0:0:0:
358,192,11173,1,0,0:0:0:0:
460,192,11404,1,0,0:0:0:0:
51,192,11635,1,0,0:0:0:0:
153,192,11635,1,0,0:0:0:0:
256,192,11635,1,0,0:0:0:0:
358,192,11866,1,0,0:0:0:0:
256,192,11866,1,0,0:0:0:0:
51,192,12096,1,0,0:0:0:0:
153,192,12096,1,0,0:0:0:0:
256,192,12096,1,0,0:0:0:0:
460,192,12327,128,0,12443:0:0:0:0:
358,192,12327,1,0,0:0:0:0:
51,192,12558,128,0,12673:0:0:0:0:
153,192,12558,1,0,0:0:0:0:
256,192,12789,128,0,12904:0:0:0:0:
358,192,12789,1,0,0:0:0:0:
460,192,13020,128,0,13135:0:0:0:0:
153,192,13020,1,0,0:0:0:0:
358,192,13250,128,0,13366:0:0:0:0:
51,192,13250,1,0,0:0:0:0:
153,192,13481,128,0,13596:0:0:0:0:
460,192,13481,1,0,0:0:0:0:
51,192,13712,128,0,13827:0:0:0:0:
358,192,13712,1,0,0:0:0:0:
358,192,13943,128,0,14058:0:0:0:0:
256,192,13943,1,0,0:0:0:0:
256,192,14173,128,0,14289:0:0:0:0:
153,192,14173,1,0,0:0:0:0:
51,192,14404,1,0,0:0:0:0:
460,192,14404,1,0,0:0:0:0:
153,192,14635,128,0,14750:0:0:0:0:
256,192,14635,1,0,0:0:0:0:
358,192,14866,128,0,14981:0:0:0:0:
460,192,14866,1,0,0:0:0:0:
153,192,15096,1,0,0:0:0:0:
460,192,15212,128,0,15327:0:0:0:0:
51,192,15212,1,0,0:0:0:0:
358,192,15327,1,0,0:0:0:0:
51,192,15558,128,0,15673:0:0:0:0:
256,192,15558,1,0,0:0:0:0:
358,192,15789,128,0,15904:0:0:0:0:
153,192,15789,1,0,0:0:0:0:
256,192,16020,128,0,16135:0:0:0:0:
51,192,16020,1,0,0:0:0:0:
51,192,16250,128,0,16366:0:0:0:0:
358,192,16250,1,0,0:0:0:0:
256,192,16481,128,0,16596:0:0:0:0:
460,192,16481,1,0,0:0:0:0:
460,192,16712,128,0,16827:0:0:0:0:
153,192,16712,1,0,0:0:0:0:
358,192,16943,128,0,17058:0:0:0:0:
256,192,16943,1,0,0:0:0:0:
256,192,17173,128,0,17289:0:0:0:0:
153,192,17173,1,0,0:0:0:0:
153,192,17404,128,0,17520:0:0:0:0:
51,192,17404,1,0,0:0:0:0:
358,192,17635,128,0,17750:0:0:0:0:
256,192,17635,1,0,0:0:0:0:
256,192,17866,128,0,17981:0:0:0:0:
153,192,17866,1,0,0:0:0:0:
51,192,18096,128,0,18212:0:0:0:0:
358,192,18096,1,0,0:0:0:0:
460,192,18327,128,0,18443:0:0:0:0:
153,192,18327,1,0,0:0:0:0:
51,192,18558,128,0,18673:0:0:0:0:
358,192,18558,1,0,0:0:0:0:
153,192,18789,1,0,0:0:0:0:
256,192,18904,1,0,0:0:0:0:
358,192,18904,128,0,19020:0:0:0:0:
460,192,19020,1,0,0:0:0:0:
51,192,19020,1,0,0:0:0:0:
153,192,19250,1,0,0:0:0:0:
460,192,19481,128,0,19712:0:0:0:0:
256,192,19481,1,0,0:0:0:0:
358,192,19712,128,0,19943:0:0:0:0:
153,192,19712,1,0,0:0:0:0:
256,192,19943,128,0,20173:0:0:0:0:
51,192,19943,1,0,0:0:0:0:
358,192,20173,128,0,20404:0:0:0:0:
153,192,20173,1,0,0:0:0:0:
51,192,20404,128,0,20635:0:0:0:0:
256,192,20404,1,0,0:0:0:0:
153,192,20635,128,0,20866:0:0:0:0:
358,192,20635,1,0,0:0:0:0:
256,192,20866,128,0,21096:0:0:0:0:
460,192,20866,1,0,0:0:0:0:
153,192,21096,128,0,21327:0:0:0:0:
358,192,21096,1,0,0:0:0:0:
51,192,21327,128,0,23173:0:0:0:0:
256,192,21327,1,0,0:0:0:0:
256,192,21789,128,0,23173:0:0:0:0:
358,192,21789,1,0,0:0:0:0:
153,192,22481,128,0,23173:0:0:0:0:
460,192,22481,1,0,0:0:0:0:
358,192,23173,1,0,0:0:0:0:
460,192,23173,128,0,23404:0:0:0:0:
358,192,23404,128,0,23635:0:0:0:0:
256,192,23404,1,0,0:0:0:0:
51,192,23635,1,0,0:0:0:0:
153,192,23635,1,0,0:0:0:0:
256,192,23750,1,0,0:0:0:0:
153,192,23866,1,0,0:0:0:0:
358,192,23866,1,0,0:0:0:0:
51,192,23981,5,0,0:0:0:0:
358,192,24096,1,0,0:0:0:0:
256,192,24096,1,0,0:0:0:0:
256,192,24212,1,0,0:0:0:0:
358,192,24327,1,0,0:0:0:0:
153,192,24327,1,0,0:0:0:0:
460,192,24443,1,0,0:0:0:0:
256,192,24558,1,0,0:0:0:0:
51,192,24558,1,0,0:0:0:0:
358,192,24673,1,0,0:0:0:0:
153,192,24789,1,0,0:0:0:0:
51,192,24789,1,0,0:0:0:0:
256,192,24904,1,0,0:0:0:0:
256,192,25020,1,0,0:0:0:0:
51,192,25020,1,0,0:0:0:0:
358,192,25135,1,0,0:0:0:0:
460,192,25250,128,0,25481:0:0:0:0:
358,192,25481,1,0,0:0:0:0:
153,192,25481,1,0,0:0:0:0:
256,192,25712,1,0,0:0:0:0:
51,192,25712,1,0,0:0:0:0:
153,192,25943,1,0,0:0:0:0:
358,192,25943,1,0,0:0:0:0:
460,192,26173,1,0,0:0:0:0:
256,192,26173,1,0,0:0:0:0:
358,192,26404,1,0,0:0:0:0:
153,192,26404,1,0,0:0:0:0:
51,192,26520,1,0,0:0:0:0:
256,192,26635,1,0,0:0:0:0:
460,192,26750,1,0,0:0:0:0:
153,192,26866,1,0,0:0:0:0:
358,192,26866,128,0,27096:0:0:0:0:
51,192,27096,1,0,0:0:0:0:
256,192,27096,128,0,27327:0:0:0:0:
460,192,27327,1,0,0:0:0:0:
153,192,27327,1,0,0:0:0:0:
358,192,27443,1,0,0:0:0:0:
51,192,27558,1,0,0:0:0:0:
153,192,27558,1,0,0:0:0:0:
256,192,27673,1,0,0:0:0:0:
153,192,27789,1,0,0:0:0:0:
358,192,27789,1,0,0:0:0:0:
460,192,27904,1,0,0:0:0:0:
153,192,28020,1,0,0:0:0:0:
51,192,28020,1,0,0:0:0:0:
256,192,28135,1,0,0:0:0:0:
358,192,28250,1,0,0:0:0:0:
51,192,28250,1,0,0:0:0:0:
460,192,28366,1,0,0:0:0:0:
51,192,28481,1,0,0:0:0:0:
256,192,28481,1,0,0:0:0:0:
153,192,28596,1,0,0:0:0:0:
358,192,28712,128,0,28943:0:0:0:0:
460,192,28712,1,0,0:0:0:0:
256,192,28943,1,0,0:0:0:0:
460,192,29058,128,0,29173:0:0:0:0:
51,192,29173,1,0,0:0:0:0:
153,192,29289,1,0,0:0:0:0:
358,192,29289,128,0,29404:0:0:0:0:
256,192,29404,128,0,29635:0:0:0:0:
460,192,29635,1,0,0:0:0:0:
153,192,29635,1,0,0:0:0:0:
51,192,29635,1,0,0:0:0:0:
256,192,29866,1,0,0:0:0:0:
358,192,29866,1,0,0:0:0:0:
153,192,30096,1,0,0:0:0:0:
51,192,30096,1,0,0:0:0:0:
460,192,30096,1,0,0:0:0:0:
358,192,30212,128,0,30327:0:0:0:0:
256,192,30327,1,0,0:0:0:0:
153,192,30443,128,0,30558:0:0:0:0:
51,192,30558,1,0,0:0:0:0:
358,192,30558,128,0,30789:0:0:0:0:
460,192,30789,128,0,31020:0:0:0:0:
256,192,30789,1,0,0:0:0:0:
358,192,31020,128,0,31250:0:0:0:0:
153,192,31020,1,0,0:0:0:0:
460,192,31250,128,0,31481:0:0:0:0:
51,192,31250,1,0,0:0:0:0:
358,192,31481,128,0,31712:0:0:0:0:
153,192,31481,1,0,0:0:0:0:
460,192,31712,128,0,31943:0:0:0:0:
256,192,31712,1,0,0:0:0:0:
51,192,31943,1,0,0:0:0:0:
358,192,31943,1,0,0:0:0:0:
256,192,32058,1,0,0:0:0:0:
153,192,32173,1,0,0:0:0:0:
460,192,32289,1,0,0:0:0:0:
358,192,32404,1,0,0:0:0:0:
51,192,32404,128,0,32635:0:0:0:0:
256,192,32635,128,0,32866:0:0:0:0:
460,192,32635,1,0,0:0:0:0:
153,192,32866,128,0,33096:0:0:0:0:
358,192,32866,1,0,0:0:0:0:
460,192,33096,128,0,33327:0:0:0:0:
51,192,33096,1,0,0:0:0:0:
358,192,33327,128,0,33558:0:0:0:0:
256,192,33327,1,0,0:0:0:0:
153,192,33558,128,0,33673:0:0:0:0:
51,192,33558,1,0,0:0:0:0:
256,192,33673,128,0,33789:0:0:0:0:
358,192,33789,128,0,33904:0:0:0:0:
153,192,34020,1,0,0:0:0:0:
460,192,34020,1,0,0:0:0:0:
51,192,34250,1,0,0:0:0:0:
256,192,34250,128,0,34404:0:0:0:0:
358,192,34404,1,0,0:0:0:0:
153,192,34481,128,0,34635:0:0:0:0:
256,192,34635,1,0,0:0:0:0:
358,192,34712,128,0,35173:0:0:0:0:
460,192,34712,1,0,0:0:0:0:
51,192,34827,128,0,35173:0:0:0:0:
256,192,34943,1,0,0:0:0:0:
460,192,35173,1,0,0:0:0:0:
153,192,35327,128,0,35404:0:0:0:0:
358,192,35404,128,0,35635:0:0:0:0:
460,192,35404,1,0,0:0:0:0:
256,192,35404,1,0,0:0:0:0:
51,192,35635,1,0,0:0:0:0:
256,192,35635,128,0,36096:0:0:0:0:
460,192,35866,1,0,0:0:0:0:
153,192,36096,1,0,0:0:0:0:
358,192,36096,128,0,37943:0:0:0:0:
51,192,36096,128,0,37943:0:0:0:0:
153,192,37481,128,0,37943:0:0:0:0:
256,192,37481,128,0,37943:0:0:0:0:
