osu file format v14

[General]
AudioFilename: yes we cant wh.mp3
AudioLeadIn: 1000
PreviewTime: 12109
Countdown: 0
SampleSet: Soft
StackLeniency: 0.7
Mode: 0
LetterboxInBreaks: 0
WidescreenStoryboard: 0

[Editor]
DistanceSpacing: 1.2
BeatDivisor: 4
GridSize: 4
TimelineZoom: 1.4

[Metadata]
Title:wh
TitleUnicode:wh
Artist:yes we cant
ArtistUnicode:yes we cant
Creator:Nhawak
Version:Shadren's Light Insane
Source:
Tags:barney & friends british union jack big ben clock tower england flag sax soundclown yakety randolph riverside kids eminem mom's spaghetti pink purple dinosaur ptaf boss ass bitch boxxy Shadren Gero Irreversible Asphyxia bbj0920 _Gezo_ Spectator
BeatmapID:674553
BeatmapSetID:295480

[Difficulty]
HPDrainRate:6
CircleSize:4
OverallDifficulty:7
ApproachRate:8
SliderMultiplier:1.9
SliderTickRate:2

[Events]
//Background and Video events
0,0,"BG.png",0,0
Video,760,"wh.avi"
//Break Periods
//Storyboard Layer 0 (Background)
//Storyboard Layer 1 (Fail)
//Storyboard Layer 2 (Pass)
//Storyboard Layer 3 (Foreground)
//Storyboard Sound Samples

[TimingPoints]
1033,461.538461538462,4,2,0,80,1,0
4725,-100,4,1,1,80,0,0
22494,-133.333333333333,4,2,0,80,0,0
23186,-83.3333333333333,4,1,1,80,0,1
34263,-83.3333333333333,4,2,0,80,0,0

[Colours]
Combo1 : 255,40,40
Combo2 : 166,0,166
Combo3 : 128,255,0

[HitObjects]
400,272,1033,6,0,L|296:268,1,95,4|2,0:0|0:3,0:0:0:0:
228,184,1494,2,0,L|128:192,1,95,2|0,0:0|0:0,0:0:0:0:
48,116,1956,1,0,1:0:0:0:
36,228,2186,1,2,0:0:0:0:
160,88,2417,1,2,0:0:0:0:
228,184,2648,1,2,0:0:0:0:
228,184,2763,1,2,0:0:0:0:
256,192,2879,12,4,4263,0:0:0:0:
292,172,4725,6,0,L|288:276,1,95,2|0,0:3|0:0,0:0:0:0:
240,320,5071,1,0,0:0:0:0:
240,320,5186,2,0,P|188:328|148:316,1,95,2|0,0:3|0:0,0:0:0:0:
64,188,5648,1,2,0:3:0:0:
64,188,5763,1,0,0:0:0:0:
64,188,5879,2,0,L|72:76,1,95,0|2,0:0|0:3,0:0:0:0:
168,32,6340,1,0,0:0:0:0:
280,132,6571,5,2,1:2:0:0:
316,136,6686,1,0,0:0:0:0:
356,140,6802,1,0,0:0:0:0:
448,224,7033,2,0,P|452:272|428:320,1,95,8|0,0:2|0:0,0:0:0:0:
408,336,7379,1,0,0:0:0:0:
376,348,7494,2,0,L|276:344,1,95,2|0,1:2|0:0,0:0:0:0:
224,304,7840,1,0,0:0:0:0:
224,304,7956,2,0,P|164:296|120:308,1,95,8|0,0:2|0:0,0:0:0:0:
16,136,8417,6,0,P|76:156|128:144,1,95,2|0,0:0|2:0,0:0:0:0:
136,136,8763,1,0,2:0:0:0:
164,120,8879,2,0,P|216:120|252:140,1,95,2|0,0:0|2:0,0:0:0:0:
356,192,9340,2,0,B|364:260|364:260|340:316|340:316|348:388,1,190,2|2,0:0|0:0,0:0:0:0:
248,320,10033,2,0,P|216:324|184:340,1,47.5
140,364,10263,6,0,P|92:372|40:360,1,95
256,216,10725,2,0,P|308:216|356:252,1,95
132,200,11186,2,0,B|86:194|86:194|44:164,1,95
232,104,11648,2,0,L|236:56,1,47.5
316,20,11879,2,0,L|312:68,1,47.5
356,124,12109,6,0,P|408:132|456:120,1,95,4|0,0:0|0:0,0:0:0:0:
484,232,12571,2,0,P|434:251|399:285,1,95,8|0,0:2|0:0,0:0:0:0:
356,124,13033,1,0,0:0:0:0:
328,232,13263,1,0,0:0:0:0:
460,116,13494,1,8,0:2:0:0:
372,44,13725,1,0,0:0:0:0:
424,224,13956,6,0,P|416:276|384:312,1,95
232,240,14417,2,0,P|240:188|272:152,1,95,8|0,0:2|0:0,0:0:0:0:
304,304,14879,2,0,P|240:336|156:296,1,142.5
148,296,15340,2,0,B|100:292|100:292|48:304,1,95,8|0,0:2|0:0,0:0:0:0:
232,240,15802,5,4,0:0:0:0:
212,352,16033,1,0,0:0:0:0:
156,184,16263,1,8,0:2:0:0:
252,140,16494,1,0,0:0:0:0:
124,268,16725,2,0,P|72:268|28:248,1,95
232,240,17186,2,0,P|276:232|328:248,1,95,8|0,0:2|0:0,0:0:0:0:
452,352,17648,5,0,0:0:0:0:
340,380,17879,1,0,0:0:0:0:
384,192,18109,1,8,0:2:0:0:
468,268,18340,1,0,0:0:0:0:
268,312,18571,2,0,P|176:300|152:240,1,142.5
140,232,19033,2,0,B|92:224|92:224|40:232,1,95,8|0,0:2|0:0,0:0:0:0:
192,132,19494,5,2,0:3:0:0:
232,240,19725,1,0,0:0:0:0:
304,88,19956,1,2,0:0:0:0:
204,32,20186,1,2,0:3:0:0:
177,52,20301,1,2,0:3:0:0:
146,64,20416,1,2,0:3:0:0:
113,66,20532,1,2,0:3:0:0:
81,60,20647,1,2,0:3:0:0:
20,156,20879,2,0,L|16:252,1,95,2|0,0:0|0:0,0:0:0:0:
464,112,22494,6,0,P|392:160|320:96,1,178.12500679493,4|0,0:0|0:0,0:0:0:0:
288,56,23186,6,0,B|232:44|232:44|164:52,1,113.999996520996,4|0,0:0|0:0,0:0:0:0:
60,120,23648,2,0,L|56:188,1,56.9999982604981,8|0,0:2|0:0,0:0:0:0:
104,228,23879,2,0,L|108:296,1,56.9999982604981
156,336,24109,2,0,P|192:340|224:336,1,56.9999982604981
268,300,24340,2,0,P|296:298|324:302,1,56.9999982604981
372,352,24571,1,8,0:2:0:0:
440,348,24686,1,0,0:0:0:0:
488,300,24802,2,0,P|492:272|488:240,1,56.9999982604981
436,196,25033,6,0,P|424:132|448:80,1,113.999996520996
476,28,25379,1,0,0:0:0:0:
412,4,25494,2,0,L|352:8,1,56.9999982604981,8|0,0:2|0:0,0:0:0:0:
304,52,25725,2,0,L|224:48,1,56.9999982604981
188,84,25956,2,0,B|128:92|128:92|64:72,1,113.999996520996
20,116,26302,1,0,0:0:0:0:
36,184,26417,2,0,L|32:244,1,56.9999982604981,8|0,0:2|0:0,0:0:0:0:
88,284,26648,1,0,0:0:0:0:
156,268,26763,1,0,0:0:0:0:
216,304,26879,6,0,P|250:306|280:304,1,56.9999982604981,4|0,0:0|0:0,0:0:0:0:
328,264,27109,2,0,P|356:262|384:265,1,56.9999982604981
448,236,27340,2,0,L|452:176,1,56.9999982604981,8|0,0:2|0:0,0:0:0:0:
404,128,27571,2,0,L|400:64,1,56.9999982604981
336,44,27802,1,0,0:0:0:0:
276,80,27917,1,0,0:0:0:0:
212,52,28033,2,0,P|176:48|148:52,1,56.9999982604981
100,92,28263,2,0,L|104:152,1,56.9999982604981,8|0,0:2|0:0,0:0:0:0:
152,200,28494,1,0,0:0:0:0:
136,268,28609,1,0,0:0:0:0:
184,320,28725,6,0,P|244:324|292:296,1,113.999996520996
312,232,29071,1,0,0:0:0:0:
372,196,29186,2,0,P|404:198|430:207,1,56.9999982604981,8|0,0:2|0:0,0:0:0:0:
472,260,29417,1,0,0:0:0:0:
496,124,29648,2,0,L|484:4,2,113.999996520996,0|0|8,0:0|0:0|0:2,0:0:0:0:
444,172,30225,1,0,0:0:0:0:
376,156,30340,2,0,P|344:160|316:168,1,56.9999982604981
276,220,30571,6,0,L|271:284,1,56.9999982604981,4|0,0:0|0:0,0:0:0:0:
203,269,30802,2,0,L|207:212,1,56.9999982604981
138,204,31033,2,0,L|134:268,1,56.9999982604981,8|0,0:2|0:0,0:0:0:0:
65,255,31264,2,0,L|69:198,1,56.9999982604981
32,140,31494,2,0,P|28:112|36:80,1,56.9999982604981
100,60,31725,2,0,P|104:88|96:120,1,56.9999982604981
148,164,31956,2,0,L|208:160,2,56.9999982604981,8|0|0,0:2|0:0|0:0,0:0:0:0:
276,52,32417,6,0,L|344:48,1,56.9999982604981
352,116,32648,2,0,L|295:119,1,56.9999982604981
312,188,32879,2,0,L|380:184,1,56.9999982604981,8|0,0:2|0:0,0:0:0:0:
388,252,33110,2,0,L|331:255,1,56.9999982604981
280,304,33340,2,0,P|248:310|208:308,1,56.9999982604981
164,276,33571,1,0,0:0:0:0:
100,300,33686,1,0,0:0:0:0:
40,268,33802,2,0,L|36:208,1,56.9999982604981,8|0,0:2|0:0,0:0:0:0:
164,52,34263,6,0,P|192:48|224:52,1,56.9999982604981,2|0,0:0|0:0,0:0:0:0:
280,84,34494,2,0,P|308:87|336:83,1,56.9999982604981
400,52,34725,1,2,0:0:0:0:
456,92,34840,2,0,L|452:220,1,113.999996520996
396,248,35186,2,0,P|364:248|336:252,1,56.9999982604981,2|0,0:0|0:0,0:0:0:0:
284,292,35417,2,0,P|255:295|220:292,1,56.9999982604981
169,256,35648,2,0,P|109:248|57:272,1,113.999996520996,2|0,0:0|0:0,0:0:0:0:
256,192,36109,12,2,37494,0:0:0:0:
