osu file format v14

[General]
AudioFilename: yes we cant wh.mp3
AudioLeadIn: 1000
PreviewTime: 12109
Countdown: 0
SampleSet: Soft
StackLeniency: 0.7
Mode: 0
LetterboxInBreaks: 0
WidescreenStoryboard: 0

[Editor]
DistanceSpacing: 1.1
BeatDivisor: 4
GridSize: 4
TimelineZoom: 1

[Metadata]
Title:wh
TitleUnicode:wh
Artist:yes we cant
ArtistUnicode:yes we cant
Creator:Nhawak
Version:Normal
Source:
Tags:barney & friends british union jack big ben clock tower england flag sax soundclown yakety randolph riverside kids eminem mom's spaghetti pink purple dinosaur ptaf boss ass bitch boxxy Shadren Gero Irreversible Asphyxia bbj0920 _Gezo_ Spectator
BeatmapID:664387
BeatmapSetID:295480

[Difficulty]
HPDrainRate:4
CircleSize:3.5
OverallDifficulty:4
ApproachRate:5
SliderMultiplier:1.6
SliderTickRate:2

[Events]
//Background and Video events
0,0,"BG.png",0,0
Video,760,"wh.avi"
//Break Periods
//Storyboard Layer 0 (Background)
//Storyboard Layer 1 (Fail)
//Storyboard Layer 2 (Pass)
//Storyboard Layer 3 (Foreground)
//Storyboard Sound Samples

[TimingPoints]
1033,461.538461538462,4,2,0,80,1,0
2879,-100,4,2,0,5,0,0
4263,-100,4,2,0,80,0,0
4725,-100,4,1,1,80,0,0
23186,-100,4,1,1,80,0,1
26417,-100,4,1,4,80,0,1
26648,-100,4,1,1,80,0,1
30109,-100,4,1,4,80,0,1
30340,-100,4,1,1,80,0,1
32879,-100,4,1,4,80,0,1
33109,-100,4,1,1,80,0,1
33340,-100,4,1,3,80,0,1
33571,-100,4,1,1,80,0,1
34263,-100,4,2,0,80,0,0

[Colours]
Combo1 : 255,40,40
Combo2 : 166,0,166
Combo3 : 128,255,0

[HitObjects]
256,192,1033,12,0,2879,0:0:0:0:
376,208,4263,5,4,0:0:0:0:
255,308,4725,6,0,P|216:304|185:281,1,80,2|0,3:0|0:0,0:0:0:0:
136,208,5186,2,0,P|148:152|192:124,1,80,2|2,3:0|3:0,0:0:0:0:
200,56,5648,2,0,P|168:104|48:88,1,160,2|2,3:0|3:0,0:0:0:0:
4,164,6340,1,2,3:0:0:0:
56,232,6571,6,0,B|41:277|76:308|76:308|56:344|73:381,1,160,2|8,0:2|0:2,0:0:0:0:
156,360,7263,1,0,0:0:0:0:
244,380,7494,2,0,L|332:369,1,80,2|0,0:2|0:2,0:0:0:0:
336,284,7956,2,0,L|256:293,1,80,8|0,0:2|0:0,0:0:0:0:
172,264,8417,6,0,P|148:223|43:220,2,160,2|2|2,0:0|0:0|0:0,0:0:0:0:
236,324,9571,1,0,0:0:0:0:
300,264,9802,2,0,P|323:232|326:193,1,80,2|0,0:0|0:0,0:0:0:0:
364,112,10263,6,0,P|327:142|227:109,2,160
436,60,11417,1,0,0:0:0:0:
450,146,11648,2,0,L|459:255,1,80
460,313,12109,6,0,B|399:345|346:302|346:302|309:309,1,160,4|8,0:0|0:2,0:0:0:0:
228,345,12802,1,0,0:0:0:0:
169,279,13033,2,0,P|156:223|184:179,1,80
229,145,13494,2,0,P|237:106|224:69,1,80,8|0,0:2|0:0,0:0:0:0:
139,42,13956,6,0,B|194:63|194:63|307:50,1,160,0|8,0:0|0:2,0:0:0:0:
373,12,14648,1,0,0:0:0:0:
432,77,14879,2,0,L|511:70,1,80
508,157,15340,2,0,L|429:164,1,80,8|0,0:2|0:0,0:0:0:0:
359,219,15802,6,0,P|323:286|360:354,1,160,4|8,0:0|0:2,0:0:0:0:
419,288,16494,1,0,0:0:0:0:
476,354,16725,2,0,P|512:287|476:219,1,160,0|8,0:0|0:2,0:0:0:0:
417,154,17417,1,0,0:0:0:0:
347,99,17648,6,0,P|334:43|362:-1,2,80,0|0|8,0:0|0:0|0:2,0:0:0:0:
417,154,18340,2,0,P|431:190|423:229,1,80
373,302,18802,1,0,0:0:0:0:
292,268,19033,1,8,0:2:0:0:
256,192,19494,12,0,21340,2:0:0:0:
266,199,23186,6,0,B|257:213|285:169|285:169|221:137|238:74,1,160,4|8,0:0|0:2,0:0:0:0:
319,31,23879,1,0,0:0:0:0:
383,91,24109,2,0,P|414:114|453:117,1,80
479,203,24571,2,0,P|474:242|450:273,1,80,8|0,0:2|0:0,0:0:0:0:
383,327,25033,5,0,0:0:0:0:
311,274,25263,1,0,0:0:0:0:
241,327,25494,2,0,L|162:320,1,80,8|0,0:2|0:0,0:0:0:0:
86,367,25956,2,0,P|116:259|23:196,1,240,0|0,0:0|0:2,0:0:0:0:
30,291,26879,6,0,P|62:315|185:272,1,160,4|8,0:0|0:2,0:0:0:0:
239,236,27571,1,0,0:0:0:0:
306,179,27802,2,0,B|347:168|347:168|412:187,1,80
469,194,28263,2,0,P|493:162|498:123,2,80,8|0|0,0:2|0:0|0:0,0:0:0:0:
413,262,28956,1,0,0:0:0:0:
347,320,29186,1,8,0:2:0:0:
267,282,29417,1,0,0:0:0:0:
191,331,29648,2,0,B|158:278|197:220|197:220|230:162|198:103,1,240
119,67,30571,6,0,L|305:52,1,160,4|8,0:0|0:2,0:0:0:0:
367,43,31263,1,0,0:0:0:0:
455,45,31494,2,0,P|452:84|429:116,1,80
367,179,31956,2,0,P|343:210|341:250,1,80,8|0,0:2|0:0,0:0:0:0:
421,297,32417,2,0,P|434:243|340:342,1,480,0|8,0:0|0:2,0:0:0:0:
256,192,34263,12,2,37494,0:0:0:0:
