osu file format v14

[General]
AudioFilename: yes we cant wh.mp3
AudioLeadIn: 1000
PreviewTime: 12109
Countdown: 0
SampleSet: Normal
StackLeniency: 0.7
Mode: 0
LetterboxInBreaks: 0
WidescreenStoryboard: 0

[Editor]
DistanceSpacing: 1.1
BeatDivisor: 4
GridSize: 4
TimelineZoom: 1

[Metadata]
Title:wh
TitleUnicode:wh
Artist:yes we cant
ArtistUnicode:yes we cant
Creator:Nhawak
Version:Hard
Source:
Tags:barney & friends british union jack big ben clock tower england flag sax soundclown yakety randolph riverside kids eminem mom's spaghetti pink purple dinosaur ptaf boss ass bitch boxxy Shadren Gero Irreversible Asphyxia bbj0920 _Gezo_ Spectator
BeatmapID:665129
BeatmapSetID:295480

[Difficulty]
HPDrainRate:5
CircleSize:4
OverallDifficulty:6
ApproachRate:7
SliderMultiplier:1.8
SliderTickRate:2

[Events]
//Background and Video events
0,0,"BG.png",0,0
Video,760,"wh.avi"
//Break Periods
//Storyboard Layer 0 (Background)
//Storyboard Layer 1 (Fail)
//Storyboard Layer 2 (Pass)
//Storyboard Layer 3 (Foreground)
//Storyboard Sound Samples

[TimingPoints]
1033,461.538461538462,4,2,0,80,1,0
4725,-100,4,1,1,80,0,0
21340,-133.333333333333,4,2,1,30,0,0
21456,-133.333333333333,4,2,1,5,0,0
22494,-100,4,2,1,80,0,0
23186,-100,4,1,1,80,0,1
34263,-100,4,1,1,80,0,0

[Colours]
Combo1 : 255,40,40
Combo2 : 166,0,166
Combo3 : 128,255,0

[HitObjects]
256,192,1033,6,0,P|276:240|312:268,1,90,4|2,0:0|0:3,0:0:0:0:
356,180,1494,2,0,P|336:132|300:104,1,90,2|0,0:0|0:0,0:0:0:0:
208,115,1956,2,0,P|164:125|120:115,2,90,0|2|2,1:0|0:0|0:0,0:0:0:0:
257,29,2648,1,2,0:0:0:0:
257,29,2763,1,2,0:0:0:0:
256,192,2879,12,4,4263,0:2:0:0:
259,279,4725,6,0,P|244:238|254:195,1,90,2|0,0:3|0:0,0:0:0:0:
339,289,5186,2,0,P|322:332|285:358,2,90,2|2|2,0:3|0:3|0:3,0:0:0:0:
388,196,5879,1,0,0:0:0:0:
316,128,6109,2,0,L|304:36,1,90,2|0,0:3|0:0,0:0:0:0:
399,106,6571,6,0,L|388:196,1,90,2|0,0:2|0:0,0:0:0:0:
368,292,7033,1,8,0:2:0:0:
272,264,7263,1,0,0:0:0:0:
272,264,7379,1,0,0:0:0:0:
272,264,7494,1,2,0:2:0:0:
200,332,7725,1,0,0:0:0:0:
116,280,7956,2,0,P|87:243|83:198,1,90,8|0,0:2|0:0,0:0:0:0:
12,132,8417,6,0,P|98:152|163:67,1,180,2|2,0:0|0:0,0:0:0:0:
212,12,9109,1,0,0:0:0:0:
248,104,9340,2,0,B|244:172|292:196|292:196|268:284,1,180,2|2,0:0|0:0,0:0:0:0:
240,360,10033,1,0,0:0:0:0:
156,308,10263,6,0,P|127:274|122:230,1,90
188,156,10725,2,0,P|216:189|221:233,1,90
128,328,11186,2,0,P|99:294|94:250,1,90
88,152,11648,1,0,0:0:0:0:
88,152,11879,1,0,0:0:0:0:
188,156,12109,6,0,L|280:144,1,90,4|0,0:0|0:0,0:0:0:0:
449,188,12571,2,0,L|360:200,1,90,8|0,0:2|0:0,0:0:0:0:
188,156,13033,2,0,P|173:115|183:72,1,90
360,200,13494,2,0,P|375:241|365:284,1,90,8|0,0:2|0:0,0:0:0:0:
284,256,13956,5,0,0:0:0:0:
308,344,14186,1,0,0:0:0:0:
220,332,14417,1,8,0:2:0:0:
192,244,14648,1,0,0:0:0:0:
376,272,14879,2,0,P|405:306|410:350,1,90
284,256,15340,2,0,P|289:211|318:178,1,90,8|0,0:2|0:0,0:0:0:0:
308,344,15802,6,0,P|267:359|224:349,1,90,4|0,0:0|0:0,0:0:0:0:
128,316,16263,1,8,0:2:0:0:
42,198,16494,1,0,0:0:0:0:
180,243,16725,1,0,0:0:0:0:
42,288,16956,1,0,0:0:0:0:
128,170,17186,1,8,0:2:0:0:
128,316,17417,1,0,0:0:0:0:
43,197,17648,6,0,L|32:108,1,90,0|0,0:3|0:0,0:0:0:0:
136,288,18109,2,0,L|125:378,1,90,8|0,0:2|0:0,0:0:0:0:
40,328,18571,2,0,B|83:295|131:327|131:327|167:351|211:335,1,180,0|8,0:0|0:2,0:0:0:0:
308,332,19263,1,0,0:0:0:0:
376,260,19494,5,2,0:3:0:0:
288,212,19725,2,0,L|272:136,2,45,0|2|2,0:0|0:3|0:0,0:0:0:0:
364,152,20186,2,0,L|380:76,2,45,2|2|0,0:3|0:3|0:0,0:0:0:0:
376,260,20648,1,2,0:3:0:0:
376,260,20879,2,0,L|387:350,1,90,2|0,0:0|0:0,0:0:0:0:
288,212,21340,6,0,P|219:234|231:58,1,337.500012874604,2|4,0:0|0:0,0:0:0:0:
224,59,23186,6,0,P|193:92|152:108,1,90,4|0,1:0|0:0,0:0:0:0:
56,136,23648,1,8,0:2:0:0:
40,120,23763,1,0,0:0:0:0:
24,104,23879,1,0,0:0:0:0:
140,208,24109,2,0,L|152:300,1,90
52,280,24571,2,0,L|40:372,1,90,8|0,0:2|0:0,0:0:0:0:
128,384,25033,5,0,0:0:0:0:
220,344,25263,1,0,0:0:0:0:
220,344,25379,1,0,0:0:0:0:
220,344,25494,1,8,0:2:0:0:
316,368,25725,1,0,0:0:0:0:
404,324,25956,2,0,B|371:281|403:233|403:233|427:197|411:153,1,180,0|8,0:0|0:2,0:0:0:0:
348,76,26648,1,0,0:0:0:0:
248,64,26879,6,0,L|156:76,1,90,4|0,0:0|0:0,0:0:0:0:
96,152,27340,1,8,0:2:0:0:
106,171,27455,1,0,0:0:0:0:
116,191,27571,1,0,0:0:0:0:
160,280,27802,2,0,L|252:268,1,90
324,204,28263,2,0,L|416:216,1,90,8|0,0:2|0:0,0:0:0:0:
504,176,28725,6,0,P|512:132|488:76,1,90
416,32,29186,2,0,B|384:26|384:26|328:42,1,90,8|0,0:2|0:0,0:0:0:0:
264,116,29648,2,0,P|188:161|104:138,1,180,0|8,0:0|0:2,0:0:0:0:
40,60,30340,1,0,0:0:0:0:
16,156,30571,6,0,L|8:248,1,90,4|0,0:0|0:0,0:0:0:0:
96,365,31033,2,0,L|104:276,1,90,8|0,0:2|0:0,0:0:0:0:
207,166,31494,2,0,L|200:256,1,90
258,336,31956,1,8,0:2:0:0:
258,336,32186,1,0,0:0:0:0:
330,268,32417,6,0,P|393:209|477:230,1,180,0|8,0:0|0:2,0:0:0:0:
414,304,33109,1,0,0:0:0:0:
330,268,33340,2,0,P|315:227|325:184,1,90,0|0,0:2|0:0,0:0:0:0:
362,92,33802,1,8,0:2:0:0:
256,192,34263,12,0,36109,2:0:0:0:
256,192,36225,12,2,37494,2:0:0:0:
