osu file format v14

[General]
AudioFilename: yes we cant wh.mp3
AudioLeadIn: 1000
PreviewTime: 12109
Countdown: 0
SampleSet: Soft
StackLeniency: 0.7
Mode: 0
LetterboxInBreaks: 0
WidescreenStoryboard: 0

[Editor]
DistanceSpacing: 1.5
BeatDivisor: 4
GridSize: 4
TimelineZoom: 1

[Metadata]
Title:wh
TitleUnicode:wh
Artist:yes we cant
ArtistUnicode:yes we cant
Creator:Nhawak
Version:Banana
Source:
Tags:barney & friends british union jack big ben clock tower england flag sax soundclown yakety randolph riverside kids eminem mom's spaghetti pink purple dinosaur ptaf boss ass bitch boxxy Shadren Gero Irreversible Asphyxia bbj0920 _Gezo_ Spectator
BeatmapID:664265
BeatmapSetID:295480

[Difficulty]
HPDrainRate:7
CircleSize:4.3
OverallDifficulty:9
ApproachRate:9.5
SliderMultiplier:1.8
SliderTickRate:2

[Events]
//Background and Video events
0,0,"BG.png",0,0
Video,760,"wh.avi"
//Break Periods
//Storyboard Layer 0 (Background)
//Storyboard Layer 1 (Fail)
//Storyboard Layer 2 (Pass)
//Storyboard Layer 3 (Foreground)
//Storyboard Sound Samples

[TimingPoints]
1033,461.538461538462,4,2,1,80,1,0
4263,-83.3333333333333,4,2,1,80,0,0
8417,-62.5,4,2,1,80,0,0
8879,-83.3333333333333,4,2,1,80,0,0
10725,-76.9230769230769,4,2,1,80,0,0
11186,-71.4285714285714,4,2,1,80,0,0
11648,-66.6666666666667,4,2,1,80,0,0
11879,-58.8235294117647,4,2,1,80,0,0
12109,-55.5555555555556,4,2,1,80,0,0
19494,-100,4,2,1,80,0,0
23186,-55.5555555555556,4,2,1,80,0,1
34263,-66.6666666666667,4,2,1,80,0,0

[Colours]
Combo1 : 255,40,40
Combo2 : 166,0,166
Combo3 : 128,255,0

[HitObjects]
159,286,1033,5,4,0:0:0:0:
220,60,1263,1,2,0:3:0:0:
385,225,1494,1,2,0:0:0:0:
350,95,1725,1,0,0:0:0:0:
289,321,1956,1,0,1:0:0:0:
124,156,2186,1,2,0:0:0:0:
385,225,2417,1,2,0:0:0:0:
159,286,2648,2,0,L|76:296,1,45,2|2,0:0|0:0,0:0:0:0:
384,316,4033,6,0,L|392:252,1,45,2|0,0:0|0:0,0:0:0:0:
468,209,4263,2,0,L|484:361,1,107.999996704102,0|2,1:0|0:0,0:0:0:0:
262,16,4725,5,4,0:3:0:0:
87,256,4956,1,2,0:0:0:0:
87,256,5071,1,0,0:0:0:0:
87,256,5186,1,4,0:3:0:0:
368,165,5417,1,2,0:0:0:0:
88,73,5648,2,0,L|28:53,1,53.9999983520508,4|0,0:3|0:0,0:0:0:0:
216,169,5879,2,0,L|276:149,1,53.9999983520508,2|0,0:0|0:0,0:0:0:0:
428,77,6109,1,4,0:3:0:0:
376,380,6340,1,2,0:0:0:0:
87,256,6571,5,4,0:3:0:0:
54,236,6686,1,0,0:0:0:0:
31,205,6802,1,2,0:0:0:0:
19,169,6917,1,0,0:0:0:0:
23,131,7033,2,0,L|35:61,1,53.9999983520508,4|0,0:3|0:0,0:0:0:0:
316,153,7263,2,0,L|325:206,1,53.9999983520508,2|0,0:0|0:0,0:0:0:0:
138,357,7494,6,0,P|122:293|156:233,1,107.999996704102,4|2,0:0|0:0,0:0:0:0:
191,163,7840,1,0,0:0:0:0:
24,325,7956,2,0,P|16:293|0:253,1,53.9999983520508,0|0,1:0|0:0,0:0:0:0:
88,85,8186,2,0,P|79:110|76:149,1,53.9999983520508,0|0,1:0|0:0,0:0:0:0:
256,341,8417,6,0,B|288:341|320:313|320:313|408:325,1,144,2|2,1:0|0:0,0:0:0:0:
456,253,8763,1,0,0:1:0:0:
456,253,8879,1,2,1:0:0:0:
279,42,9109,1,0,2:0:0:0:
185,301,9340,1,2,1:0:0:0:
456,253,9571,1,0,2:0:0:0:
279,42,9802,6,0,P|275:74|287:114,1,53.9999983520508,2|0,1:0|2:0,0:0:0:0:
456,306,10033,2,0,P|460:279|456:253,1,53.9999983520508
204,12,10263,6,0,P|173:71|261:150,1,161.999995056153,6|0,0:0|0:0,0:0:0:0:
331,295,10725,6,0,P|358:222|299:154,1,175.499991966248,6|0,0:0|0:0,0:0:0:0:
96,251,11186,6,0,L|303:229,1,188.999994232178,6|0,0:0|0:0,0:0:0:0:
458,71,11648,6,0,L|374:87,1,67.5000025749208,6|0,0:0|0:0,0:0:0:0:
34,71,11879,2,0,L|110:83,1,76.5000014591217,6|0,0:0|0:0,0:0:0:0:
456,305,12109,5,4,0:3:0:0:
256,169,12340,1,2,0:0:0:0:
56,305,12571,1,8,0:3:0:0:
456,305,12802,1,2,0:0:0:0:
256,25,13033,5,4,0:3:0:0:
56,305,13263,1,2,0:0:0:0:
456,89,13494,1,8,0:3:0:0:
56,89,13725,1,2,0:0:0:0:
256,369,13956,5,4,0:3:0:0:
476,197,14186,1,2,0:0:0:0:
36,197,14417,1,8,0:3:0:0:
256,25,14648,1,2,0:0:0:0:
172,361,14879,6,0,B|184:317|184:317|200:289|200:289|200:253|200:253|176:197,1,161.999995056153,2|0,0:0|0:0,0:0:0:0:
256,117,15225,1,0,0:0:0:0:
340,361,15340,2,0,B|328:317|328:317|312:289|312:289|312:253|312:253|330:208,1,161.999995056153,2|0,0:0|0:0,0:0:0:0:
356,69,15802,5,4,0:3:0:0:
128,97,16033,1,2,0:0:0:0:
156,325,16263,1,8,0:3:0:0:
384,297,16494,1,2,0:0:0:0:
278,36,16725,5,4,0:3:0:0:
95,174,16956,1,2,0:0:0:0:
233,357,17186,1,8,0:3:0:0:
416,219,17417,1,2,0:0:0:0:
195,46,17648,5,4,0:3:0:0:
105,257,17879,1,2,0:0:0:0:
316,347,18109,1,8,0:3:0:0:
406,136,18340,1,2,0:0:0:0:
256,197,18571,6,0,B|264:161|264:161|256:117|256:117|184:101|168:33,1,161.999995056153,2|2,0:0|0:0,0:0:0:0:
256,10,18917,1,0,0:0:0:0:
256,197,19033,2,0,B|248:161|248:161|256:117|256:117|328:101|344:33,1,161.999995056153,2|2,0:0|0:0,0:0:0:0:
300,265,19494,6,0,B|276:269|256:277|256:277|236:269|212:265,1,90,6|0,0:0|0:0,0:0:0:0:
444,157,19956,1,6,0:0:0:0:
256,365,20186,1,0,0:0:0:0:
68,157,20417,1,6,0:0:0:0:
256,45,20648,1,0,0:0:0:0:
256,45,20763,1,0,0:0:0:0:
256,45,20879,2,0,B|256:77|256:77|252:87|252:87|260:86|260:86|256:101|256:101|256:137,1,90,6|0,0:0|0:0,0:0:0:0:
256,365,21340,6,0,B|308:377|336:333|336:333|396:313|457:371|457:371|480:309|436:245|436:245|476:204|436:144|436:144|436:144|436:144,1,450,0|4,0:0|0:0,0:0:0:0:
139,293,23186,6,0,P|88:302|12:216,1,161.999995056153,4|2,0:0|0:0,0:0:0:0:
99,215,23533,1,0,0:0:0:0:
217,350,23648,2,0,P|238:313|272:284,1,80.9999975280763,0|0,1:0|0:0,0:0:0:0:
357,172,23879,2,0,P|386:199|406:234,1,80.9999975280763,2|0,0:0|0:0,0:0:0:0:
263,111,24109,6,0,L|251:18,1,80.9999975280763
486,303,24340,2,0,L|474:396,1,80.9999975280763,2|0,0:0|0:0,0:0:0:0:
431,93,24571,2,0,L|511:82,1,80.9999975280763,0|0,1:0|0:0,0:0:0:0:
297,339,24802,2,0,L|217:350,1,80.9999975280763,2|0,0:0|0:0,0:0:0:0:
115,263,25033,6,0,L|286:243,1,161.999995056153,0|2,0:0|0:0,0:0:0:0:
457,358,25379,2,0,L|297:339,1,161.999995056153,0|2,0:0|0:0,0:0:0:0:
203,324,25725,1,0,0:0:0:0:
115,366,25840,1,0,0:0:0:0:
28,324,25956,5,2,0:0:0:0:
28,226,26071,1,0,0:0:0:0:
114,169,26186,1,0,0:0:0:0:
203,226,26302,2,0,P|275:246|351:172,1,161.999995056153,2|0,0:0|0:0,0:0:0:0:
392,122,26648,1,2,0:0:0:0:
409,28,26763,1,0,0:0:0:0:
313,62,26879,6,0,B|274:78|274:78|226:89,1,80.9999975280763
199,332,27109,2,0,B|238:316|238:316|286:305,1,80.9999975280763,2|0,0:0|0:0,0:0:0:0:
391,254,27340,2,0,B|375:215|375:215|364:167,1,80.9999975280763,0|0,1:0|0:0,0:0:0:0:
121,140,27571,2,0,B|137:179|137:179|148:227,1,80.9999975280763,2|0,0:0|0:0,0:0:0:0:
391,254,27802,6,0,L|472:244,1,80.9999975280763
121,140,28033,2,0,P|76:145|20:157,1,80.9999975280763,2|0,0:0|0:0,0:0:0:0:
315,81,28263,2,0,P|310:36|298:-20,1,80.9999975280763,0|0,1:0|0:0,0:0:0:0:
193,303,28494,2,0,P|198:348|210:404,1,80.9999975280763,2|0,0:0|0:0,0:0:0:0:
445,120,28725,1,0,0:0:0:0:
116,117,28956,5,2,0:0:0:0:
256,198,29071,1,0,0:0:0:0:
115,279,29186,1,0,1:0:0:0:
116,117,29302,1,0,0:0:0:0:
256,198,29417,2,0,L|337:188,1,80.9999975280763,2|0,0:0|0:0,0:0:0:0:
455,178,29648,5,0,0:0:0:0:
405,288,29763,1,0,0:0:0:0:
336,188,29879,1,2,0:0:0:0:
285,299,29994,2,0,B|210:304|210:304|128:334,1,161.999995056153
129,334,30340,1,2,0:0:0:0:
129,334,30456,1,0,0:0:0:0:
321,143,30571,6,0,L|347:50,1,80.9999975280763,2|0,0:0|0:0,0:0:0:0:
191,251,30802,2,0,L|165:344,1,80.9999975280763,2|0,0:0|0:0,0:0:0:0:
382,208,31033,2,0,L|508:137,1,80.9999975280763,2|0,1:2|0:0,0:0:0:0:
129,185,31263,2,0,L|3:256,1,80.9999975280763,2|0,0:0|0:0,0:0:0:0:
377,343,31494,6,0,L|530:385,1,80.9999975280763,2|0,0:0|0:0,0:0:0:0:
134,50,31725,2,0,L|55:28,1,80.9999975280763,2|0,0:0|0:0,0:0:0:0:
110,303,31956,2,0,B|108:341|108:341|95:382,1,80.9999975280763,2|0,1:2|0:0,0:0:0:0:
403,88,32186,2,0,B|405:50|405:50|419:10,1,80.9999975280763,2|0,0:0|0:0,0:0:0:0:
257,196,32417,6,0,P|214:244|114:229,1,161.999995056153,4|2,0:0|0:0,0:0:0:0:
174,165,32763,1,0,0:0:0:0:
238,109,32879,2,0,P|285:106|327:94,1,80.9999975280763,0|0,1:0|0:0,0:0:0:0:
461,245,33109,2,0,P|421:243|382:234,1,80.9999975280763,2|0,0:0|0:0,0:0:0:0:
257,346,33340,5,0,0:0:0:0:
164,293,33456,1,0,0:0:0:0:
80,357,33571,1,2,0:0:0:0:
0,297,33686,1,0,0:0:0:0:
35,194,33802,2,0,L|131:182,1,80.9999975280763,0|0,1:0|0:0,0:0:0:0:
402,142,34033,2,0,L|321:131,1,80.9999975280763,2|0,0:0|0:0,0:0:0:0:
106,100,34263,5,2,0:3:0:0:
172,363,34494,1,2,0:0:0:0:
435,297,34725,1,2,0:3:0:0:
369,34,34956,1,2,0:0:0:0:
84,245,35186,5,2,0:3:0:0:
316,382,35417,1,2,0:0:0:0:
455,151,35648,1,2,0:3:0:0:
223,8,35879,1,2,0:0:0:0:
256,192,36109,12,2,37494,0:0:0:0:
