osu file format v14

[General]
AudioFilename: yes we cant wh.mp3
AudioLeadIn: 1000
PreviewTime: 12109
Countdown: 0
SampleSet: Normal
StackLeniency: 0.7
Mode: 0
LetterboxInBreaks: 0
WidescreenStoryboard: 0

[Editor]
DistanceSpacing: 1.4
BeatDivisor: 4
GridSize: 4
TimelineZoom: 1

[Metadata]
Title:wh
TitleUnicode:wh
Artist:yes we cant
ArtistUnicode:yes we cant
Creator:Nhawak
Version:Asphyxia's Extra
Source:
Tags:barney & friends british union jack big ben clock tower england flag sax soundclown yakety randolph riverside kids eminem mom's spaghetti pink purple dinosaur ptaf boss ass bitch boxxy Shadren Gero Irreversible Asphyxia bbj0920 _Gezo_ Spectator
BeatmapID:679242
BeatmapSetID:295480

[Difficulty]
HPDrainRate:6
CircleSize:2
OverallDifficulty:8
ApproachRate:9
SliderMultiplier:2.6
SliderTickRate:2

[Events]
//Background and Video events
0,0,"BG.png",0,0
Video,760,"wh.avi"
//Break Periods
//Storyboard Layer 0 (Background)
//Storyboard Layer 1 (Fail)
//Storyboard Layer 2 (Pass)
//Storyboard Layer 3 (Foreground)
//Storyboard Sound Samples

[TimingPoints]
1033,461.538461538462,4,2,0,80,1,0
1033,-133.333333333333,4,2,0,80,0,0
2879,-133.333333333333,4,2,0,60,0,0
4494,-66.6666666666667,4,2,0,80,0,0
4725,-100,4,2,0,80,0,0
8417,-100,4,1,0,80,0,0
12109,-100,4,2,0,80,0,0
15225,-66.6666666666667,4,2,0,80,0,0
15456,-66.6666666666667,4,2,0,40,0,0
15571,-50,4,2,0,80,0,0
15802,-100,4,2,0,80,0,0
19148,-100,4,2,0,40,0,0
19494,-100,4,1,0,80,0,0
23186,-100,4,1,0,80,0,1
34263,-100,4,2,0,80,0,0

[Colours]
Combo1 : 255,40,40
Combo2 : 166,0,166
Combo3 : 128,255,0

[HitObjects]
132,332,1033,6,0,L|24:352,1,97.50000371933,0|0,1:0|0:0,0:0:0:0:
116,228,1417,1,0,0:0:0:0:
116,228,1494,2,0,P|184:240|236:232,1,97.50000371933,0|0,1:0|0:0,0:0:0:0:
336,64,1956,1,0,1:0:0:0:
493,281,2186,1,0,0:0:0:0:
241,199,2417,1,0,1:0:0:0:
493,116,2648,1,0,0:0:0:0:
336,332,2879,5,0,0:0:0:0:
336,332,4033,1,0,0:0:0:0:
308,240,4148,1,0,0:0:0:0:
284,148,4263,2,0,L|256:68,1,48.750001859665,8|0,0:0|0:0,0:0:0:0:
192,240,4494,6,0,L|152:120,1,97.50000371933
384,176,4725,5,4,0:0:0:0:
108,32,4956,1,0,0:0:0:0:
80,116,5071,1,0,0:0:0:0:
48,200,5186,1,8,0:0:0:0:
404,352,5417,1,0,0:0:0:0:
432,268,5532,1,0,0:0:0:0:
464,184,5647,1,0,0:0:0:0:
264,72,5879,1,0,0:0:0:0:
248,160,5994,1,0,0:0:0:0:
220,244,6109,2,0,P|168:282|104:287,1,130,8|0,0:0|0:0,0:0:0:0:
280,28,6571,5,0,0:0:0:0:
304,116,6686,1,0,0:0:0:0:
336,204,6802,1,0,0:0:0:0:
368,288,6917,1,0,0:0:0:0:
416,360,7033,2,0,L|480:368,1,65,8|0,0:0|0:0,0:0:0:0:
272,276,7263,2,0,L|208:268,1,65
368,108,7494,6,0,P|422:60|487:60,1,130
144,276,7840,2,0,P|90:324|25:324,1,130,0|0,0:0|0:0,0:0:0:0:
256,100,8186,2,0,L|256:12,1,65,0|0,0:0|0:0,0:0:0:0:
512,236,8417,5,4,0:0:0:0:
256,352,8648,1,0,0:0:0:0:
256,352,8763,1,0,0:0:0:0:
256,352,8879,1,8,0:0:0:0:
40,80,9109,1,0,0:0:0:0:
472,80,9340,2,0,B|404:48|404:48|324:120|232:92,1,260,0|8,0:0|0:0,0:0:0:0:
32,296,10033,1,0,0:0:0:0:
112,256,10148,1,0,0:0:0:0:
196,288,10263,6,0,L|272:336,1,65,2|0,0:0|0:0,0:0:0:0:
36,200,10494,5,0,0:0:0:0:
116,160,10609,1,0,0:0:0:0:
204,184,10725,2,0,L|280:232,1,65,10|0,0:0|0:0,0:0:0:0:
36,104,10956,5,0,0:0:0:0:
116,64,11071,1,0,0:0:0:0:
204,76,11186,2,0,L|280:124,3,65,2|0|0|0,0:0|0:0|0:0|0:0,0:0:0:0:
400,180,11648,6,0,P|460:172|500:144,1,65,10|0,0:0|0:0,0:0:0:0:
268,280,11879,2,0,P|251:338|262:386,1,65,2|0,0:0|0:0,0:0:0:0:
364,89,12109,6,0,P|330:31|266:4,1,130,4|2,1:2|0:0,0:0:0:0:
96,44,12571,1,0,1:0:0:0:
256,352,12802,1,2,0:0:0:0:
416,44,13033,1,2,1:2:0:0:
64,324,13263,1,2,0:0:0:0:
256,40,13494,1,0,1:0:0:0:
448,324,13725,1,0,0:0:0:0:
40,192,13956,5,0,1:0:0:0:
472,192,14186,1,2,0:0:0:0:
0,72,14417,1,0,1:0:0:0:
512,312,14648,1,2,0:0:0:0:
198,303,14879,6,0,P|255:276|314:303,1,130,2|0,1:2|0:0,0:0:0:0:
163,211,15225,6,0,P|257:183|349:211,1,195.00000743866,2|0,0:0|0:0,0:0:0:0:
132,123,15571,6,0,P|256:91|384:123,1,260,2|0,0:0|1:0,0:0:0:0:
488,276,16033,5,0,0:0:0:0:
308,268,16263,2,0,L|136:232,1,130,0|2,1:0|0:0,0:0:0:0:
356,172,16609,1,0,0:0:0:0:
356,172,16725,2,0,L|483:198,1,130,0|2,1:0|0:0,0:0:0:0:
88,336,17186,1,0,1:0:0:0:
424,48,17417,1,2,0:0:0:0:
194,101,17648,6,0,L|120:68,1,65,0|0,1:0|0:0,0:0:0:0:
317,282,17879,2,0,L|392:316,1,65,2|0,0:0|0:0,0:0:0:0:
108,284,18109,2,0,L|165:253,1,65,0|0,1:0|0:0,0:0:0:0:
403,99,18340,2,0,L|346:130,1,65,2|0,0:0|0:0,0:0:0:0:
82,179,18571,6,0,P|23:218|1:295,1,130,0|0,1:0|0:0,0:0:0:0:
430,205,18917,2,0,P|489:166|511:89,1,130,2|0,0:0|0:0,0:0:0:0:
256,128,19263,1,2,0:0:0:0:
256,128,19494,5,2,0:2:0:0:
224,308,19725,1,2,0:2:0:0:
276,20,19956,1,2,0:2:0:0:
344,344,20186,1,2,0:2:0:0:
344,344,20302,1,0,0:0:0:0:
344,344,20417,1,2,0:2:0:0:
168,64,20648,1,2,0:2:0:0:
456,160,20879,1,2,0:2:0:0:
116,272,21109,1,2,0:2:0:0:
256,192,21340,12,2,22494,2:0:0:0:
116,72,23186,6,0,L|144:160,1,65,4|0,0:0|0:0,0:0:0:0:
396,72,23417,2,0,L|368:160,1,65,2|0,0:2|0:0,0:0:0:0:
180,228,23648,2,0,P|152:284|128:300,1,65,8|0,0:0|0:0,0:0:0:0:
332,228,23879,2,0,P|360:284|384:300,1,65,2|0,0:2|0:0,0:0:0:0:
256,136,24109,5,0,0:0:0:0:
240,92,24225,1,0,0:0:0:0:
364,176,24340,5,2,0:2:0:0:
348,132,24456,1,0,0:0:0:0:
476,216,24571,5,8,0:0:0:0:
460,172,24687,1,0,0:0:0:0:
402,294,24802,2,0,P|451:322|482:326,1,65,2|0,0:2|0:0,0:0:0:0:
256,136,25033,5,0,0:0:0:0:
256,136,25263,1,2,0:2:0:0:
172,176,25379,1,0,0:0:0:0:
80,188,25494,2,0,L|4:168,1,65,8|0,0:0|0:0,0:0:0:0:
432,188,25725,2,0,L|508:168,1,65,2|0,0:2|0:0,0:0:0:0:
256,328,25956,5,0,0:0:0:0:
256,316,26186,1,2,0:2:0:0:
256,304,26417,1,8,0:0:0:0:
256,36,26648,5,0,0:0:0:0:
184,92,26763,1,0,0:0:0:0:
268,132,26879,6,0,L|340:168,1,65,0|0,0:0|0:0,0:0:0:0:
84,112,27109,2,0,L|25:82,1,65,2|0,0:2|0:0,0:0:0:0:
152,284,27340,1,8,0:0:0:0:
236,316,27456,1,0,0:0:0:0:
328,304,27571,1,2,0:2:0:0:
404,252,27686,1,0,0:0:0:0:
452,172,27802,6,0,P|472:108|460:72,1,65
39,111,28033,2,0,P|44:143|60:172,1,65,2|0,0:2|0:0,0:0:0:0:
376,88,28263,2,0,P|360:22|331:-1,1,65,8|0,0:0|0:0,0:0:0:0:
149,25,28494,2,0,P|136:55|136:88,1,65,2|0,0:2|0:0,0:0:0:0:
256,333,28725,5,0,0:0:0:0:
256,333,28956,2,0,L|240:233,1,65,2|0,0:2|0:0,0:0:0:0:
400,32,29186,1,8,0:0:0:0:
372,120,29302,1,0,0:0:0:0:
332,200,29417,2,0,L|342:264,1,65,2|0,0:2|0:0,0:0:0:0:
464,104,29648,2,0,P|392:128|304:52,1,195
204,168,30109,5,8,0:0:0:0:
196,192,30225,1,0,0:0:0:0:
96,312,30340,5,2,0:2:0:0:
88,288,30456,1,0,0:0:0:0:
240,64,30571,6,0,L|316:52,1,65,4|0,0:0|0:0,0:0:0:0:
272,320,30802,2,0,L|196:332,1,65,2|0,0:2|0:0,0:0:0:0:
252,56,31033,6,0,L|328:44,1,65,8|0,0:0|0:0,0:0:0:0:
260,328,31263,2,0,L|184:340,1,65,2|0,0:2|0:0,0:0:0:0:
264,48,31494,6,0,L|340:36,1,65,0|0,0:0|0:0,0:0:0:0:
248,336,31725,2,0,L|172:348,1,65,2|0,0:2|0:0,0:0:0:0:
16,124,31956,5,8,0:0:0:0:
104,108,32071,1,0,0:0:0:0:
184,152,32186,1,2,0:2:0:0:
212,240,32302,1,0,0:0:0:0:
172,320,32417,6,0,P|220:268|304:272,1,130,0|0,0:0|0:0,0:0:0:0:
512,188,32763,1,0,0:0:0:0:
512,188,32879,2,0,P|444:196|384:148,1,130,8|0,0:0|0:0,0:0:0:0:
356,84,33225,1,0,0:0:0:0:
288,24,33340,1,0,0:0:0:0:
264,112,33456,1,0,0:0:0:0:
228,196,33571,1,2,0:2:0:0:
204,284,33686,1,0,0:0:0:0:
176,372,33802,5,8,0:0:0:0:
176,372,33917,1,0,0:0:0:0:
176,372,34033,1,2,0:2:0:0:
104,108,34263,6,0,L|16:128,1,65,2|0,0:0|0:0,0:0:0:0:
192,180,34494,2,0,L|255:194,1,65,2|0,0:0|0:0,0:0:0:0:
508,96,34725,2,0,P|428:76|340:144,1,195,10|0,0:0|0:0,0:0:0:0:
340,244,35186,5,2,0:0:0:0:
348,276,35302,1,0,0:0:0:0:
356,308,35417,1,2,0:0:0:0:
364,340,35533,1,0,0:0:0:0:
372,372,35648,2,0,L|396:168,1,195,10|0,0:0|0:0,0:0:0:0:
256,192,36109,12,2,37494,0:0:0:0:
