osu file format v14

[General]
AudioFilename: uokbBPOA0mG6.128.mp3
AudioLeadIn: 0
PreviewTime: 23173
Countdown: 0
SampleSet: Soft
StackLeniency: 0.7
Mode: 0
LetterboxInBreaks: 0
WidescreenStoryboard: 0

[Editor]
DistanceSpacing: 0.7
BeatDivisor: 4
GridSize: 4
TimelineZoom: 1

[Metadata]
Title:wh
TitleUnicode:wh
Artist:yes we cant
ArtistUnicode:yes we cant
Creator:Maeglwn
Version:Extra
Source:
Tags:soundclown barney spaghetti boss yakety sax boots randolph sidney samson riverside Static Noise Bird Priti Moo-chan MooChan Blue Dragon Irreversible Asphyxia TicClick
BeatmapID:538868
BeatmapSetID:232017

[Difficulty]
HPDrainRate:6
CircleSize:4
OverallDifficulty:8
ApproachRate:9
SliderMultiplier:2.4
SliderTickRate:1

[Events]
//Background and Video events
0,0,"boxxy-298363-2042x1276.jpg",0,0
//Break Periods
//Storyboard Layer 0 (Background)
//Storyboard Layer 1 (Fail)
//Storyboard Layer 2 (Pass)
//Storyboard Layer 3 (Foreground)
//Storyboard Sound Samples

[TimingPoints]
1020,461.538461538462,4,2,0,80,1,0
1020,-133.333333333333,4,2,0,80,0,0
4481,-100,4,2,0,80,0,0
8404,-100,4,1,0,80,0,0
12096,-100,4,2,0,80,0,0
19481,-100,4,1,0,80,0,0
23173,-100,4,1,0,80,0,1
34250,-100,4,2,0,80,0,0

[Colours]
Combo1 : 0,128,192
Combo2 : 169,83,255
Combo3 : 128,128,255
Combo4 : 192,192,192

[HitObjects]
188,64,1020,6,0,P|187:108|208:147,1,90.0000034332277,0|0,1:0|0:0,0:0:0:0:
304,148,1404,1,0,0:0:0:0:
304,148,1481,2,0,P|325:109|325:65,1,90.0000034332277,0|0,1:0|0:0,0:0:0:0:
72,68,1943,2,0,L|72:200,1,90.0000034332277,0|0,1:0|0:0,0:0:0:0:
292,274,2404,2,0,L|292:142,1,90.0000034332277,0|0,1:0|0:0,0:0:0:0:
256,192,2866,12,4,3789,0:0:0:0:
97,34,4481,6,0,L|144:100,1,60
156,116,4712,1,2,0:0:0:0:
436,195,4943,1,0,0:0:0:0:
436,195,5058,1,0,0:0:0:0:
436,195,5173,1,8,0:0:0:0:
369,94,5404,1,0,0:0:0:0:
244,275,5635,2,0,B|202:326|202:326|100:313,1,120,2|0,0:0|0:0,0:0:0:0:
9,204,6096,2,0,B|51:153|51:153|153:166,1,120,8|0,0:0|0:0,0:0:0:0:
424,168,6558,5,2,0:0:0:0:
451,179,6673,1,0,0:0:0:0:
472,200,6789,2,0,P|515:257|508:311,1,120,0|8,0:0|0:0,0:0:0:0:
331,293,7250,1,0,0:0:0:0:
156,280,7481,2,0,L|80:187,1,120,2|0,0:0|0:0,0:0:0:0:
292,64,7827,2,0,L|367:156,1,120
256,304,8173,2,0,B|240:272|240:272|268:240|256:184,1,120
252,28,8635,5,0,0:0:0:0:
252,28,8750,1,0,0:0:0:0:
252,28,8866,1,0,0:0:0:0:
136,112,9096,1,0,0:0:0:0:
376,112,9327,2,0,B|400:180|400:180|324:248|396:328,1,240
216,348,10020,1,0,0:0:0:0:
136,308,10135,1,0,0:0:0:0:
84,236,10250,6,0,B|32:192|32:192|96:160|68:80,1,180,4|0,0:0|0:0,0:0:0:0:
256,32,10712,2,0,B|308:76|308:76|244:108|272:188,1,180,4|0,0:0|0:0,0:0:0:0:
438,285,11173,2,0,B|416:224|480:192|480:192|428:148,1,180,4|0,0:0|0:0,0:0:0:0:
256,32,11635,1,0,0:0:0:0:
256,344,11866,1,0,0:0:0:0:
80,76,12096,6,0,B|132:40|132:40|220:40,1,120,4|0,0:1|0:0,0:0:0:0:
364,336,12558,1,8,0:0:0:0:
148,336,12789,1,0,0:0:0:0:
328,116,13020,2,0,P|384:76|464:80,1,120,2|0,0:0|0:0,0:0:0:0:
184,268,13481,2,0,P|128:308|48:304,1,120,8|0,0:0|0:0,0:0:0:0:
256,108,13943,5,2,0:0:0:0:
256,276,14173,1,0,0:0:0:0:
201,48,14404,1,8,0:0:0:0:
310,335,14635,1,0,0:0:0:0:
440,112,14866,2,0,P|400:68|328:40,1,120,2|0,0:0|0:0,0:0:0:0:
312,192,15212,2,0,B|344:244|344:244|406:260,1,120
440,112,15558,2,0,B|404:88|404:88|416:28|344:16,1,120,0|2,0:0|0:0,0:0:0:0:
72,160,16020,5,0,0:0:0:0:
0,312,16250,1,8,0:0:0:0:
180,292,16481,1,0,0:0:0:0:
372,280,16712,2,0,L|452:280,1,60,2|0,0:0|0:0,0:0:0:0:
368,164,16943,2,0,L|288:164,1,60
256,328,17173,2,0,L|256:248,1,60,8|0,0:0|0:0,0:0:0:0:
256,56,17404,2,0,L|256:136,1,60
180,292,17635,6,0,P|136:340|72:356,1,120,2|0,0:0|0:0,0:0:0:0:
37,57,18096,2,0,L|56:176,1,120,8|0,0:0|0:0,0:0:0:0:
256,328,18558,2,0,P|344:348|400:308,1,120,2|0,0:0|0:0,0:0:0:0:
448,136,18904,2,0,B|392:112|392:112|304:156,1,120
256,328,19250,1,0,0:0:0:0:
136,72,19481,5,0,0:0:0:0:
376,72,19712,1,0,0:0:0:0:
256,328,19943,2,0,L|256:192,1,120
256,16,20404,1,0,0:0:0:0:
431,192,20635,1,0,0:0:0:0:
256,367,20866,1,0,0:0:0:0:
80,192,21096,1,0,0:0:0:0:
256,192,21327,12,2,22481,2:2:0:0:
120,104,23173,6,0,P|196:64|240:68,1,120,2|0,0:2|0:0,0:0:0:0:
392,144,23635,1,8,0:0:0:0:
448,212,23750,1,0,0:0:0:0:
404,292,23866,2,0,L|344:344,1,60
152,312,24096,2,0,L|72:312,1,60,2|0,0:2|0:0,0:0:0:0:
92,72,24327,2,0,L|152:72,1,60
348,192,24558,2,0,L|264:192,1,60,8|0,0:0|0:0,0:0:0:0:
84,192,24789,2,0,L|168:192,1,60
348,192,25020,6,0,P|392:240|404:304,1,120,2|0,0:2|0:0,0:0:0:0:
340,356,25366,1,0,0:0:0:0:
252,336,25481,2,0,P|208:288|196:224,1,120,8|0,0:0|0:0,0:0:0:0:
256,168,25827,1,0,0:0:0:0:
428,192,25943,2,0,L|356:192,1,60,2|0,0:2|0:0,0:0:0:0:
104,192,26173,2,0,L|176:192,1,60
392,104,26404,2,0,L|316:104,1,60,8|0,0:0|0:0,0:0:0:0:
120,280,26635,2,0,L|196:280,1,60
392,104,26866,6,0,P|364:48|308:24,2,120,2|0|8,0:2|0:0|0:0,0:0:0:0:
392,196,27443,1,0,0:0:0:0:
452,264,27558,1,0,0:0:0:0:
384,320,27673,1,0,0:0:0:0:
304,364,27789,2,0,L|304:300,1,60,2|0,0:2|0:0,0:0:0:0:
208,20,28020,2,0,L|208:84,1,60
384,320,28250,2,0,L|344:269,1,60,8|0,0:0|0:0,0:0:0:0:
96,108,28481,2,0,L|135:158,1,60
256,192,28712,5,2,0:2:0:0:
256,192,28943,1,0,0:0:0:0:
344,176,29058,1,0,0:0:0:0:
416,124,29173,2,0,L|468:80,1,60,8|0,0:0|0:0,0:0:0:0:
388,32,29404,2,0,B|328:32|328:32|288:68|248:28,1,120,0|2,0:0|0:2,0:0:0:0:
200,96,29750,1,0,0:0:0:0:
144,168,29866,2,0,L|88:252,1,60
392,332,30096,2,0,L|312:332,1,60,8|0,0:0|0:0,0:0:0:0:
120,332,30327,2,0,L|200:332,1,60
256,56,30558,6,0,L|256:168,1,60,6|0,0:2|0:0,0:0:0:0:
256,328,30789,2,0,L|256:216,1,60
181,72,31020,2,0,L|242:170,1,60,8|0,0:0|0:0,0:0:0:0:
330,311,31250,2,0,L|269:213,1,60
135,128,31481,2,0,L|234:180,1,60,2|0,0:2|0:0,0:0:0:0:
376,255,31712,2,0,L|277:203,1,60
136,128,31943,1,8,0:0:0:0:
64,180,32058,1,0,0:0:0:0:
36,264,32173,1,0,0:0:0:0:
72,348,32289,1,0,0:0:0:0:
256,328,32404,6,0,L|256:216,1,60,2|0,0:2|0:0,0:0:0:0:
256,56,32635,2,0,L|256:168,1,60
330,311,32866,2,0,L|269:213,1,60,8|0,0:0|0:0,0:0:0:0:
181,72,33096,2,0,L|242:170,1,60
304,136,33327,1,2,0:2:0:0:
348,132,33443,1,0,0:0:0:0:
388,140,33558,1,0,0:0:0:0:
424,164,33673,1,0,0:0:0:0:
444,204,33789,1,8,0:0:0:0:
448,244,33904,1,0,0:0:0:0:
436,284,34020,1,0,0:0:0:0:
408,316,34135,1,0,0:0:0:0:
368,328,34250,6,0,L|292:300,1,60,8|0,0:0|0:0,0:0:0:0:
184,220,34481,2,0,L|260:248,1,60
320,196,34712,2,0,B|388:172|388:172|344:112|384:52,1,180,8|0,0:0|0:0,0:0:0:0:
176,72,35173,2,0,L|80:128,2,60,8|0|0,0:0|0:0|0:0,0:0:0:0:
268,64,35520,1,0,0:0:0:0:
356,64,35635,2,0,P|444:120|444:196,1,180,8|0,0:0|0:0,0:0:0:0:
256,192,36096,12,0,37481,0:0:0:0:
