osu file format v11

[General]
AudioFilename: 123.mp3
AudioLeadIn: 993
PreviewTime: -1
Countdown: 0
SampleSet: Soft
StackLeniency: 0.7
Mode: 0
LetterboxInBreaks: 0

[Editor]
Bookmarks: 105541,328088
DistanceSpacing: 0.3
BeatDivisor: 4
GridSize: 4

[Metadata]
Title:Kimi no Shiranai monogatari
TitleUnicode:Kimi no Shiranai monogatari
Artist:yealina
ArtistUnicode:yealina
Creator:Sumisola
Version:Insane
Source:
Tags:
BeatmapID:217780
BeatmapSetID:76888

[Difficulty]
HPDrainRate:7
CircleSize:4
OverallDifficulty:6
ApproachRate:8
SliderMultiplier:2.08
SliderTickRate:1

[Events]
//Background and Video events
0,0,"BG4.jpg"
//Break Periods
2,12652,29156
2,97015,101883
2,228652,239338
//Storyboard Layer 0 (Background)
//Storyboard Layer 1 (Fail)
//Storyboard Layer 2 (Pass)
//Storyboard Layer 3 (Foreground)
//Storyboard Sound Samples
//Background Colour Transformations
3,100,163,162,255

[TimingPoints]
816,363.636363636364,4,2,0,40,1,0
816,-200,4,2,1,40,0,0
9543,-100,4,1,1,40,0,0
10179,-100,4,1,1,45,0,0
10906,-100,4,1,1,50,0,0
11634,-100,4,1,1,60,0,0
29818,-133.333333333333,4,2,2,50,0,0
41455,-100,4,2,2,70,0,0
41543,363.636363636364,4,2,0,60,1,0
53165,-100,4,1,1,40,0,0
53802,-100,4,1,1,45,0,0
54529,-100,4,1,1,50,0,0
55256,-100,4,1,1,60,0,0
56074,-133.333333333333,4,2,2,50,0,0
61074,-133.333333333333,4,3,1,45,0,0
61256,-133.333333333333,4,3,1,40,0,0
61438,-133.333333333333,4,3,1,35,0,0
61620,-133.333333333333,4,3,1,30,0,0
61802,-200,4,1,1,60,0,0
62620,-200,4,2,1,55,0,0
64714,-133.333333333333,4,2,2,40,0,0
65892,-133.333333333333,4,2,1,60,0,0
66211,-133.333333333333,4,2,2,50,0,0
67623,-100,4,2,2,80,0,0
78529,-100,4,2,2,55,0,0
79438,-100,4,2,2,80,0,0
85077,-133.333333333333,4,2,2,80,0,0
90938,-200,4,1,1,30,0,0
91623,-133.333333333333,4,1,1,30,0,0
91986,-100,4,1,1,30,0,0
92347,-100,4,1,1,40,0,0
93892,-100,4,2,1,60,0,0
94347,-100,4,2,1,65,0,0
94892,-100,4,2,1,70,0,0
96168,-200,4,2,2,60,0,0
96714,-100,4,2,2,70,0,0
102620,-100,4,2,2,70,0,0
126074,-100,4,1,1,40,0,0
127256,-100,4,1,1,50,0,0
127983,-100,4,1,1,60,0,0
128802,-200,4,2,2,50,0,0
140438,-100,4,2,2,80,0,0
157892,-133.333333333333,4,2,2,80,0,0
163711,-200,4,1,1,40,0,0
164074,-133.333333333333,4,1,1,40,0,0
164438,-100,4,1,1,40,0,0
165074,-100,4,1,1,50,0,0
166529,-100,4,2,1,70,0,0
168983,-200,4,2,2,50,0,0
169529,-100,4,2,1,60,0,0
171711,-100,4,3,1,60,0,0
172347,-100,4,2,1,70,0,0
181165,-133.333333333333,4,2,1,60,0,0
192711,-133.333333333333,4,1,1,40,0,0
193438,-133.333333333333,4,1,1,50,0,0
194165,-133.333333333333,4,1,1,60,0,0
195529,-133.333333333333,4,1,1,40,0,0
197074,-133.333333333333,4,1,1,50,0,0
198529,-133.333333333333,4,1,1,55,0,0
199983,-133.333333333333,4,1,1,60,0,0
202256,-133.333333333333,4,2,2,70,0,0
219711,-133.333333333333,4,2,2,60,0,0
225620,-133.333333333333,4,1,1,40,0,0
226892,-133.333333333333,4,1,1,50,0,0
227620,-133.333333333333,4,1,1,60,0,0
228438,-133.333333333333,4,2,1,70,0,0
239892,-133.333333333333,4,2,2,60,0,0
245074,-133.333333333333,4,3,1,60,0,0
245256,-133.333333333333,4,3,1,55,0,0
245438,-133.333333333333,4,3,1,50,0,0
245620,-133.333333333333,4,3,1,45,0,0
245892,-200,4,2,2,50,0,0
252438,-100,4,2,2,70,0,0
258165,-100,4,2,2,40,0,0
258983,-100,4,2,2,50,0,0
259711,-100,4,2,2,60,0,0
260438,-100,4,2,2,65,0,0
260983,-100,4,2,2,70,0,0
261529,-100,4,2,2,75,0,0
262074,-100,4,2,2,80,0,0
263529,-100,4,2,2,70,0,0
274983,-133.333333333333,4,2,2,50,0,0
286802,-133.333333333333,4,1,1,50,0,0
292438,-133.333333333333,4,1,1,55,0,0
293892,-133.333333333333,4,1,1,60,0,0
295347,-133.333333333333,4,1,1,65,0,0
298256,-100,4,2,2,80,0,0
309802,-100,4,1,1,40,0,0
312711,-100,4,2,1,70,0,0
314256,-200,4,2,2,70,0,0
317165,-100,4,2,2,70,0,0
324347,-100,4,2,2,40,0,0
325074,-100,4,2,2,50,0,0
325802,-100,4,2,2,60,0,0
328074,-100,4,2,2,70,0,0
335711,-100,4,2,1,5,0,0

[Colours]
Combo1 : 255,0,128
Combo2 : 0,255,128
Combo3 : 0,128,255
Combo4 : 255,128,128
Combo5 : 255,128,0

[HitObjects]
256,192,816,2,0,P|356:168|456:192,1,208
172,192,2088,1,0,0:0:0
212,108,2270,1,2,0:0:0
128,276,2634,1,0,0:0:0
212,108,2997,1,2,0:0:0
256,192,3179,1,0,0:0:0
120,116,3361,1,2,0:0:0
156,28,3543,5,2,0:0:0
156,28,3634,1,0,0:0:0
156,28,3725,2,0,P|200:0|256:0|312:48|304:112,1,208,2|2,0:0|0:0,0:0:0
64,40,4816,1,0,0:0:0
120,116,4997,1,2,0:0:0
352,192,5361,1,0,0:3:0
256,192,5543,1,2,0:0:0
128,276,5906,1,2,0:0:0
164,192,6088,1,0,0:0:0
88,360,6270,1,2,0:0:0
36,284,6452,5,2,0:0:0
36,284,6543,1,0,0:0:0
36,284,6634,2,0,P|84:192,1,104,2|0,0:0|0:0,0:0:0
300,276,7361,1,2,0:0:0
256,192,7543,1,0,0:0:0
352,356,7906,1,2,0:0:0
352,356,7997,1,0,0:0:0
352,356,8088,2,0,P|408:268,1,104,2|0,0:0|0:0,0:0:0
256,368,8816,5,2,0:0:0
204,292,8997,1,0,0:0:0
300,276,9179,1,2,0:0:0
160,380,9361,5,2,0:0:0
160,380,9452,1,0,0:0:0
160,380,9543,2,0,P|120:348|108:296,1,104,4|0,0:0|0:0,0:0:0
184,124,9906,2,0,P|224:156|236:208,1,104
100,84,10270,2,0,P|132:43|184:32,1,104
76,176,10634,2,0,P|31:151|10:102,1,104
108,300,10997,5,0,0:0:0
24,260,11179,1,0,0:0:0
168,220,11361,1,0,0:0:0
28,360,11543,1,0,0:0:0
76,176,11725,5,0,0:0:0
216,304,11906,1,0,0:0:0
48,96,12088,1,0,0:0:0
108,300,12270,5,0,0:0:0
108,300,12361,1,0,0:0:0
108,300,12452,1,0,0:0:0
256,192,29906,5,2,0:0:0
292,112,30088,1,0,0:0:0
324,32,30270,1,2,0:0:0
256,192,30634,5,2,0:0:0
340,188,30816,1,0,0:0:0
380,96,30997,1,2,0:0:0
304,264,31361,5,2,0:0:0
340,188,31543,1,0,0:0:0
256,192,31725,1,0,0:0:0
304,264,31906,1,2,0:0:0
208,120,32088,2,0,P|180:140|160:176|168:224|200:256,1,156.000005950928,2|2,0:0|0:0,0:0:0
376,108,32816,5,2,0:0:0
292,112,32997,1,0,0:0:0
340,184,33179,1,2,0:0:0
244,44,33543,5,2,0:0:0
292,112,33725,1,0,0:0:0
340,184,33906,1,2,0:0:0
132,84,34270,38,0,P|168:12,1,78.000002975464,2|0,0:0|0:0,0:0:0
208,120,34634,2,0,P|172:192,1,78.000002975464,0|2,0:0|0:0,0:0:0
48,96,34997,1,2,0:0:0
200,36,35179,1,0,0:0:0
220,256,35361,1,2,0:0:0
220,256,35725,6,0,P|380:256,1,156.000005950928,2|0,0:0|0:0,0:0:0
424,328,36270,1,0,0:0:0
488,176,36452,2,0,P|332:176,1,156.000005950928,2|0,0:0|0:0,0:0:0
256,136,36997,1,0,0:0:0
192,192,37179,6,0,P|124:232,1,78.000002975464,2|0,0:0|0:0,0:0:0
48,192,37543,2,0,P|116:152,1,78.000002975464
48,272,37906,1,2,0:0:0
116,76,38088,1,0,0:0:0
256,244,38270,1,0,0:0:0
256,244,38634,21,2,0:0:0
320,304,38816,1,2,0:0:0
236,328,38997,2,0,P|196:316|176:292|156:256|180:200,1,156.000005950928,0|2,0:0|0:0,0:0:0
336,216,39725,1,0,0:0:0
336,216,40088,1,2,0:0:0
320,304,40270,1,2,0:0:0
256,244,40452,2,0,P|246:203|257:174|278:138|338:131,1,156.000005950928,0|2,0:0|0:0,0:0:0
404,272,41179,1,0,0:0:0
404,272,41543,6,0,P|476:348,1,104,4|0,0:0|0:0,0:0:0
488,244,41906,2,0,P|340:92,1,208,2|0,0:0|0:0,0:0:0
256,152,42452,1,0,0:0:0
220,256,42633,2,0,P|195:302|152:328,1,104,2|0,0:0|0:0,0:0:0
116,220,42997,5,0,0:0:0
152,124,43179,1,0,0:0:0
256,152,43361,1,2,0:0:0
220,256,43542,1,2,0:0:0
116,220,43724,2,0,P|71:185|52:137,1,104
84,44,44088,2,0,P|184:20|284:44,1,208,2|0,0:0|0:0,0:0:0
360,116,44633,5,0,0:0:0
420,256,44815,2,0,P|320:280|220:256,1,208,2|0,0:0|0:0,0:0:0
116,220,45361,1,0,0:0:0
160,116,45542,2,0,P|260:92|360:116,1,208,2|0,0:0|0:0,0:0:0
456,296,46088,1,0,0:0:0
456,88,46270,1,2,0:0:0
456,88,46452,1,2,0:0:0
356,116,46633,2,0,P|353:63|378:19,1,104
256,52,46997,2,0,P|217:87|167:96,1,104,2|0,0:0|0:0,0:0:0
64,276,47361,54,0,P|102:240|152:231,1,104
64,360,47724,1,2,0:0:0
0,216,47906,1,0,0:0:0
152,232,48088,6,0,P|190:196|240:187,1,104
152,316,48452,1,2,0:0:0
88,172,48633,1,0,0:0:0
240,188,48815,38,0,P|278:152|328:143,1,104
400,220,49179,2,0,P|361:255|311:264,1,104,2|0,0:0|0:0,0:0:0
220,88,49542,5,0,0:0:0
240,188,49724,1,2,0:0:0
296,28,49906,1,2,0:0:0
308,124,50088,1,0,0:0:0
136,132,50270,6,0,P|124:80|141:33,1,104
400,64,50633,2,0,P|428:116|424:160|400:204|362:227|324:232,1,208,2|0,0:0|0:0,0:0:0
220,88,51179,1,0,0:0:0
400,64,51361,2,0,P|438:28|488:19,1,104,2|2,0:0|0:0,0:0:0
396,320,51724,38,0,P|344:348|300:344|256:320|232:282|228:244,1,208,0|2,0:0|0:0,0:0:0
334,230,52270,1,0,0:0:0
140,316,52452,2,0,P|112:264|116:220|140:176|177:152|216:148,1,208,0|2,0:0|0:0,0:0:0
300,108,52997,1,2,0:0:0
300,108,53088,1,2,0:0:0
300,108,53179,2,0,P|312:158|294:206,1,104,4|0,0:0|0:0,0:0:0
220,60,53542,5,0,0:0:0
204,148,53724,1,0,0:0:0
304,12,53906,1,0,0:0:0
128,88,54088,1,0,0:0:0
296,208,54270,1,0,0:0:0
220,60,54452,1,0,0:0:0
204,244,54633,5,0,0:0:0
384,160,54815,1,0,0:0:0
384,160,54906,1,0,0:0:0
384,160,54997,1,0,0:0:0
204,148,55179,1,0,0:0:0
284,304,55361,1,0,0:0:0
300,108,55542,1,0,0:0:0
132,196,55724,1,0,0:0:0
380,260,55906,37,0,0:0:0
380,260,55997,1,0,0:0:0
380,260,56088,2,0,P|414:262|452:247|477:206|473:160,1,156.000005950928,4|0,0:0|0:0,0:0:0
428,76,56633,1,2,0:0:0
452,340,56815,2,0,P|380:360|304:340,1,156.000005950928,2|0,0:0|0:0,0:0:0
256,260,57361,1,2,0:0:0
256,260,57452,1,2,0:0:0
256,260,57542,2,0,P|180:240|108:260,1,156.000005950928,2|0,0:0|0:0,0:0:0
80,348,58088,1,2,0:0:0
128,164,58270,5,2,0:0:0
36,196,58452,1,0,0:0:0
216,128,58633,1,0,0:0:0
108,260,58815,5,2,0:0:0
108,260,58906,1,2,0:0:0
108,260,58997,2,0,P|184:236,1,78.000002975464,2|0,0:0|0:0,0:0:0
256,260,59361,2,0,P|332:240,1,78.000002975464,0|2,0:0|0:0,0:0:0
312,148,59724,1,2,0:0:0
216,128,59906,2,0,P|64:168,1,156.000005950928,0|2,0:0|0:0,0:0:0
64,168,60361,1,2,0:0:0
64,168,60452,2,0,P|56:128|64:88,1,78.000002975464,2|0,0:0|0:0,0:0:0
240,16,60815,2,0,P|276:0,2,39.000001487732
148,48,61179,37,8,0:0:0
160,140,61361,1,8,0:0:0
172,232,61542,1,8,0:0:0
184,324,61724,1,8,0:0:0
64,168,61906,6,0,P|146:108|241:136,1,208,4|0,0:0|0:0,0:0:0
172,232,62997,1,0,0:0:0
76,272,63361,1,0,0:0:0
160,332,63724,1,0,0:0:0
256,288,64088,1,0,0:0:0
264,192,64452,1,0,0:0:0
180,120,64815,5,8,0:3:0
80,116,64997,2,0,P|76:70|100:29|139:14|173:16,1,156.000005950928,8|0,0:3|0:0,0:0:0
172,16,65452,1,8,0:0:0
172,16,65542,2,0,P|208:48|248:52,1,78.000002975464,8|0,0:0|0:0,0:0:0
408,36,65906,1,2,0:0:0
328,128,66088,1,0,0:0:0
292,156,66179,1,0,0:0:0
256,192,66270,1,4,0:0:0
256,192,67724,37,4,0:0:0
192,112,67906,1,0,0:0:0
296,92,68088,2,0,P|348:118|370:156|376:206|358:247|330:273,1,208,8|0,0:0|0:0,0:0:0
256,192,68633,1,0,0:0:0
296,92,68815,2,0,P|336:64|388:76,1,104,8|0,0:0|0:0,0:0:0
256,192,69179,5,0,0:0:0
192,112,69361,1,0,0:0:0
296,92,69542,1,8,0:0:0
160,204,69724,1,0,0:0:0
160,204,70088,5,0,0:0:0
228,20,70270,1,8,0:0:0
192,112,70452,37,0,0:0:0
192,112,70542,1,0,0:0:0
192,112,70633,2,0,P|144:80|128:36,1,104
256,192,70997,2,0,P|249:250|220:284|175:306|131:303|97:286,1,208,8|0,0:0|0:0,0:0:0
56,200,71542,1,0,0:0:0
80,384,71724,2,0,P|32:360|12:312,1,104,8|0,0:0|0:0,0:0:0
160,204,72088,5,0,0:0:0
108,292,72270,1,0,0:3:0
112,116,72452,1,8,0:0:0
56,200,72633,1,8,0:0:0
204,292,72997,5,12,0:0:0
56,200,73179,1,12,0:0:0
108,292,73361,37,0,0:0:0
108,292,73452,1,0,0:0:0
108,292,73542,2,0,P|160:200,1,104
212,120,73906,1,8,0:0:0
204,292,74088,1,0,0:0:0
204,292,74179,1,0,0:0:0
204,292,74270,2,0,P|252:200,1,104
176,40,74633,1,8,0:0:0
252,200,74997,5,0,0:0:0
176,40,75179,1,0,0:0:0
176,40,75361,1,8,0:0:0
252,200,75724,5,0,0:0:0
348,240,75906,1,0,0:0:0
360,272,75997,1,0,0:0:0
352,308,76088,1,8,0:0:0
256,352,76270,1,0,0:0:0
212,120,76452,37,4,0:0:0
252,200,76633,1,0,0:0:0
180,276,76815,2,0,P|156:324,2,52,8|0|0,0:0|0:0|0:0,0:0:0
244,56,77179,5,4,0:0:0
252,200,77361,1,0,0:0:0
112,252,77542,2,0,P|72:284,2,52,8|0|0,0:0|0:0|0:0,0:0:0
312,32,77906,5,4,0:0:0
252,200,78088,1,0,0:0:0
48,208,78270,2,0,P|-4:232,2,52,8|0|0,0:0|0:0|0:0,0:0:0
376,60,78633,37,4,0:0:0
356,88,78724,1,8,0:0:0
324,104,78815,1,8,0:0:0
288,112,78906,1,8,0:0:0
300,148,78997,1,8,0:0:0
320,180,79088,1,8,0:0:0
320,216,79179,1,8,0:0:0
304,248,79270,1,8,0:0:0
276,272,79361,6,0,P|224:268|188:232,1,104,4|0,0:0|0:0,0:0:0
184,72,79724,2,0,P|214:113|209:165,1,104,8|0,0:0|0:0,0:0:0
124,144,80088,2,0,P|93:102|98:50,1,104
16,152,80452,2,0,P|46:193|41:245,1,104,8|0,0:0|0:0,0:0:0
148,356,80815,5,0,0:0:0
160,260,81179,37,8,0:0:0
172,164,81542,5,0,0:0:0
184,72,81906,5,8,0:0:0
272,32,82270,37,0,0:0:0
260,128,82452,1,0,0:0:0
312,44,82633,1,8,0:0:0
300,140,82815,1,0,0:0:0
348,56,82997,1,0,0:0:0
336,152,83179,1,0,0:0:0
388,68,83361,1,8,0:0:0
376,164,83542,1,0,0:0:0
460,92,83724,6,0,P|432:300,1,208,0|8,0:0|0:0,0:0:0
324,248,84270,1,0,0:0:0
512,272,84452,2,0,P|500:376,1,104,0|12,0:0|0:0,0:0:0
376,164,84815,1,12,0:0:0
320,348,84997,5,0,0:0:0
320,348,85088,1,0,0:0:0
320,348,85179,2,0,P|248:312,1,78.000002975464
376,164,85724,1,0,0:0:0
324,248,85906,2,0,P|184:176,1,156.000005950928,8|0,0:0|0:0,0:0:0
256,112,86452,1,0,0:0:0
200,288,86633,38,0,P|128:248,1,78.000002975464
256,112,87179,1,0,0:0:0
184,176,87361,2,0,P|44:104,1,156.000005950928,8|0,0:0|0:0,0:0:0
124,52,87906,1,0,0:0:0
124,52,87997,1,0,0:0:0
124,52,88088,1,4,0:0:0
48,184,88270,6,0,P|44:28,1,156.000005950928
256,112,88815,1,8,0:0:0
256,112,89179,2,0,P|220:92,2,39.000001487732
340,156,89542,5,0,0:0:0
428,192,89724,2,0,P|460:360,1,156.000005950928
256,208,90270,1,8,0:0:0
256,208,90633,1,8,0:0:0
256,304,90815,37,8,0:0:0
256,304,90906,1,8,0:0:0
256,304,90997,2,0,P|340:240,1,104,4|0,0:0|0:0,0:0:0
256,208,91542,1,0,0:0:0
352,328,91724,2,0,P|416:276,1,78.000002975464
184,256,92088,2,0,P|96:316,1,104
256,304,92452,5,0,0:0:0
180,168,92633,1,0,0:0:0
180,348,92815,1,0,0:0:0
320,256,92997,1,0,0:0:0
256,116,93179,1,0,0:0:0
92,212,93361,1,0,0:0:0
256,208,93542,1,0,0:0:0
256,32,93724,1,0,0:0:0
320,256,93906,6,0,P|384:340,1,104,4|0,0:0|0:0,0:0:0
448,256,94270,1,0,0:0:0
180,168,94452,38,0,P|188:280,1,104,4|0,0:0|0:0,0:0:0
264,344,94815,1,0,0:0:0
56,44,94997,6,0,P|44:148,1,104,4|0,0:0|0:0,0:0:0
180,348,95361,5,4,0:0:0
172,88,95542,1,0,0:0:0
92,212,95724,1,0,0:0:0
320,160,95906,1,4,0:0:0
320,160,96270,2,0,P|408:232,1,104
256,32,96815,1,4,0:0:0
256,304,102633,5,4,0:0:0
328,108,102997,1,2,0:0:0
256,304,103361,1,0,0:0:0
292,204,103542,1,0,0:0:0
328,108,103724,1,2,0:0:0
256,304,104088,5,0,0:0:0
292,204,104270,1,0,0:0:0
392,240,104452,1,2,0:0:0
352,336,104633,1,2,0:0:0
256,304,104815,2,0,P|160:264,2,104,0|0|2,0:0|0:0|0:0,0:0:0
32,192,105542,6,0,P|90:195|128:172|158:132|163:88|156:60,1,208,0|2,0:3|0:0,0:0:0
156,64,106088,1,0,0:0:0
280,192,106270,2,0,P|221:195|183:172|153:132|148:88|156:60,1,208,0|2,0:3|0:0,0:0:0
156,64,106815,1,0,0:0:0
32,192,106997,6,0,P|60:152|56:96,1,104
280,192,107361,2,0,P|252:152|256:96,1,104,2|2,0:0|0:0,0:0:0
156,64,107724,1,0,0:0:0
160,168,107906,2,0,P|164:272,1,104,0|2,0:0|0:0,0:0:0
420,336,108452,6,0,P|412:232,1,104,4|0,0:0|0:0,0:0:0
488,72,108815,2,0,P|504:280,1,208,2|0,0:0|0:0,0:0:0
332,296,109361,1,0,0:0:0
396,24,109542,2,0,P|412:232,1,208,2|0,0:0|0:0,0:0:0
216,256,110088,1,0,0:0:0
332,296,110270,1,2,0:0:0
248,356,110452,1,0,0:0:0
196,152,110633,6,0,P|248:152|288:184,1,104
332,296,110997,1,2,0:0:0
332,296,111361,5,0,0:0:0
216,256,111542,1,0,0:0:0
196,152,111724,2,0,P|248:152|288:184,1,104,2|0,0:0|0:0,0:0:0
124,220,112088,5,0,0:0:0
176,56,112270,1,0,0:0:0
124,220,112452,2,0,P|98:174|105:124,1,104,2|0,0:0|0:0,0:0:0
368,124,112815,5,2,0:0:0
368,124,112906,1,0,0:0:0
368,124,112997,1,0,0:0:0
216,256,113179,1,2,0:0:0
280,76,113361,1,2,0:0:0
280,76,113452,1,2,0:0:0
280,76,113542,1,0,0:0:0
332,296,113724,1,0,0:0:0
280,76,113906,2,0,P|304:180,1,104,2|0,0:0|0:0,0:0:0
132,316,114270,6,0,P|104:360,2,52,4|0|0,0:0|0:0|0:0,0:0:0
216,256,114633,1,2,0:0:0
124,220,114815,1,0,0:0:0
216,256,114997,2,0,P|312:284|420:248,1,208,0|2,0:0|0:0,0:0:0
456,348,115542,1,0,0:0:0
484,176,115724,6,0,P|488:124,2,52
380,160,116088,1,2,0:0:0
276,144,116270,1,2,0:0:0
276,144,116361,1,2,0:0:0
276,144,116452,1,0,0:0:0
340,64,116633,1,0,0:0:0
412,252,116815,2,0,P|456:348,1,104,2|0,0:0|0:0,0:0:0
216,256,117179,6,0,P|188:300,2,52
276,144,117542,1,2,0:0:0
316,236,117724,1,0,0:0:0
216,256,117906,2,0,P|148:176,2,104,0|0|2,0:0|0:0|0:0,0:0:0
284,336,118452,1,0,0:0:0
108,280,118633,5,0,0:0:0
108,280,118724,1,0,0:0:0
108,280,118815,1,0,0:0:0
284,336,118997,1,2,0:0:0
48,200,119179,1,2,0:0:0
48,200,119270,1,2,0:0:0
48,200,119361,1,0,0:0:0
180,352,119542,1,0,0:0:0
244,152,119724,1,2,0:0:0
216,256,119906,1,0,0:0:0
116,76,120088,5,4,0:0:0
132,148,120452,1,0,0:0:0
148,220,120815,1,2,0:0:0
216,256,121179,5,2,0:0:0
244,152,121361,1,2,0:0:0
320,224,121542,1,0,0:0:0
284,284,121906,5,0,0:0:0
248,344,122270,1,2,0:0:0
180,316,122633,5,2,0:0:0
148,220,122815,1,2,0:0:0
244,152,122997,2,0,P|290:117|334:114|382:131|410:164|420:192,1,208,4|0,0:0|0:0,0:0:0
320,224,123542,1,0,0:0:0
244,152,123724,6,0,P|236:94|256:55|294:21|337:14|366:19,1,208,2|0,0:0|0:0,0:0:0
440,92,124270,1,0,0:0:0
244,152,124452,6,0,P|200:128|184:80,1,104,2|0,0:0|0:0,0:0:0
320,224,124815,2,0,P|364:248|380:296,1,104
244,152,125179,2,0,P|260:40,1,104,2|0,0:0|0:0,0:0:0
320,224,125542,2,0,P|308:328,1,104,2|2,0:0|0:0,0:0:0
336,124,125906,6,0,P|393:116|433:137|465:175|473:218|468:247,1,208,4|0,0:0|0:0,0:3:0
420,336,126452,1,0,0:0:0
200,320,126633,1,0,0:0:0
320,224,126815,1,0,0:0:0
308,328,126997,1,0,0:0:0
244,152,127179,1,0,0:0:0
364,284,127361,5,0,0:0:0
128,312,127542,1,0,0:0:0
248,80,127724,1,0,0:0:0
256,272,127906,1,0,0:0:0
184,112,128088,5,0,0:0:0
392,216,128270,1,0,0:0:0
168,252,128452,1,0,0:0:0
252,8,128633,1,0,0:0:0
464,208,128815,6,0,P|445:162|396:144,1,104,4|0,0:0|0:0,0:0:0
256,272,129542,1,2,0:0:0
168,252,129724,1,0,0:0:0
364,284,130088,5,2,0:0:0
364,284,130179,1,2,0:0:0
364,284,130270,1,0,0:0:0
316,208,130452,1,0,0:0:0
300,348,130633,1,2,0:0:0
400,144,130997,1,0,0:0:0
256,272,131361,1,2,0:0:0
232,188,131542,5,2,0:0:0
232,188,131633,1,2,0:0:0
232,188,131724,2,0,P|256:140|300:120,1,104
192,336,132452,1,2,0:0:0
192,336,132633,1,0,0:0:0
364,56,132997,5,2,0:0:0
364,56,133088,1,2,0:0:0
364,56,133179,1,0,0:0:0
400,144,133361,1,0,0:0:0
316,208,133542,1,2,0:0:0
232,188,133724,2,0,P|192:228,1,52
124,280,134088,5,2,0:0:0
112,248,134179,1,2,0:0:0
100,216,134270,1,2,0:0:0
224,288,134452,1,0,0:0:0
256,40,134633,1,4,0:0:0
256,192,137542,5,4,0:0:0
312,96,138997,5,4,0:0:0
256,288,139361,1,0,0:3:0
284,196,139542,1,4,0:0:0
220,380,139906,1,0,0:0:0
220,380,139997,1,0,0:0:0
220,380,140088,1,4,0:0:0
156,300,140270,1,0,0:0:0
328,368,140452,6,0,P|360:328|364:276,1,104,4|0,0:0|0:0,0:0:0
220,116,140815,2,0,P|188:156|184:208,1,104,8|0,0:0|0:0,0:0:0
396,168,141179,1,0,0:0:0
288,192,141361,1,0,0:0:0
504,200,141542,2,0,P|511:149|489:102,1,104,8|0,0:0|0:0,0:0:0
288,192,141906,5,0,0:0:0
396,168,142088,1,0,0:0:0
324,88,142270,1,8,0:0:0
364,276,142452,1,0,0:0:0
364,276,142815,1,8,0:0:0
288,192,142997,1,8,0:0:0
180,160,143179,1,0,0:0:0
76,172,143361,6,0,P|28:156|0:112,1,104
180,160,143724,2,0,P|213:197|215:249,1,104,8|0,0:0|0:0,0:0:0
76,172,144088,1,0,0:0:0
116,76,144270,1,0,0:0:0
220,56,144452,2,0,P|270:63|305:101,1,104,8|0,0:0|0:0,0:0:0
76,172,144815,5,0,0:0:0
16,88,144997,1,0,0:0:0
116,76,145179,1,8,0:0:0
92,272,145361,1,0,0:0:0
92,272,145724,1,12,0:0:0
116,76,145906,1,12,0:0:0
92,272,146088,5,0,0:0:0
92,272,146179,1,0,0:0:0
92,272,146270,2,0,P|104:168,1,104,4|0,0:0|0:0,0:0:0
208,192,146633,2,0,P|200:296,1,104,8|0,0:0|0:0,0:0:0
124,364,146997,1,0,0:0:0
20,348,147179,1,0,0:0:0
104,168,147361,2,0,P|208:192,1,104,8|0,0:0|0:0,0:0:0
16,208,147724,5,0,0:0:0
16,208,147906,1,0,0:0:0
256,316,148088,1,8,0:0:0
256,316,148270,1,0,0:0:0
504,232,148452,6,0,P|480:336,1,104,4|0,0:0|0:0,0:0:0
480,332,148724,1,0,0:0:0
480,332,148815,1,0,0:0:0
364,344,148997,1,0,0:0:0
416,80,149179,5,4,0:0:0
380,272,149542,1,8,0:0:0
384,256,149633,1,0,0:0:0
388,240,149724,1,0,0:0:0
392,224,149815,1,0,0:0:0
396,208,149906,1,4,0:0:0
320,136,150088,1,0,0:0:0
288,236,150270,2,0,P|260:336,1,104,8|0,0:0|0:0,0:0:0
256,36,150633,5,4,0:0:0
184,328,150997,1,8,0:0:0
188,312,151088,1,0,0:0:0
192,296,151179,1,0,0:0:0
196,280,151270,1,0,0:0:0
200,264,151361,1,4,0:0:0
224,164,151542,1,0,0:0:0
256,36,151724,2,0,P|312:0,2,52,8|0|0,0:0|0:0|0:0,0:0:0
172,88,152088,6,0,P|84:148,1,104,4|0,0:0|0:0,0:0:0
160,128,152452,2,0,P|72:188,1,104,8|0,0:0|0:0,0:0:0
148,172,152815,2,0,P|60:232,1,104
140,212,153179,2,0,P|52:272,1,104,8|0,0:0|0:0,0:0:0
36,88,153542,5,0,0:0:0
124,32,153724,1,0,0:0:0
228,32,153906,1,8,0:0:0
316,88,154088,1,0,0:0:0
316,192,154270,2,0,P|256:276,1,104
400,88,154633,1,8,0:0:0
400,88,154997,6,0,P|488:148,1,104
412,128,155361,2,0,P|500:188,1,104,8|0,0:0|0:0,0:0:0
424,172,155724,2,0,P|512:232,1,104
432,212,156088,2,0,P|520:272,1,104,8|0,0:0|0:0,0:0:0
448,348,156452,5,0,0:0:0
348,308,156633,1,0,0:0:0
256,348,156815,1,8,0:0:0
160,308,156997,1,0,0:0:0
204,216,157179,2,0,P|256:208|308:216,1,104,0|12,0:0|0:0,0:0:0
64,348,157542,1,12,0:0:0
64,348,157906,5,4,0:0:0
84,256,158088,2,0,P|84:96,1,156.000005950928
84,100,158542,1,0,0:0:0
84,100,158633,1,0,0:0:0
344,192,158997,2,0,P|424:192,1,78.000002975464
380,108,159361,5,0,0:0:0
288,120,159542,2,0,P|243:153|243:194|248:225|277:255,1,156.000005950928
276,256,159997,1,0,0:0:0
276,256,160088,1,8,0:0:0
320,28,160452,1,0,0:0:0
228,40,160633,1,0,0:0:0
380,108,160815,5,4,0:0:0
288,120,160997,2,0,P|145:183,1,156.000005950928
148,184,161452,1,0,0:0:0
148,184,161542,1,8,0:0:0
380,328,161906,2,0,P|449:287,1,78.000002975464
488,192,162270,5,0,0:0:0
488,192,162452,1,0,0:0:0
36,192,162815,1,0,0:0:0
36,192,162906,1,0,0:0:0
36,192,162997,1,8,0:0:0
248,56,163361,1,8,0:0:0
328,92,163542,5,8,0:0:0
328,92,163633,1,8,0:0:0
328,92,163724,2,0,P|328:152,1,52,4|0,0:0|0:0,0:0:0
408,192,164088,2,0,P|408:112,1,78.000002975464
488,192,164452,2,0,P|488:296,1,104
408,384,164815,2,0,P|408:280,1,104
188,348,165179,5,0,0:0:0
256,272,165361,1,0,0:0:0
168,260,165542,1,0,0:0:0
276,360,165724,1,0,0:0:0
224,188,165906,5,0,0:0:0
344,296,166088,1,0,0:0:0
100,320,166270,1,0,0:0:0
324,196,166452,1,0,0:0:0
188,348,166633,5,4,0:0:0
188,348,166724,1,0,0:0:0
188,348,166815,1,0,0:0:0
188,348,166997,1,0,0:0:0
280,108,167179,5,4,0:0:0
280,108,167270,1,0,0:0:0
280,108,167361,1,0,0:0:0
280,108,167542,1,0,0:0:0
432,352,167724,6,0,P|340:296,1,104,4|0,0:0|0:0,0:0:0
456,232,168088,1,4,0:0:0
276,360,168270,1,0,0:0:0
128,192,168452,1,0,0:0:0
256,36,168633,1,4,0:0:0
256,36,168997,2,0,P|256:152,1,104
60,56,169542,5,4,0:0:0
52,144,169724,2,0,P|24:248,1,104
140,108,170088,1,4,0:0:0
148,216,170270,2,0,P|156:320,1,104
240,152,170633,1,4,0:0:0
272,296,170815,2,0,P|348:376,1,104
352,208,171179,1,4,0:0:0
416,296,171361,2,0,P|516:344,1,104
336,104,171724,5,0,0:0:0
340,120,171815,1,0,0:0:0
344,136,171906,1,0,0:0:0
256,80,172088,1,0,0:0:0
252,96,172179,1,0,0:0:0
248,112,172270,1,0,0:0:0
428,144,172452,5,4,0:0:0
352,208,172633,2,0,P|344:320,1,104
260,168,172997,1,4,0:0:0
244,280,173179,2,0,P|196:392,1,104
164,208,173542,1,4,0:0:0
108,316,173724,2,0,P|24:384,1,104
176,96,174088,1,4,0:0:0
52,216,174270,2,0,P|20:112,1,104
256,192,174633,5,0,0:0:0
256,192,174724,1,0,0:0:0
256,192,174815,1,0,0:0:0
256,192,174906,1,0,0:0:0
256,192,174997,1,0,0:0:0
256,192,175088,1,0,0:0:0
256,192,175179,1,0,0:0:0
256,192,175270,1,0,0:0:0
256,192,175361,1,4,0:0:0
256,92,178088,5,0,0:0:0
168,280,178270,1,4,0:0:0
344,280,178452,1,4,0:0:0
256,192,181179,5,4,0:0:0
320,124,181361,2,0,P|400:136|476:124,1,156.000005950928
472,124,181815,1,0,0:0:0
472,124,181906,2,0,P|472:280,1,156.000005950928
256,192,182633,5,0,0:0:0
192,260,182815,2,0,P|112:248|36:260,1,156.000005950928
40,260,183270,1,0,0:0:0
40,260,183361,2,0,P|40:104,1,156.000005950928
256,192,184088,5,4,0:0:0
256,192,184270,2,0,P|280:260|344:312,1,156.000005950928
344,312,184724,1,0,0:0:0
344,312,184815,2,0,P|408:260|432:192,1,156.000005950928
120,192,185542,5,0,0:0:0
120,36,185724,1,0,0:0:0
120,352,186088,1,0,0:0:0
120,352,186179,1,0,0:0:0
120,352,186270,2,0,P|120:264,1,78.000002975464
200,160,186633,2,0,P|200:244,1,78.000002975464
480,232,186997,6,0,P|456:304|392:356,1,156.000005950928,4|0,0:0|0:0,0:0:0
32,152,187724,2,0,P|56:80|120:28,1,156.000005950928,4|0,0:0|0:0,0:0:0
32,232,188452,2,0,P|56:304|120:356,1,156.000005950928,4|0,0:0|0:0,0:0:0
480,152,189179,2,0,P|456:80|392:28,1,156.000005950928,4|0,0:0|0:0,0:0:0
256,192,189906,6,0,P|208:256,1,78.000002975464,4|0,0:0|0:0,0:0:0
312,112,190452,5,0,0:0:0
220,104,190633,2,0,P|168:168,1,78.000002975464,4|0,0:0|0:0,0:0:0
268,32,191179,5,0,0:0:0
180,24,191361,2,0,P|128:84,1,78.000002975464,4|0,0:0|0:0,0:0:0
356,32,191724,2,0,P|436:32,1,78.000002975464
256,192,192088,1,4,0:0:0
92,16,192452,1,0,0:0:0
60,348,192815,5,4,0:0:0
60,348,192997,1,0,0:0:0
60,348,193179,1,0,0:0:0
60,348,193361,1,0,0:0:0
112,268,193542,5,0,0:0:0
112,268,193724,1,0,0:0:0
112,268,193906,1,0,0:0:0
112,268,194088,1,0,0:0:0
164,192,194270,5,0,0:0:0
164,192,194452,1,0,0:0:0
164,192,194633,1,0,0:0:0
164,192,194815,1,0,0:0:0
256,192,194997,2,0,P|360:48,1,156.000005950928
336,324,195724,6,0,P|352:288|396:268,1,78.000002975464,4|0,0:0|0:0,0:0:0
472,120,196088,2,0,P|468:156|444:192,1,78.000002975464
316,108,196452,2,0,P|315:67|333:31,1,78.000002975464
208,236,196815,2,0,P|208:276|190:312,1,78.000002975464
96,72,197179,5,0,0:0:0
96,72,197361,1,0,0:0:0
96,72,197542,1,0,0:0:0
96,72,197724,1,0,0:0:0
336,324,197906,5,0,0:0:0
336,324,198088,1,0,0:0:0
336,324,198270,1,0,0:0:0
336,324,198452,1,0,0:0:0
332,36,198633,5,4,0:0:0
332,36,198815,1,0,0:0:0
208,236,198997,5,0,0:0:0
208,236,199179,1,0,0:0:0
32,32,199361,5,4,0:0:0
32,32,199542,1,0,0:0:0
192,308,199724,5,0,0:0:0
192,308,199906,1,0,0:0:0
256,84,200088,5,4,0:0:0
176,140,200270,1,0,0:0:0
168,44,200452,1,0,0:0:0
272,196,200633,1,0,0:0:0
84,100,200815,5,4,0:0:0
364,72,200997,1,0,0:0:0
184,244,201179,1,0,0:0:0
300,0,201361,1,0,0:0:0
280,320,201542,5,4,0:0:0
280,320,201633,1,0,0:0:0
280,320,201724,1,0,0:0:0
280,320,201815,1,0,0:0:0
280,320,201906,1,0,0:0:0
280,320,201997,1,0,0:0:0
280,320,202088,1,0,0:0:0
280,320,202179,1,0,0:0:0
280,320,202270,5,4,0:0:0
184,244,202633,1,8,0:0:0
96,176,202997,1,0,0:0:0
12,100,203361,1,8,0:0:0
192,140,203724,6,0,P|320:232,1,156.000005950928,0|8,0:0|0:0,0:0:0
168,360,204270,2,0,P|40:264,1,156.000005950928
192,52,204815,1,8,0:0:0
192,52,205179,6,0,P|232:208,1,156.000005950928,0|8,0:0|0:0,0:0:0
80,184,205724,2,0,P|38:33,1,156.000005950928
324,200,206270,5,8,0:0:0
296,116,206452,1,0,0:0:0
272,32,206633,1,0,0:0:0
448,256,206997,1,8,0:0:0
356,284,207179,1,0,0:0:0
264,312,207361,2,0,P|112:360,1,156.000005950928,0|8,0:0|0:0,0:0:0
412,156,208088,6,0,P|456:92,1,78.000002975464,4|0,0:0|0:0,0:0:0
448,256,208452,1,8,0:0:0
272,32,208815,1,0,0:0:0
216,104,208997,2,0,P|144:96|72:56,2,156.000005950928
216,104,209815,1,0,0:0:0
216,104,209906,2,0,P|228:212,1,78.000002975464,8|0,0:0|0:0,0:0:0
256,360,210270,1,0,0:0:0
216,104,210997,5,2,0:0:0
276,40,211179,1,0,0:0:0
256,192,211542,5,2,0:0:0
256,192,211633,1,0,0:0:0
256,192,211724,1,2,0:0:0
216,104,211906,1,0,0:0:0
184,16,212088,1,10,0:0:0
256,288,212452,5,2,0:0:0
216,104,212633,1,0,0:0:0
216,104,213179,5,2,0:0:0
256,288,213361,1,0,0:0:0
276,40,213906,6,0,P|340:92,1,78.000002975464,6|0,0:0|0:0,0:0:0
392,156,214270,1,8,0:0:0
336,220,214452,2,0,P|275:269,1,78.000002975464,0|2,0:0|0:0,0:0:0
276,152,214815,1,0,0:0:0
388,40,214997,6,0,P|452:92,1,78.000002975464,8|0,0:0|0:0,0:0:0
504,156,215361,1,2,0:0:0
448,220,215542,2,0,P|387:269,1,78.000002975464,0|8,0:0|0:0,0:0:0
392,156,215906,1,0,0:0:0
484,300,216088,6,0,P|420:352,1,78.000002975464,2|0,0:0|0:0,0:0:0
388,40,216452,2,0,P|452:92,1,78.000002975464,10|0,0:0|0:0,0:0:0
208,40,216815,5,2,0:0:0
256,192,217179,5,0,0:0:0
208,40,217361,1,2,0:0:0
340,272,217724,5,0,0:0:0
156,140,217906,1,2,0:0:0
172,272,218270,5,0,0:0:0
308,92,218452,1,2,0:0:0
256,352,218815,5,0,0:0:0
156,140,218997,1,2,0:0:0
340,272,219179,1,0,0:0:0
96,348,219361,2,0,P|72:272,1,78.000002975464,10|2,0:0|0:0,0:0:0
308,92,219724,5,12,0:0:0
308,92,219815,1,0,0:0:0
308,92,219906,1,0,0:0:0
308,92,220088,1,10,0:0:0
172,272,220270,1,12,0:0:0
172,272,220361,1,0,0:0:0
172,272,220452,1,0,0:0:0
172,272,220633,1,2,0:0:0
204,92,220815,5,12,0:0:0
340,272,220997,1,2,0:0:0
404,92,221179,5,12,0:0:0
404,92,221270,1,0,0:0:0
404,92,221361,1,0,0:0:0
404,92,221542,1,2,0:0:0
256,272,221724,1,12,0:0:0
256,272,221815,1,0,0:0:0
256,272,221906,1,0,0:0:0
256,272,222088,1,2,0:0:0
308,92,222270,5,12,0:0:0
428,272,222452,1,2,0:0:0
404,92,222633,5,12,0:0:0
404,92,222724,1,0,0:0:0
404,92,222815,1,0,0:0:0
340,272,222997,1,8,0:0:0
308,92,223179,1,2,0:0:0
428,272,223542,5,0,0:0:0
352,16,223724,1,10,0:0:0
380,184,224088,5,0,0:0:0
460,20,224270,1,2,0:0:0
380,360,224633,5,0,0:0:0
304,184,224815,2,0,P|244:132,1,78.000002975464,2|0,0:0|0:0,0:0:0
448,184,225179,2,0,P|508:236,1,78.000002975464,10|0,0:0|0:0,0:0:0
256,356,225542,5,12,0:0:0
256,192,225724,1,0,0:0:0
200,272,225906,1,0,0:0:0
256,96,226088,1,0,0:0:0
312,272,226270,5,0,0:0:0
168,144,226452,1,0,0:0:0
104,272,226633,1,0,0:0:0
168,48,226815,1,0,0:0:0
256,192,226997,5,0,0:0:0
80,96,227179,1,0,0:0:0
256,0,227361,1,0,0:0:0
168,144,227542,1,0,0:0:0
356,96,227724,5,0,0:0:0
168,48,227906,1,0,0:0:0
356,192,228088,1,0,0:0:0
356,0,228270,1,0,0:0:0
312,272,228452,5,4,0:0:0
140,264,240088,5,4,0:0:0
196,208,240452,1,0,0:0:0
252,156,240815,1,8,0:0:0
252,156,241179,5,8,0:0:0
268,232,241361,1,8,0:0:0
268,232,241452,1,8,0:0:0
268,232,241542,2,0,P|280:312,1,78.000002975464,0|8,0:0|0:0,0:0:0
328,180,241906,2,0,P|316:100,1,78.000002975464
352,300,242270,1,8,0:0:0
252,156,242452,1,8,0:0:0
208,324,242633,1,8,0:0:0
400,208,242815,5,8,0:0:0
400,208,242906,1,8,0:0:0
400,208,242997,1,0,0:0:0
328,180,243361,1,0,0:0:0
252,156,243724,1,8,0:0:0
252,156,244088,5,8,0:0:0
308,104,244270,1,8,0:0:0
308,104,244361,1,8,0:0:0
308,104,244452,1,0,0:0:0
268,232,244633,1,8,0:0:0
236,84,244815,2,0,P|228:4,1,78.000002975464,4|0,0:0|0:0,0:0:0
384,132,245179,5,8,0:0:0
420,280,245361,1,8,0:0:0
400,208,245542,1,8,0:0:0
444,352,245724,1,8,0:0:0
456,156,245906,6,0,P|488:256,2,104,0|2|0,0:0|0:0|0:0,0:0:0
328,296,246997,2,0,P|320:348,1,52,2|2,0:0|0:0,0:0:0
256,316,247361,2,0,P|212:344,1,52
192,272,247724,2,0,P|80:268,2,104,2|0|2,0:0|0:0|0:0,0:0:0
256,192,248633,1,2,0:0:0
256,192,248815,12,0,250997,0:0:0
256,192,251179,5,0,0:0:0
256,192,251724,1,4,0:0:0
448,152,252452,6,0,P|480:188|488:244,1,104
404,332,252815,2,0,P|372:296|364:240,1,104,2|0,0:0|0:0,0:0:0
448,68,253179,1,0,0:0:0
368,160,253361,1,0,0:0:0
488,240,253542,1,2,0:0:0
368,80,253724,1,0,0:0:0
368,80,254088,1,2,0:0:0
272,120,254270,1,2,0:0:0
232,216,254452,5,8,0:0:0
232,216,254542,1,8,0:0:0
232,216,254633,2,0,P|136:192|68:112,1,208,4|2,0:0|0:0,0:0:0
232,216,255361,1,0,0:0:0
316,276,255542,1,0,0:0:0
284,376,255724,1,2,0:0:0
272,120,256088,6,0,P|220:128|176:104,1,104
344,56,256452,2,0,P|369:102|361:151,1,104,2|0,0:0|0:0,0:0:0
260,32,256815,1,0,0:0:0
436,192,256997,1,2,0:0:0
436,192,257088,1,2,0:0:0
436,192,257179,1,0,0:0:0
348,332,257361,5,8,0:0:0
348,332,257452,1,8,0:0:0
348,332,257542,2,0,P|136:352,1,208,4|2,0:0|0:0,0:0:0
84,264,258088,1,0,0:0:0
116,164,258270,5,8,0:0:0
124,152,258361,1,8,0:0:0
132,140,258452,1,8,0:0:0
140,128,258542,1,8,0:0:0
148,116,258633,1,8,0:0:0
156,104,258724,1,8,0:0:0
164,92,258815,1,8,0:0:0
172,80,258906,1,8,0:0:0
240,84,258997,5,8,0:0:0
256,92,259088,1,8,0:0:0
272,100,259179,1,8,0:0:0
288,108,259270,1,8,0:0:0
304,116,259361,1,8,0:0:0
320,124,259452,1,8,0:0:0
336,132,259542,1,8,0:0:0
352,140,259633,1,8,0:0:0
416,172,259724,6,0,P|444:128,7,52,8|8|8|8|8|8|8|8,0:0|0:0|0:0|0:0|0:0|0:0|0:0|0:0,0:0:0
220,348,260452,5,4,0:0:0
196,248,260633,1,8,0:0:0
192,224,260724,1,8,0:0:0
188,200,260815,1,8,0:0:0
220,348,260997,5,4,0:0:0
268,256,261179,1,8,0:0:0
276,233,261270,1,8,0:0:0
285,210,261361,1,8,0:0:0
220,348,261542,5,4,0:0:0
236,144,261724,1,8,0:0:0
240,120,261815,1,8,0:0:0
244,96,261906,1,8,0:0:0
220,348,262088,5,4,0:0:0
256,28,262270,1,8,0:0:0
256,28,262361,1,8,0:0:0
256,28,262452,1,8,0:0:0
256,28,262542,1,8,0:0:0
256,28,262633,1,8,0:0:0
256,28,262724,1,8,0:0:0
256,28,262815,1,8,0:0:0
256,28,262906,1,8,0:0:0
256,28,262997,2,0,P|360:28,1,104
184,28,263361,5,4,0:0:0
420,324,263724,5,2,0:0:0
336,332,264452,5,2,0:0:0
252,344,265179,5,2,0:0:0
168,348,265906,5,2,0:0:0
128,276,266088,1,2,0:0:0
96,200,266270,1,0,0:0:0
256,36,266633,5,2,0:0:0
340,48,267361,5,2,0:0:0
424,60,268088,5,2,0:0:0
508,72,268815,5,2,0:0:0
488,152,268997,1,2,0:0:0
468,232,269179,1,4,0:0:0
256,336,269542,5,2,0:0:0
332,300,270270,5,2,0:0:0
408,268,270997,5,2,0:0:0
340,220,271724,5,2,0:0:0
264,260,271906,1,2,0:0:0
272,184,272088,1,4,0:0:0
108,332,272452,5,2,0:0:0
84,252,273179,5,2,0:0:0
56,172,273906,5,2,0:0:0
32,92,274633,5,2,0:0:0
256,192,274997,6,0,P|292:184|332:192,2,78.000002975464,6|0|0,0:0|0:0|0:0,0:0:0
256,192,275542,2,0,P|220:200|180:192,2,78.000002975464,2|0|0,0:0|0:0|0:0,0:0:0
256,112,276088,1,2,0:0:0
256,112,276179,1,2,0:0:0
256,112,276270,1,0,0:0:0
368,348,276452,6,0,P|420:284,1,78.000002975464,2|0,0:0|0:0,0:0:0
480,336,276815,1,0,0:0:0
356,240,276997,2,0,P|408:176,1,78.000002975464,2|0,0:0|0:0,0:0:0
468,228,277361,1,2,0:0:0
344,128,277542,1,2,0:0:0
344,128,277633,1,2,0:0:0
344,128,277724,1,2,0:0:0
52,328,277906,5,6,0:0:0
108,272,278088,1,0,0:0:0
160,216,278270,1,0,0:0:0
128,348,278452,1,2,0:0:0
128,348,278542,1,0,0:0:0
128,348,278633,1,0,0:0:0
36,256,278815,1,0,0:0:0
180,292,278997,2,0,P|235:234,1,78.000002975464,2|0,0:0|0:0,0:0:0
312,44,279361,5,2,0:0:0
368,96,279542,1,0,0:0:0
424,148,279724,1,0,0:0:0
292,120,279906,1,2,0:0:0
292,120,279997,1,0,0:0:0
292,120,280088,2,0,P|348:176,1,78.000002975464,0|2,0:0|0:0,0:0:0
384,24,280452,1,2,0:0:0
332,248,280633,1,2,0:0:0
440,72,280815,6,0,P|500:124,1,78.000002975464,6|0,0:0|0:0,0:0:0
404,224,281179,1,0,0:0:0
476,204,281361,2,0,P|512:276,1,78.000002975464,2|0,0:0|0:0,0:0:0
260,272,281724,1,0,0:0:0
348,176,281906,1,2,0:0:0
348,176,281997,1,2,0:0:0
348,176,282088,1,0,0:0:0
320,320,282270,6,0,P|304:400,2,78.000002975464,2|0|0,0:0|0:0|0:0,0:0:0
348,176,282815,1,2,0:0:0
388,300,282997,2,0,P|420:376,1,78.000002975464,0|2,0:0|0:0,0:0:0
276,196,283361,1,2,0:0:0
276,196,283452,1,2,0:0:0
276,196,283542,1,2,0:0:0
24,128,283724,6,0,P|72:192,1,78.000002975464,6|0,0:0|0:0,0:0:0
152,144,284088,1,0,0:0:0
240,92,284270,1,2,0:0:0
240,92,284361,1,0,0:0:0
240,92,284452,1,0,0:0:0
152,240,284633,1,0,0:0:0
152,44,284815,1,2,0:0:0
152,44,284906,1,0,0:0:0
152,44,284997,1,0,0:0:0
148,344,285179,6,0,P|68:388,2,78.000002975464,2|0|0,0:0|0:0|0:0,0:0:0
236,296,285724,1,2,0:0:0
236,296,285815,1,0,0:0:0
236,296,285906,1,0,0:0:0
152,144,286088,1,2,0:0:0
64,292,286270,1,2,0:0:0
64,292,286361,1,2,0:0:0
64,292,286452,1,2,0:0:0
320,296,286633,6,0,P|336:216|332:140,1,156.000005950928,4|0,0:0|0:0,0:0:0
240,144,287179,1,0,0:0:0
416,192,287361,2,0,P|492:212,1,78.000002975464
404,280,287724,2,0,P|468:328,1,78.000002975464
284,72,288088,6,0,P|440:48,1,156.000005950928
240,144,288633,1,0,0:0:0
404,280,288815,2,0,P|440:364,1,78.000002975464
320,296,289179,2,0,P|336:380,1,78.000002975464
240,144,289543,6,0,P|92:192,1,156.000005950928
284,72,290088,1,0,0:0:0
320,296,290270,2,0,P|280:380,1,78.000002975464
260,228,290633,2,0,P|208:244,2,39.000001487732
36,120,290997,6,0,P|72:192,1,78.000002975464
144,60,291361,2,0,P|148:156,1,78.000002975464
280,80,291724,2,0,P|232:156,1,78.000002975464
408,168,292088,2,0,P|328:196,1,78.000002975464
124,268,292452,5,4,0:0:0
204,216,292633,1,0,0:0:0
256,296,292815,1,0,0:0:0
180,348,292997,1,0,0:0:0
120,168,293179,5,0,0:0:0
300,208,293361,1,0,0:0:0
84,360,293543,1,0,0:0:0
204,116,293724,1,0,0:0:0
356,288,293906,5,0,0:0:0
124,268,294088,1,0,0:0:0
124,268,294179,1,0,0:0:0
124,268,294270,1,0,0:0:0
116,64,294452,5,0,0:0:0
204,216,294633,1,0,0:0:0
204,216,294724,1,0,0:0:0
204,216,294815,1,0,0:0:0
200,16,294997,5,0,0:0:0
300,208,295179,1,0,0:0:0
304,60,295361,5,0,0:0:0
304,60,295452,1,0,0:0:0
304,60,295543,2,0,P|308:140,1,78.000002975464,0|4,0:0|0:0,0:0:0
120,168,295906,5,0,0:0:0
120,168,295997,1,0,0:0:0
120,168,296088,2,0,P|116:88,1,78.000002975464,0|0,0:0|0:0,0:0:0
376,40,296452,5,0,0:0:0
376,40,296543,1,0,0:0:0
376,40,296633,2,0,P|380:128,1,78.000002975464,0|0,0:0|0:0,0:0:0
44,184,296997,5,0,0:0:0
44,184,297088,1,0,0:0:0
44,184,297179,2,0,P|44:104,1,78.000002975464,0|0,0:0|0:0,0:0:0
452,20,297543,5,0,0:0:0
456,92,297724,1,0,0:0:0
456,100,297815,1,0,0:0:0
456,108,297906,1,0,0:0:0
456,116,297997,1,0,0:0:0
456,124,298088,1,0,0:0:0
456,132,298179,1,0,0:0:0
456,144,298270,2,0,P|460:360,1,208,4|8,0:0|0:0,0:0:0
376,292,298815,1,0,0:0:0
292,352,298997,6,0,P|184:364|84:352,1,208,0|8,0:0|0:0,0:0:0
52,252,299543,1,0,0:0:0
196,108,299724,2,0,P|200:164|180:208,1,104
92,144,300088,1,8,0:0:0
112,40,300270,1,0,0:0:0
272,184,300633,1,0,0:0:0
372,156,300815,2,0,P|392:52,1,104,8|0,0:0|0:0,0:0:0
344,252,301179,5,0,0:0:0
296,84,301361,1,0,0:0:0
472,124,301543,2,0,P|432:328,1,208,8|0,0:0|0:0,0:0:0
272,184,302088,1,0,0:0:0
344,252,302270,2,0,P|293:282|249:280|204:258|179:221|172:184,1,208,8|0,0:0|0:0,0:0:0
196,108,302815,1,0,0:0:0
96,244,302997,2,0,P|80:196|96:144,1,104,8|0,0:0|0:0,0:0:0
112,52,303361,1,0,0:0:0
92,316,303543,5,12,0:0:0
112,52,303724,1,12,0:0:0
272,184,303906,1,0,0:0:0
272,184,303997,1,0,0:0:0
272,184,304088,2,0,P|340:104,1,104
420,320,304633,5,0,0:0:0
344,252,304815,2,0,P|412:173,1,104,8|0,0:0|0:0,0:0:0
272,184,305179,2,0,P|412:24,1,208
344,252,305724,1,0,0:0:0
200,116,306088,5,0,0:0:0
200,116,306179,1,0,0:0:0
200,116,306270,2,0,P|124:40,1,104,8|0,0:0|0:0,0:0:0
228,16,306633,1,0,0:0:0
228,16,306815,1,0,0:0:0
164,216,306997,6,0,P|88:140,1,104,4|0,0:0|0:0,0:0:0
288,336,307543,1,0,0:0:0
288,336,307633,1,0,0:0:0
288,336,307724,2,0,P|364:264,1,104,8|0,0:0|0:0,0:0:0
392,364,308088,1,0,0:0:0
392,364,308270,1,0,0:0:0
224,276,308452,6,0,P|304:204,1,104
160,336,308997,1,0,0:0:0
160,336,309088,1,0,0:0:0
160,336,309179,1,8,0:0:0
164,216,309361,1,0,0:0:0
164,216,309452,1,0,0:0:0
164,216,309543,1,8,0:0:0
200,116,309724,1,8,0:0:0
72,232,309906,6,0,P|72:344,1,104
256,200,310270,1,0,0:0:0
0,156,310452,2,0,P|94:124|210:115,1,208
316,284,310997,1,0,0:0:0
256,200,311179,1,0,0:0:0
360,188,311361,6,0,P|399:218|416:272,1,104
224,296,311724,1,0,0:0:0
256,200,311906,2,0,P|324:4,1,208
156,216,312452,1,0,0:0:0
156,216,312633,1,0,0:0:0
396,92,312815,5,4,0:0:0
396,92,312906,1,0,0:0:0
396,92,312997,1,0,0:0:0
396,92,313179,1,0,0:0:0
284,376,313361,5,4,0:0:0
284,376,313452,1,0,0:0:0
284,376,313543,1,0,0:0:0
284,376,313724,1,0,0:0:0
360,188,313906,6,0,P|320:288,1,104,4|0,0:0|0:0,0:0:0
256,164,314270,6,0,P|414:97|446:243,1,364,4|0,0:0|0:0,0:0:0
284,376,315724,5,4,0:0:0
284,376,316088,1,8,0:0:0
284,376,316452,1,0,0:0:0
284,376,316815,1,8,0:0:0
256,276,316997,1,0,0:0:0
192,192,317179,2,0,P|136:184|136:184|88:192,2,104,0|0|8,0:0|0:0|0:0,0:0:0
256,276,317724,2,0,P|360:292|360:292|464:276,1,208
460,172,318270,1,8,0:0:0
460,68,318452,1,0,0:0:0
356,68,318633,6,0,P|252:56|148:68,1,208,0|8,0:0|0:0,0:0:0
156,316,319361,2,0,P|260:328|364:316,1,208,0|8,0:0|0:0,0:0:0
52,316,320088,5,0,0:0:0
100,224,320270,1,0,0:0:0
204,224,320452,1,8,0:0:0
256,132,320633,2,0,P|358:120|462:132,1,208
460,28,321179,2,0,P|357:39|253:27,1,208,8|4,0:0|0:0,0:0:0
100,224,321906,1,8,0:0:0
100,224,322270,2,0,P|204:224,2,104,0|0|8,0:0|0:0|0:0,0:0:0
464,344,322997,6,0,P|360:356|257:344,1,208,0|8,0:0|0:0,0:0:0
256,344,323543,2,0,P|153:332|49:344,1,208
48,240,324088,1,8,0:0:0
48,240,324452,5,0,0:0:0
48,240,324633,1,0,0:0:0
48,240,324815,1,8,0:0:0
48,240,324997,1,0,0:0:0
256,344,325179,5,0,0:0:0
256,344,325361,1,0,0:0:0
256,344,325543,1,8,0:0:0
256,344,325724,1,8,0:0:0
160,116,325906,5,8,0:0:0
256,192,326088,1,8,0:0:0
124,192,326270,1,8,0:0:0
292,116,326452,1,8,0:0:0
192,268,326633,5,8,0:0:0
228,40,326815,1,8,0:0:0
368,192,326997,1,8,0:0:0
72,116,327179,1,8,0:0:0
256,192,328088,1,4,0:0:0
256,192,328179,12,0,335724,0:0:0
