osu file format v14

[General]
AudioFilename: Harumodoki.mp3
AudioLeadIn: 0
PreviewTime: 59734
Countdown: 1
SampleSet: Soft
StackLeniency: 0.7
Mode: 0
LetterboxInBreaks: 1
WidescreenStoryboard: 0

[Editor]
DistanceSpacing: 1.9
BeatDivisor: 4
GridSize: 4
TimelineZoom: 1

[Metadata]
Title:Haru Modoki
TitleUnicode:春擬き
Artist:yaniginagi
ArtistUnicode:やなぎなぎ
Creator:Dragontail
Version:Insane
Source:やはり俺の青春ラブコメはまちがっている。続
Tags:Dragontail
BeatmapID:1278921
BeatmapSetID:605318

[Difficulty]
HPDrainRate:6
CircleSize:4
OverallDifficulty:8
ApproachRate:9.2
SliderMultiplier:1.9
SliderTickRate:1

[Events]
//Background and Video events
Video,0,"SNAFU.avi"
0,0,"haru modoki.jpg",0,0
//Break Periods
2,26804,28275
//Storyboard Layer 0 (Background)
//Storyboard Layer 1 (Fail)
//Storyboard Layer 2 (Pass)
//Storyboard Layer 3 (Foreground)
//Storyboard Sound Samples

[TimingPoints]
570,344.827586206897,4,2,0,40,1,0
570,-200,4,2,0,40,0,0
6087,-111.111111111111,4,2,99,50,0,0
6776,-111.111111111111,4,2,99,70,0,0
7294,344.827586206897,4,2,99,60,1,0
7294,-111.111111111111,4,2,99,60,0,0
15570,-133.333333333333,4,2,0,40,0,0
17466,-133.333333333333,4,2,0,50,0,0
17811,-80,4,2,99,70,0,0
18328,-111.111111111111,4,2,99,60,0,0
26949,-111.111111111111,4,2,0,30,0,0
28673,-111.111111111111,4,2,99,40,0,0
29363,-111.111111111111,4,2,99,60,0,0
40569,344.827586206897,4,2,0,40,1,0
40570,-133.333333333333,4,2,99,50,0,0
51604,-111.111111111111,4,2,99,65,0,0
58328,-200,4,2,99,65,0,0
59535,-133.333333333333,4,2,99,65,0,0
59879,-133.333333333333,4,2,0,40,0,0
59880,-100,4,2,99,75,0,1
69363,-133.333333333333,4,2,99,75,0,1
69880,-100,4,2,99,75,0,1
71259,-100,4,2,99,85,0,1
76432,-100,4,2,99,70,0,0
80914,-100,4,2,99,55,0,0
81259,-100,4,2,99,50,0,0
81604,-100,4,2,99,60,0,0
85914,-100,4,2,0,70,0,0
86468,344.827586206897,4,2,0,50,1,0
87243,-100,4,2,99,5,0,0

[HitObjects]
112,72,570,6,0,P|160:96|188:144,1,95
400,72,1259,6,0,P|352:96|324:144,1,95
112,312,1949,6,0,P|160:288|188:240,1,95
400,312,2638,6,0,P|352:288|324:240,1,95
240,192,3328,5,0,0:0:0:0:
172,92,3673,2,0,B|124:48|124:48|84:56,2,95
240,192,4707,5,0,0:0:0:0:
340,92,5052,2,0,B|388:48|388:48|428:56,2,95
228,40,6087,6,0,L|200:96,3,42.7499986953736
304,40,6432,2,0,L|332:96,3,42.7499986953736
248,84,6776,1,0,0:0:0:0:
250,113,6862,1,0,0:0:0:0:
252,143,6948,1,0,0:0:0:0:
255,173,7034,1,0,0:0:0:0:
257,203,7120,1,0,0:0:0:0:
260,233,7207,1,0,0:0:0:0:
264,260,7294,6,0,P|332:272|364:240,1,85.4999973907472
324,184,7638,2,0,P|336:116|304:84,1,85.4999973907472
248,124,7983,2,0,P|180:112|148:144,1,85.4999973907472
188,200,8328,2,0,P|176:268|208:300,1,85.4999973907472
276,284,8673,5,0,0:0:0:0:
276,284,8759,1,0,0:0:0:0:
276,284,8845,1,0,0:0:0:0:
368,288,9018,6,0,P|400:244|388:192,1,85.4999973907472
352,80,9362,6,0,P|308:48|256:60,1,85.4999973907472
144,96,9707,6,0,P|112:140|124:192,1,85.4999973907472
152,256,10052,2,0,P|208:296|320:272,1,170.999994781494
305,283,10569,1,0,0:0:0:0:
420,192,10742,1,0,0:0:0:0:
320,88,10914,1,0,0:0:0:0:
216,184,11087,2,0,P|160:180|124:152,1,85.4999973907472
64,116,11431,5,0,0:0:0:0:
64,116,11518,1,0,0:0:0:0:
64,116,11604,1,0,0:0:0:0:
144,56,11776,2,0,P|192:36|232:48,1,85.4999973907472
392,80,12121,2,0,P|412:128|400:168,1,85.4999973907472
368,328,12466,2,0,P|320:348|280:336,1,85.4999973907472
120,304,12811,6,0,P|100:256|160:152,1,170.999994781494
150,156,13328,1,0,0:0:0:0:
248,200,13500,1,0,0:0:0:0:
156,264,13673,1,0,0:0:0:0:
248,304,13845,1,0,0:0:0:0:
156,264,14018,1,0,0:0:0:0:
248,200,14190,6,0,L|320:256,1,85.4999973907472
396,312,14535,1,0,0:0:0:0:
392,160,14707,1,0,0:0:0:0:
392,28,14880,2,0,L|336:32,1,42.7499986953736
352,128,15052,2,0,L|412:128,1,42.7499986953736
260,32,15225,2,0,L|196:32,1,42.7499986953736
228,128,15397,2,0,L|232:228,1,85.4999973907472
128,252,15914,5,0,0:0:0:0:
128,252,16087,1,0,0:0:0:0:
256,320,16431,1,0,0:0:0:0:
392,328,16776,5,0,0:0:0:0:
412,298,16862,1,0,0:0:0:0:
427,266,16948,1,0,0:0:0:0:
438,232,17034,1,0,0:0:0:0:
443,197,17120,1,0,0:0:0:0:
443,162,17207,1,0,0:0:0:0:
437,126,17293,1,0,0:0:0:0:
426,93,17379,1,0,0:0:0:0:
410,61,17465,1,0,0:0:0:0:
389,32,17551,1,0,0:0:0:0:
364,7,17638,1,0,0:0:0:0:
280,8,17811,5,2,0:0:0:0:
280,208,17983,1,0,0:0:0:0:
156,108,18156,1,0,0:0:0:0:
156,108,18242,1,0,0:0:0:0:
156,108,18328,2,0,P|88:136|88:180,1,85.4999973907472
80,268,18673,6,0,P|108:336|152:336,1,85.4999973907472
368,280,19018,2,0,P|340:348|296:348,1,85.4999973907472
380,120,19362,2,0,P|352:52|308:52,1,85.4999973907472
347,50,19707,5,0,0:0:0:0:
112,52,20052,2,0,P|80:84|128:208,1,170.999994781494
104,195,20569,1,0,0:0:0:0:
348,200,20742,1,0,0:0:0:0:
232,92,20914,5,0,0:0:0:0:
232,92,21000,1,0,0:0:0:0:
232,92,21087,2,0,P|288:96|332:112,1,85.4999973907472
156,216,21431,6,0,P|160:160|176:116,1,85.4999973907472
280,292,21776,2,0,P|224:288|180:272,1,85.4999973907472
196,279,22121,1,0,0:0:0:0:
356,168,22466,6,0,P|352:224|336:268,1,85.4999973907472
343,251,22811,1,0,0:0:0:0:
344,24,22983,1,0,0:0:0:0:
116,12,23328,5,0,0:0:0:0:
116,248,23500,1,0,0:0:0:0:
132,136,23673,1,0,0:0:0:0:
132,136,23759,1,0,0:0:0:0:
132,136,23845,2,0,P|192:96|228:100,1,85.4999973907472
380,136,24190,6,0,P|320:96|284:100,1,85.4999973907472
380,248,24535,2,0,P|320:288|284:284,1,85.4999973907472
204,336,24880,1,0,0:0:0:0:
96,256,25052,5,0,0:0:0:0:
96,256,25138,1,0,0:0:0:0:
96,256,25225,2,0,B|72:148|72:148|160:60|160:60|268:64,1,341.999989562989
266,63,26087,5,0,0:0:0:0:
272,300,26259,1,0,0:0:0:0:
384,188,26604,5,0,0:0:0:0:
336,72,28845,6,0,L|396:72,1,42.7499986953736
244,68,29018,1,0,0:0:0:0:
144,68,29190,5,0,0:0:0:0:
144,68,29276,1,0,0:0:0:0:
144,68,29362,2,0,P|88:136|92:152,1,85.4999973907472
96,288,29707,6,0,P|164:344|180:340,1,85.4999973907472
352,352,30052,6,0,P|408:284|404:268,1,85.4999973907472
416,96,30397,1,0,0:0:0:0:
304,200,30569,1,0,0:0:0:0:
304,200,30656,1,0,0:0:0:0:
304,200,30742,2,0,B|252:200|252:200|220:172,1,85.4999973907472
160,120,31087,6,0,B|88:64|88:64|40:140,1,170.999994781494
40,232,31604,1,0,0:0:0:0:
292,232,31776,1,0,0:0:0:0:
152,356,31949,1,0,0:0:0:0:
152,356,32035,1,0,0:0:0:0:
152,356,32121,2,0,P|224:368|264:356,1,85.4999973907472
420,296,32466,6,0,P|432:224|420:184,1,85.4999973907472
360,28,32811,2,0,P|288:16|248:28,1,85.4999973907472
276,18,33156,1,0,0:0:0:0:
180,52,33500,6,0,B|128:88|128:88|128:144,1,85.4999973907472
116,268,33845,2,0,B|172:328|172:328|264:328,1,170.999994781494
260,328,34362,1,0,0:0:0:0:
260,124,34535,1,0,0:0:0:0:
400,264,34707,1,0,0:0:0:0:
400,264,34794,1,0,0:0:0:0:
400,264,34880,2,0,B|340:188|340:188|244:188,1,170.999994781494
265,188,35397,5,0,0:0:0:0:
128,100,35569,1,0,0:0:0:0:
120,228,35742,1,0,0:0:0:0:
260,312,35914,2,0,P|352:300|364:292,1,85.4999973907472
384,180,36259,6,0,P|384:92|376:80,1,85.4999973907472
386,97,36604,1,0,0:0:0:0:
248,104,36776,2,0,L|140:136,1,85.4999973907472
166,128,37121,1,0,0:0:0:0:
144,320,37294,5,0,0:0:0:0:
228,228,37466,1,0,0:0:0:0:
228,228,37552,1,0,0:0:0:0:
228,228,37638,6,0,B|296:292|296:292|368:216,1,170.999994781494
284,156,38328,6,0,B|216:92|216:92|144:168,1,170.999994781494
104,208,39018,6,0,P|84:256|172:320,1,170.999994781494
268,320,39535,1,0,0:0:0:0:
268,320,39880,6,0,L|224:368,2,42.7499986953736
356,320,40225,6,0,L|396:360,2,42.7499986953736
352,188,40569,2,0,L|328:0,1,190
152,40,41258,6,0,B|144:120|156:180|156:180|184:200,1,142.500005435944
188,260,41775,1,0,0:0:0:0:
272,328,41948,2,0,P|316:324|356:308,1,71.2500027179719
341,315,42293,1,0,0:0:0:0:
404,204,42465,2,0,P|400:160|384:120,1,71.2500027179719
368,40,42810,5,0,0:0:0:0:
368,40,42896,1,0,0:0:0:0:
368,40,42982,2,0,B|268:56|268:56|212:64,1,142.500005435944
152,88,43500,2,0,L|104:144,1,71.2500027179719
105,142,43844,1,0,0:0:0:0:
104,268,44017,6,0,P|164:284|260:292,1,142.500005435944
243,292,44534,5,0,0:0:0:0:
328,156,44706,1,0,0:0:0:0:
400,304,44879,1,0,0:0:0:0:
248,296,45051,1,0,0:0:0:0:
328,156,45224,1,0,0:0:0:0:
400,304,45396,1,0,0:0:0:0:
248,296,45569,1,0,0:0:0:0:
328,156,45741,1,0,0:0:0:0:
400,304,45913,5,0,0:0:0:0:
400,304,46000,1,0,0:0:0:0:
400,304,46086,2,0,P|452:232|448:168,1,142.500005435944
368,48,46775,6,0,P|296:-4|232:0,1,142.500005435944
156,20,47293,1,0,0:0:0:0:
72,68,47465,2,0,P|72:144|112:212,1,142.500005435944
102,201,47982,1,0,0:0:0:0:
252,344,48155,1,0,0:0:0:0:
360,204,48327,1,0,0:0:0:0:
360,204,48413,1,0,0:0:0:0:
360,204,48500,2,0,B|424:160|424:160|368:84,1,142.500005435944
336,36,49017,5,0,0:0:0:0:
272,92,49189,2,0,B|208:136|208:136|264:212,1,142.500005435944
246,188,49706,1,0,0:0:0:0:
252,332,49879,2,0,P|172:328|128:284,1,142.500005435944
72,224,50569,6,0,L|40:136,1,71.2500027179719
176,196,50913,2,0,L|180:104,1,71.2500027179719
280,236,51258,2,0,L|324:152,1,71.2500027179719
360,80,51603,6,0,P|368:28|280:20,1,142.500005435944
160,256,52293,6,0,P|152:308|260:320,1,170.999994781494
328,296,52810,1,0,0:0:0:0:
328,296,52896,1,0,0:0:0:0:
328,296,52982,2,0,P|384:240|380:144,1,170.999994781494
336,88,53672,6,0,P|280:32|184:36,1,170.999994781494
96,80,54362,6,0,L|44:104,3,42.7499986953736
188,80,54706,2,0,L|232:120,3,42.7499986953736
96,160,55051,6,0,L|36:208,3,42.7499986953736
188,168,55396,2,0,L|232:200,3,42.7499986953736
88,240,55741,6,0,L|36:276,3,42.7499986953736
180,248,56086,2,0,L|224:276,3,42.7499986953736
132,328,56431,2,0,B|220:372|220:372|304:316,1,170.999994781494
280,331,56948,5,0,0:0:0:0:
360,184,57120,1,0,0:0:0:0:
432,344,57293,1,0,0:0:0:0:
304,260,57465,1,0,0:0:0:0:
412,264,57637,1,0,0:0:0:0:
284,336,57810,1,0,0:0:0:0:
360,184,57982,1,0,0:0:0:0:
432,344,58155,1,0,0:0:0:0:
304,260,58327,1,0,0:0:0:0:
356,268,58500,5,0,0:0:0:0:
334,268,58586,1,0,0:0:0:0:
313,268,58672,1,0,0:0:0:0:
291,268,58758,1,0,0:0:0:0:
270,268,58844,1,0,0:0:0:0:
249,268,58931,1,0,0:0:0:0:
227,268,59017,1,0,0:0:0:0:
206,268,59103,1,0,0:0:0:0:
185,268,59189,1,0,0:0:0:0:
80,272,59362,5,0,0:0:0:0:
76,68,59534,1,0,0:0:0:0:
268,64,59879,6,0,P|296:100|300:128,1,71.2500027179719
412,60,60224,2,0,P|440:96|444:124,1,71.2500027179719
452,192,60569,6,0,P|480:228|404:344,1,190
340,148,61258,6,0,L|140:152,1,190
64,48,61775,1,0,0:0:0:0:
64,48,61862,1,0,0:0:0:0:
64,48,61948,2,0,B|20:152|20:152|72:260,1,190
136,296,62465,5,0,0:0:0:0:
136,296,62551,1,0,0:0:0:0:
136,296,62637,2,0,P|204:324|344:320,2,190
136,296,63672,1,0,0:0:0:0:
220,168,63844,1,0,0:0:0:0:
316,320,64017,6,0,P|408:336|424:332,1,95
444,164,64362,2,0,P|460:72|368:48,1,190
280,72,64879,5,0,0:0:0:0:
280,72,64965,1,0,0:0:0:0:
280,72,65051,1,0,0:0:0:0:
280,72,65137,1,0,0:0:0:0:
280,72,65224,2,0,P|208:100|188:128,1,95
124,176,65569,1,0,0:0:0:0:
200,252,65741,2,0,B|292:296|292:296|400:224,1,190
456,152,66258,5,0,0:0:0:0:
340,32,66603,2,0,P|236:72|212:240,1,285
206,229,67465,2,0,P|250:301|358:349,1,190
340,264,68155,5,0,0:0:0:0:
336,164,68327,1,0,0:0:0:0:
340,264,68500,1,0,0:0:0:0:
336,164,68672,1,0,0:0:0:0:
440,216,68844,1,0,0:0:0:0:
440,216,68931,1,0,0:0:0:0:
440,216,69017,2,0,P|440:116|360:64,1,190
373,66,69534,5,0,0:0:0:0:
280,148,69706,1,0,0:0:0:0:
284,0,69879,1,0,0:0:0:0:
176,68,70051,1,0,0:0:0:0:
280,148,70224,1,0,0:0:0:0:
284,0,70396,1,0,0:0:0:0:
176,68,70569,5,0,0:0:0:0:
176,68,70655,1,0,0:0:0:0:
176,68,70741,1,0,0:0:0:0:
176,68,70827,1,0,0:0:0:0:
176,68,70913,1,0,0:0:0:0:
208,200,71086,5,0,0:0:0:0:
284,76,71258,1,0,0:0:0:0:
356,208,71431,1,0,0:0:0:0:
432,84,71603,1,0,0:0:0:0:
496,216,71775,1,0,0:0:0:0:
496,216,71948,5,0,0:0:0:0:
432,84,72120,1,0,0:0:0:0:
356,208,72293,1,0,0:0:0:0:
284,76,72465,1,0,0:0:0:0:
208,200,72637,1,0,0:0:0:0:
140,76,72810,1,0,0:0:0:0:
88,204,72982,1,0,0:0:0:0:
16,80,73155,1,0,0:0:0:0:
88,204,73327,1,0,0:0:0:0:
160,56,73500,5,0,0:0:0:0:
160,56,73586,1,0,0:0:0:0:
160,56,73672,2,0,B|76:112|76:112|172:192,2,190
264,56,74706,2,0,P|380:48|312:240,1,380
276,304,75741,5,0,0:0:0:0:
276,304,75827,1,0,0:0:0:0:
276,304,75913,1,0,0:0:0:0:
276,304,76000,1,0,0:0:0:0:
276,304,76086,2,0,P|200:296|160:264,1,95
88,240,76431,6,0,P|80:136|144:64,3,190
424,240,77810,6,0,P|432:136|368:64,3,190
256,80,79189,6,0,L|256:160,8,47.5
136,80,80051,1,0,0:0:0:0:
136,80,80137,1,0,0:0:0:0:
136,80,80224,2,0,P|76:120|64:172,1,95
200,204,80913,6,0,L|160:244,3,47.5
300,208,81258,2,0,L|336:248,3,47.5
252,120,81603,2,0,L|252:64,3,47.5
252,200,81948,6,0,L|252:304,1,95
352,208,82293,2,0,L|356:324,1,95
352,136,82637,2,0,L|356:20,1,95
252,120,82982,2,0,L|248:4,1,95
248,25,83327,5,0,0:0:0:0:
248,25,83500,1,0,0:0:0:0:
124,144,83845,1,0,0:0:0:0:
252,295,84189,1,0,0:0:0:0:
392,152,84534,5,0,0:0:0:0:
392,152,84620,1,0,0:0:0:0:
392,152,84706,2,0,L|188:152,1,190
116,28,85396,5,0,0:0:0:0:
116,63,85482,1,0,0:0:0:0:
116,98,85568,1,0,0:0:0:0:
117,133,85654,1,0,0:0:0:0:
117,168,85740,1,0,0:0:0:0:
118,203,85827,1,0,0:0:0:0:
118,238,85913,1,0,0:0:0:0:
256,192,86086,12,0,88881,0:0:0:0:
