osu file format v9

[General]
AudioFilename: 1.mp3
AudioLeadIn: 2007
PreviewTime: -1
Countdown: 1
SampleSet: Normal
StackLeniency: 0.7
Mode: 0
LetterboxInBreaks: 1

[Editor]
Bookmarks: 20283,54828,85737,98464,127555,145737,158464,189373
DistanceSpacing: 1
BeatDivisor: 4
GridSize: 8

[Metadata]
Title:Who said I am moe?
Artist:yangzd88
Creator:jameskong1
Version:Moe
Source:
Tags:Sherrie__fay

[Difficulty]
HPDrainRate:8
CircleSize:4
OverallDifficulty:8
ApproachRate:7
SliderMultiplier:1.6
SliderTickRate:2

[Events]
//Background and Video events
0,0,"2002911161827.jpg"
//Break Periods
2,85937,97564
//Storyboard Layer 0 (Background)
//Storyboard Layer 1 (Fail)
//Storyboard Layer 2 (Pass)
//Storyboard Layer 3 (Foreground)
//Storyboard Sound Samples
//Background Colour Transformations
3,100,163,162,255

[TimingPoints]
283,454.545454545455,4,1,1,40,1,0
1533,-100,4,2,1,5,0,0
2101,-100,4,1,1,5,0,0
3919,-100,4,1,1,40,0,0
30169,-200,4,1,1,40,0,0
30851,-100,4,1,1,40,0,0
35396,-200,4,1,1,40,0,0
36078,-100,4,1,1,40,0,0
38123,-200,4,1,1,40,0,0
40169,-100,4,1,1,40,0,0
46533,-200,4,1,1,40,0,0
48464,-100,4,1,1,40,0,0
49714,-133.333333333333,4,1,1,40,0,0
54828,-100,4,1,1,40,0,0
55055,-100,4,1,1,40,0,1
62101,-100,4,1,1,40,0,0
62442,-100,4,1,1,40,0,1
69260,-100,4,1,1,40,0,0
69487,-100,4,1,1,40,0,1
76533,-100,4,1,1,40,0,0
76760,-100,4,1,1,40,0,1
85737,-100,4,1,1,40,0,0
98010,-100,4,1,1,40,0,0
101078,-200,4,1,1,40,0,0
103919,-100,4,1,1,40,0,0
115623,-200,4,1,1,40,0,0
116305,-100,4,1,1,40,0,0
127555,-100,4,1,1,40,0,1
134714,-100,4,1,1,40,0,0
134942,-100,4,1,1,40,0,1
141987,-100,4,1,1,40,0,0
142214,-100,4,1,1,40,0,1
149260,-100,4,1,1,40,0,0
149487,-100,4,1,1,40,0,1
158351,-100,4,1,1,40,0,0
158578,-100,4,1,1,40,0,1
159260,-200,4,1,1,40,0,1
161987,-100,4,1,1,40,0,1
165623,-100,4,1,1,40,0,0
165851,-100,4,1,1,40,0,1
168351,-200,4,1,1,40,0,1
170510,-100,4,1,1,40,0,1
172896,-100,4,1,1,40,0,0
173123,-100,4,1,1,40,0,1
180169,-100,4,1,1,40,0,0
180396,-100,4,1,1,40,0,1
185396,-200,4,1,1,40,0,0

[Colours]
Combo1 : 255,89,89
Combo2 : 255,128,255
Combo3 : 176,176,255
Combo4 : 244,220,0
Combo5 : 204,117,0

[HitObjects]
256,192,283,12,0,1873
256,192,2101,6,0,B|256:160,28,20
176,168,3919,2,0,B|104:128,1,80
72,208,4373,1,0
144,240,4601,1,0
176,168,4828,2,0,B|248:112,1,80
304,80,5283,5,0
320,160,5510,1,0
400,176,5737,1,0
400,256,5964,1,0
400,296,6078,1,0
400,336,6192,1,0
320,320,6419,1,0
280,320,6533,1,0
240,320,6646,6,0,B|168:320|144:264,1,80
120,232,7101,2,0,B|128:168|96:120,2,80
88,304,7783,1,0
168,328,8010,1,0
248,304,8237,5,0
288,312,8351,1,0
328,304,8464,1,0
368,304,8578,1,0
408,288,8692,2,0,B|448:272|480:232,1,80
424,176,9146,6,0,B|320:136,1,80
272,112,9601,1,0
208,152,9828,1,0
208,232,10055,1,0
264,288,10283,6,0,B|272:328,2,40
208,232,10737,2,0,B|152:200,4,40
144,280,11419,5,0
80,320,11646,1,0
72,240,11873,1,0
48,208,11987,1,0
32,176,12101,2,0,B|40:128|40:128|72:104,1,80
128,160,12555,6,0,B|208:160,1,80
288,160,13010,1,0
344,216,13237,1,0
288,272,13464,1,0
344,328,13692,1,0
384,336,13805,1,0
424,328,13919,6,0,B|424:248,1,80
464,176,14373,2,0,B|464:128|464:128|440:88,1,80
368,88,14828,2,0,B|368:176,1,80
272,176,15283,2,0,B|272:128|272:128|296:88,1,80
368,88,15737,2,0,B|368:0,1,80
368,88,16192,5,0
368,168,16419,2,0,B|416:240,1,80
368,304,16873,2,0,B|320:368,1,80
280,296,17328,2,0,B|200:248,1,80
144,296,17783,2,0,B|56:336,1,80
64,248,18237,6,0,B|40:200,2,40
136,208,18692,1,0
160,176,18805,1,0
200,160,18919,2,0,B|256:152,8,40,0|0|0|0|0|0|0|0|8
232,232,20055,5,0
232,232,20283,1,0
232,232,20510,1,0
192,160,20737,5,8
160,192,21646,1,8
160,192,22555,1,8
188,224,23464,1,8
408,92,24373,5,0
284,192,24828,2,0,B|184:192,1,80
236,116,25283,1,0
272,136,25396,1,0
300,164,25510,1,0
308,204,25623,1,0
304,244,25737,2,0,B|272:288|240:288,1,80,2|0
156,304,26192,6,0,B|104:296|92:236,1,80,8|0
172,232,26646,2,0,B|200:200|160:152,1,80,2|0
165,159,27101,1,8
192,84,27328,1,0
228,100,27442,1,0
244,136,27555,2,0,B|264:184|228:212,2,80
312,92,28237,1,0
460,140,28464,5,0
356,272,28692,1,0
200,280,28919,1,0
88,164,29146,2,0,B|44:104,2,40
140,100,29601,5,0
204,52,29828,2,0,B|236:84|212:128,1,80
156,176,30283,2,0,B|184:212|236:200,1,80
280,144,30964,1,0
304,176,31078,1,0
304,216,31192,1,0
376,248,31419,5,0
208,160,31646,1,0
368,76,31873,1,0
256,256,32101,2,0,B|212:292|164:240,1,80
216,184,32555,6,0,B|172:208|128:172,2,80
328,68,33464,1,0
328,68,33692,1,0
388,120,33919,5,0
176,112,34146,1,0
368,196,34373,1,0
136,176,34601,2,0,B|196:196|232:160,2,80
176,112,35283,5,0
176,112,35510,2,0,B|224:144|208:192,1,80
176,112,36192,1,0
176,112,36419,2,0,B|232:200|344:128,2,160
252,88,37555,1,0
252,88,37782,1,0
252,88,37896,1,0
252,88,38010,1,0
320,128,38237,6,0,B|408:128,1,80
400,128,38919,1,0
304,176,39146,1,0
456,168,39373,1,0
292,224,39601,1,0
488,228,39828,1,0
244,260,40055,1,0
164,276,40282,6,0,B|104:272|84:212,1,80
164,196,40737,1,0
396,68,41192,5,0
164,196,41646,1,0
304,120,42101,6,0,B|388:68,2,80
236,160,42782,1,0
236,160,42896,1,0
236,160,43010,2,0,B|320:196,2,80
304,120,43692,1,0
304,120,43805,1,0
304,120,43919,2,0,B|380:76,2,80
224,120,44601,5,0
264,188,44828,1,0
224,120,45055,2,0,B|328:120,2,80
184,120,45623,1,0
144,120,45737,2,0,B|144:212,1,80
88,144,46192,2,0,B|144:200,1,80
64,200,46646,6,0,B|156:200,1,80
144,200,47328,1,0
184,200,47555,2,0,B|232:196|208:148|244:140,1,80
268,124,48237,1,0
428,140,48692,6,0,B|408:224|304:244,2,160
428,140,49828,1,0
428,140,50055,2,0,B|380:60|260:80,1,179.999994635582
212,92,50964,6,0,B|168:124|160:192|236:228|296:216|336:152|312:96|248:64,1,299.999991059304
212,92,52328,6,0,B|136:116,1,59.9999982118607
116,156,52782,1,0
372,104,53237,1,0
80,212,53692,2,0,B|76:260|108:284,2,59.9999982118607
116,156,54373,1,0
256,80,54828,5,0
256,80,55055,5,0
320,128,55282,1,0
256,176,55510,1,0
192,128,55737,2,0,B|240:128,2,40
112,128,56192,5,0
48,184,56419,1,0
112,232,56646,2,0,B|160:256|200:240,1,80
208,320,57101,2,0,B|160:352|112:312,1,80
64,280,57555,6,0,B|64:200,1,80
64,200,58010,2,0,B|64:104,1,80
120,64,58464,2,0,B|152:32,2,40
152,136,58919,1,0
216,184,59146,5,0
248,208,59260,1,0
288,224,59373,1,0
328,232,59487,1,0
368,232,59601,2,0,B|424:240|464:224,1,80
448,152,60055,5,0
384,104,60282,1,0
312,72,60510,2,0,B|272:104|216:88,1,80
168,128,60964,1,0
168,128,61192,2,0,B|200:176|256:168,1,80
312,184,61646,2,0,B|368:240,2,80
288,104,62328,5,0
216,72,62555,1,0
136,72,62782,2,0,B|80:120,1,40
72,120,63010,2,0,B|16:176,1,80
56,240,63464,6,0,B|128:264,2,40
112,184,63919,1,0
112,184,64032,1,0
112,184,64146,1,0
168,128,64373,6,0,B|216:120|256:160,1,80
242,148,64828,2,0,B|312:152|328:208,1,80
304,256,65282,1,0
304,256,65510,1,0
376,216,65737,6,0,B|384:112|229:160|312:64,1,160
208,80,66419,1,0
208,80,66646,2,0,B|144:152,1,80
104,200,67101,5,0
104,200,67328,2,0,B|80:240,2,40
184,200,67782,2,0,B|272:200,1,80
312,136,68237,1,0
384,176,68464,1,0
384,96,68692,1,0
456,136,68919,6,0,B|480:176|456:216,1,80
384,248,69373,1,0
304,248,69601,2,0,B|192:248,1,80
304,248,70055,2,0,B|304:160,1,80
224,192,70510,2,0,B|176:168,2,40
272,128,70964,5,0
200,96,71192,1,0
160,104,71305,1,0
120,120,71419,1,0
88,136,71532,1,0
56,160,71646,2,0,B|32:216|48:256,1,80
120,248,72101,6,0,B|208:248,1,80
232,320,72555,2,0,B|136:320,2,80
280,256,73237,2,0,B|320:256,2,40
216,208,73692,1,0
280,160,73919,2,0,B|336:160,2,40
216,112,74373,1,0
152,64,74601,6,0,B|120:104|144:152,1,80
216,112,75055,2,0,B|256:160|208:200,1,80
222,184,75510,1,0
152,224,75737,2,0,B|112:248,2,40
224,264,76192,2,0,B|256:304|256:304|320:304,1,80
320,232,76646,6,0,B|368:168,1,80
416,104,77101,1,0
368,168,77328,1,0
448,176,77555,2,0,B|448:256,1,80
384,304,78010,5,0
344,304,78123,1,0
304,304,78237,1,0
232,264,78464,1,0
152,240,78692,1,0
88,192,78919,1,0
56,264,79146,5,0
120,312,79373,2,0,B|152:352,2,40
152,240,79828,1,0
208,296,80055,1,0
272,240,80282,6,0,B|304:280|304:280|344:280,1,80
400,240,80737,2,0,B|376:200|376:200|336:200,1,80
272,168,81192,2,0,B|272:120,2,40
200,208,81646,5,0
128,176,81873,1,0
80,112,82101,2,0,B|80:72,2,40
160,96,82555,1,0
160,96,82782,6,0,B|248:96,1,80
320,88,83237,1,0
320,88,83464,2,0,B|376:160|328:248,1,160
256,256,84146,1,0
256,256,84373,2,0,B|168:224|88:272,2,160
336,240,85510,2,0,B|376:216,2,40
256,192,98464,6,0,B|256:112,1,80
256,112,98919,1,0
92,76,99373,5,0
256,112,99828,1,0
256,112,100283,2,0,B|336:136,2,80
180,88,100964,5,0
140,156,101192,2,0,B|180:184|224:148,1,80
260,96,101873,1,0
328,136,102101,5,0
260,172,102328,1,0
324,216,102555,1,0
392,176,102783,1,0
328,136,103010,2,0,B|324:228,1,80
324,216,103692,1,0
188,132,104146,5,0
120,172,104373,1,0
188,132,104601,1,0
256,88,104828,2,0,B|316:80|336:116,1,80
276,164,105283,2,0,B|336:196|384:164,1,80
408,120,105737,1,0
328,108,105964,6,0,B|272:96,2,40
360,180,106419,1,0
360,180,106646,1,0
304,236,106873,2,0,B|256:220,2,40
304,236,107328,2,0,B|316:156|252:116|188:140,1,160
136,148,108010,1,0
136,148,108237,1,0
200,100,108464,1,0
200,100,108692,1,0
200,100,108805,1,0
200,100,108919,1,0
280,88,109146,2,0,B|280:104|280:104|288:88|288:88|288:104|288:104|296:84|296:84|296:104|296:104|304:80|304:80|304:104|304:104|312:76|312:76|312:104|312:104|320:72|320:72|320:104|320:104|328:68|328:68|328:104|328:104|336:64|336:64|336:104,1,400
408,124,110510,5,0
420,220,110737,1,0
376,304,110964,1,0
284,332,111192,1,0
188,328,111419,1,0
104,284,111646,1,0
60,200,111873,1,0
68,104,112101,1,0
140,40,112328,1,0
68,104,112555,1,0
160,128,112783,1,0
232,68,113010,6,0,B|324:68,2,80
312,68,113692,1,0
312,68,113919,2,0,B|412:68,2,80
212,192,114828,2,0,B|184:248|220:284,1,80
280,236,115283,2,0,B|288:236|304:200|288:156,1,80
212,192,115737,2,0,B|184:248|220:284,1,80
280,236,116419,1,0
360,232,116646,2,0,B|400:184|336:140,2,80
284,208,117328,2,0,B|244:172|288:124,1,80
352,168,117783,5,0
352,168,117896,1,0
352,168,118010,1,0
304,104,118237,1,0
228,80,118464,1,0
192,100,118578,1,0
164,128,118692,1,0
144,164,118805,1,0
136,204,118919,1,0
136,204,119146,1,0
180,268,119373,1,0
220,272,119487,1,0
260,268,119601,1,0
296,252,119714,1,0
328,232,119828,1,0
328,232,120055,1,0
376,168,120283,6,0,B|388:108|352:88,1,80
376,168,120737,2,0,B|372:228|408:252,1,80
396,242,121078,1,0
396,242,121192,1,0
348,308,121419,2,0,B|256:308,1,80
308,236,121873,2,0,B|148:236,1,160
92,176,122555,5,0
248,60,122783,2,0,B|424:60,1,160
384,136,123464,1,0
256,192,123692,12,0,124828
256,128,125055,5,0
316,228,125283,1,0
200,224,125510,1,0
368,104,125964,5,0
256,312,126419,1,0
256,312,126646,1,0
152,116,127101,1,0
304,64,127555,5,0
360,120,127783,1,0
376,200,128010,1,0
360,280,128237,1,0
376,200,128464,1,0
384,160,128578,1,0
392,120,128692,1,0
312,96,128919,6,0,B|272:96|272:96|232:112,1,80
216,192,129373,2,0,B|128:192,2,80
232,272,130055,2,0,B|272:272|272:272|312:288,2,80
216,192,130737,6,0,B|232:152,2,40
136,208,131192,1,0
72,256,131419,1,0
72,256,131646,2,0,B|56:216,2,40
152,280,132101,2,0,B|208:320,4,40
152,200,132783,5,0
152,160,132896,1,0
152,120,133010,1,0
224,80,133237,2,0,B|224:184,1,80
224,240,133692,2,0,B|224:320,1,80
224,320,134146,5,0
296,280,134373,2,0,B|344:280,2,40
296,200,134828,2,0,B|320:152,1,40
328,128,135055,2,0,B|328:80|280:48,1,80
216,80,135510,1,0
184,104,135623,1,0
160,136,135737,6,0,B|120:176,2,40
88,96,136192,1,0
32,40,136419,1,0
112,40,136646,2,0,B|184:40,1,40
184,72,136873,6,0,B|224:152,1,80
208,224,137328,1,0
224,264,137442,1,0
256,288,137555,2,0,B|368:288,1,80
368,200,138010,6,0,B|368:144|320:96,1,80
264,104,138464,1,0
264,104,138578,1,0
264,104,138692,1,0
192,144,138919,1,0
192,144,139033,2,0,B|176:192,1,40
104,208,139373,2,0,B|64:224,2,40
144,272,139828,6,0,B|216:312,1,80
280,272,140283,1,0
280,272,140510,1,0
344,216,140737,1,0
344,216,140964,1,0
360,136,141192,1,0
384,104,141305,1,0
368,64,141419,1,0
328,56,141533,1,0
288,64,141646,6,0,B|240:48|184:80,1,80
224,144,142101,2,0,B|168:136|120:168,1,80
184,224,142555,2,0,B|136:224|104:256,2,80
184,224,143237,1,0
256,264,143464,6,0,B|304:280,2,40
256,184,143919,2,0,B|288:160,2,40
184,224,144373,1,0
256,184,144601,1,0
256,264,144828,1,0
272,296,144942,5,0
304,312,145055,1,0
344,312,145169,1,0
384,312,145283,2,0,B|464:288,1,80
352,240,145737,2,0,B|448:208,1,80
480,152,146192,6,0,B|432:128|432:128|320:128,1,160
272,184,146873,2,0,B|272:224,2,40
224,120,147328,5,0
160,72,147555,1,0
88,104,147782,1,0
48,176,148010,1,0
80,248,148237,1,0
144,208,148464,2,0,B|72:152,1,80
160,152,148919,2,0,B|96:224,1,80
176,256,149373,6,0,B|256:320,1,80
320,320,149828,1,0
352,296,149942,1,0
368,264,150055,1,0
376,224,150169,1,0
384,184,150282,2,0,B|376:128|336:104,1,80
272,104,150737,5,0
200,144,150964,1,0
120,168,151192,2,0,B|168:240,1,80
200,144,151646,2,0,B|144:80,1,80
272,104,152101,2,0,B|328:184,1,80
368,240,152555,2,0,B|400:280,2,40
288,248,153010,6,0,B|256:200,4,40
208,256,153692,1,0
128,272,153919,2,0,B|160:304,2,40
72,216,154373,5,0
72,216,154601,1,0
64,136,154828,2,0,B|112:72,1,80
160,136,155282,2,0,B|224:72,1,80
264,144,155737,2,0,B|336:88,1,80
376,160,156192,2,0,B|448:112,2,80
336,96,156873,2,0,B|304:56,12,40
256,32,158464,5,0
368,192,158692,1,0
256,344,158919,1,0
148,192,159146,1,0
356,156,159373,6,0,B|384:192|352:240,1,80
357,230,160055,1,0
428,192,160282,1,0
256,92,160510,1,0
96,192,160737,1,0
256,288,160964,1,0
357,230,161192,6,0,B|384:192|356:156,1,80
348,64,161873,1,0
256,92,162101,2,0,B|216:72|160:92,2,80
256,172,162782,2,0,B|296:192|348:172,2,80
256,172,163464,1,0
168,132,163692,6,0,B|108:132|80:200|80:200,1,80
72,240,164146,1,0
144,276,164373,1,0
220,252,164601,1,0
292,216,164828,1,0
364,180,165055,1,0
436,216,165282,2,0,B|416:264|352:260,1,80
296,272,165737,5,0
232,228,165964,1,0
232,228,166078,1,0
232,228,166192,2,0,B|172:200|176:144,1,80
156,96,166646,1,0
232,72,166873,1,0
232,72,166987,1,0
232,72,167101,2,0,B|268:120|224:156,1,80
164,176,167555,1,0
236,144,167782,1,0
236,144,167896,1,0
236,144,168010,2,0,B|288:164|320:116,1,80
360,72,168464,6,0,B|392:104|384:148,1,80
384,144,169146,1,0
372,220,169373,1,0
344,248,169828,1,0
304,260,170282,1,0
160,192,170737,6,0,B|156:132|204:96,2,80
236,172,171419,1,0
260,96,171646,2,0,B|320:100|336:44,1,80
400,100,172101,5,0
464,192,172328,1,0
404,280,172555,1,0
340,192,172782,1,0
340,192,172896,1,0
340,192,173010,1,0
400,100,173237,5,0
400,100,173351,1,0
400,100,173464,2,0,B|352:68|292:116,1,80
260,144,173919,2,0,B|232:180|268:240,1,80
172,208,174373,5,0
340,208,174601,1,0
400,100,174828,6,0,B|352:68|292:116,1,80
288,112,175169,1,0
260,144,175282,2,0,B|232:180|268:240,1,80
340,208,175737,5,0
172,208,175964,1,0
256,332,176192,2,0,B|352:332,1,80
368,312,176532,1,0
388,280,176646,1,0
256,56,176873,6,0,B|160:56,2,80
256,56,177555,1,0
256,56,177782,1,0
284,84,177896,1,0
316,112,178010,5,0
240,144,178237,2,0,B|180:160,2,40
300,192,178692,1,0
300,192,178919,2,0,B|392:192,1,80
352,268,179373,2,0,B|264:268,1,80
300,192,179828,2,0,B|360:132,1,80
436,132,180282,5,0
448,172,180396,1,0
452,212,180510,1,0
428,288,180737,1,0
428,288,180964,1,0
376,228,181192,1,0
388,192,181305,1,0
408,156,181419,1,0
440,84,181646,1,0
440,84,181873,1,0
360,76,182101,5,0
460,176,182328,1,0
392,308,182555,1,0
228,276,182782,1,0
228,136,183010,1,0
264,156,183123,1,0
260,196,183237,1,0
220,204,183351,1,0
196,172,183464,1,0
232,172,183692,5,0
448,52,183919,2,0,B|340:52,1,80
212,192,184373,2,0,B|320:192,1,80
136,332,184828,2,0,B|40:332,1,80
56,252,185282,5,0
56,252,185510,2,0,B|32:212|64:160,1,80
76,140,186192,1,0
232,164,186419,1,0
152,80,186646,1,0
260,120,186873,1,0
232,40,187101,1,0
296,80,187328,1,0
336,152,187782,5,0
336,152,188010,1,0
256,192,188237,12,0,189373
