osu file format v9

[General]
AudioFilename: 1.mp3
AudioLeadIn: 0
PreviewTime: -1
Countdown: 1
SampleSet: Soft
StackLeniency: 0.7
Mode: 0
LetterboxInBreaks: 1

[Editor]
Bookmarks: 8464,20283,52101,54828,85737,98464,127555,145737,158464,189373
DistanceSpacing: 1
BeatDivisor: 4
GridSize: 4

[Metadata]
Title:Who said I am moe?
Artist:yangzd88
Creator:jameskong1
Version:Little Moe
Source:
Tags:Sherrie__fay

[Difficulty]
HPDrainRate:1
CircleSize:3
OverallDifficulty:1
ApproachRate:1
SliderMultiplier:1
SliderTickRate:1

[Events]
//Background and Video events
0,0,"Card_Captor_Sakura_aaw.jpg"
//Break Periods
2,85027,96784
//Storyboard Layer 0 (Background)
//Storyboard Layer 1 (Fail)
//Storyboard Layer 2 (Pass)
//Storyboard Layer 3 (Foreground)
//Storyboard Sound Samples
//Background Colour Transformations
3,100,163,162,255

[TimingPoints]
283,454.545454545455,4,2,0,40,1,0

[HitObjects]
256,192,2101,12,0,3919
144,176,4373,5,0
112,80,4828,2,0,B|320:80,1,200
368,64,6192,1,0
368,64,6646,2,0,B|496:64|496:208,1,200
432,272,8010,1,0
352,224,8464,6,0,B|288:224,1,50
208,176,9146,1,0
80,96,9828,1,0
80,96,10283,2,0,B|80:304,1,200
256,192,12101,5,0
352,192,12555,1,0
432,96,13010,2,0,B|464:208|432:304,1,200
240,336,14828,6,0,B|128:336|128:336|48:288,1,200
240,240,16646,6,0,B|240:128|240:128|192:48,1,200
112,112,18010,2,0,B|112:224,1,100
112,304,18919,5,0
304,304,19828,1,0
128,224,20737,1,0
304,304,21646,1,0
304,112,22555,1,0
304,304,23464,1,0
224,128,24373,1,0
304,64,24828,6,0,B|336:80|320:128,1,50
320,160,25283,1,0
304,256,25737,6,0,B|240:256|224:192,1,100
128,160,26646,2,0,B|144:96|208:96,1,100
288,96,27555,2,0,B|336:112|352:176,2,100
288,96,28919,1,0
192,96,29373,6,0,B|128:96,2,50
288,96,30283,2,0,B|336:144|288:192,1,100
192,192,31192,2,0,B|128:192,2,50
208,288,32101,2,0,B|272:288|288:224,1,100
384,192,33010,5,0
192,192,33919,1,0
192,192,34828,1,0
352,64,35737,1,0
160,64,36646,6,0,B|112:64|112:96,2,50
208,160,37555,2,0,B|176:192|208:224,2,50
304,160,38464,2,0,B|336:192|368:160,2,50
336,64,39373,2,0,B|368:80|400:48,2,50
240,64,40283,6,0,B|144:112,1,100
224,176,41192,2,0,B|320:128,1,100
400,192,42101,5,0
400,192,42555,1,0
336,272,43010,1,0
336,272,43464,1,0
240,304,43919,2,0,B|176:320|144:272,1,100
224,208,44828,2,0,B|272:192|320:240,1,100
384,160,45737,6,0,B|320:80|176:80|112:176,1,300
208,224,47555,1,0
256,144,48010,6,0,B|334:164|334:164|384:99|384:99|385:171|385:171|471:177|471:177|399:214|399:214|407:307|407:307|350:243|350:243|278:279|278:279|313:207|313:207|248:158,1,800
96,80,52555,5,0
160,160,53010,2,0,B|272:160,1,100
272,64,53919,2,0,B|304:64|336:80,1,50
352,96,54373,1,0
448,64,54828,5,0
448,256,55737,1,0
448,256,56192,2,0,B|336:256|304:128,1,200
208,112,57555,2,0,B|208:320,1,200
80,160,59373,1,0
208,240,60055,6,0,B|320:240,1,100
464,240,61192,1,0
384,176,61646,1,0
256,96,62328,5,0
256,240,63010,1,0
256,144,63464,1,0
256,240,63919,2,0,B|48:240,1,200
32,48,65737,5,0
128,48,66192,1,0
224,48,66646,1,0
256,352,68010,5,0
144,192,68919,6,0,B|96:160|144:96,1,100
368,192,70283,2,0,B|416:160|368:96,1,100,0|0
240,256,71646,1,0
240,160,72101,2,0,B|240:48,1,100
240,256,73464,5,0
160,208,73919,2,0,B|224:208|224:208|288:176|288:176|352:176,2,200
64,208,76192,2,0,B|64:96,1,100
256,80,77555,5,0
448,128,78464,1,0
256,96,79373,1,0
96,208,80283,2,0,B|96:320,2,100
96,112,81646,6,0,B|128:48,1,50
272,80,82555,2,0,B|320:112,1,50
336,208,83237,2,0,B|336:272,1,50
144,208,84373,6,0,B|80:208|80:144,1,100
224,64,98464,6,0,B|336:64,1,100
288,160,99373,2,0,B|288:272,1,100
192,224,100283,2,0,B|80:224,1,100
128,128,101192,2,0,B|128:16,1,100
224,64,102101,6,0,B|288:48|336:80,1,100
384,144,103010,2,0,B|416:208|384:256,1,100
304,304,103919,2,0,B|240:320|192:288,1,100
144,208,104828,2,0,B|128:144|160:96,1,100
256,96,105737,5,0
336,160,106192,1,0
336,256,106646,2,0,B|352:304|304:288,2,50
336,160,107555,1,0
400,80,108010,1,0
304,64,108464,2,0,B|272:64|272:96,2,50
336,160,109373,6,0,B|400:160,2,50
272,224,110283,2,0,B|320:272,2,50
176,224,111192,2,0,B|128:272,2,50
96,160,112101,2,0,B|128:96|192:96,1,100
272,64,113010,6,0,B|336:48|368:80|368:80|368:128|304:160,1,200
272,64,114373,1,0
176,80,114828,6,0,B|235:108|208:160|208:160|192:224|256:240,1,200
304,160,116192,1,0
224,96,116646,2,0,B|176:64,2,50
304,160,117555,2,0,B|272:208|208:192,1,100
128,160,118464,2,0,B|64:144,2,50
208,224,119373,2,0,B|192:288|128:304,1,100
80,224,120283,2,0,B|80:160|80:160|128:128,2,100
176,208,121646,5,0
272,208,122101,2,0,B|272:144|272:144|240:112,2,100
304,304,123464,2,0,B|352:304,1,50
256,192,123919,12,0,125283
304,112,125737,6,0,B|304:176,2,50
208,160,126646,2,0,B|208:96,2,50
112,112,127555,5,0
112,256,128464,2,0,B|208:320|320:256,1,200
256,176,129828,1,0
160,176,130283,2,0,B|208:64,2,100
112,256,131646,5,0
112,256,132101,2,0,B|224:304|304:256,2,200
96,160,134373,2,0,B|208:160,1,100
400,160,135737,1,0
304,160,136192,5,0
208,160,136646,1,0
208,160,137101,1,0
208,160,137555,2,0,B|96:160,2,100
304,160,138919,6,0,B|416:160,1,100
384,256,139828,2,0,B|288:288|176:256,1,200
112,192,141192,2,0,B|224:144|320:192,1,200
336,272,142555,6,0,B|128:272,1,200
32,272,143919,2,0,B|32:64,1,200
128,48,145283,2,0,B|176:160,1,100
256,144,146192,6,0,B|334:164|334:164|384:99|384:99|385:171|385:171|471:177|471:177|399:214|399:214|407:307|407:307|350:243|350:243|278:279|278:279|313:207|313:207|248:158,2,800
181,77,153919,6,0,B|96:260|96:260|252:260|252:260|180:74,1,550
280,72,156873,2,0,B|384:80|444:204,1,200
344,304,158464,1,0
156,236,159373,5,0
188,48,160283,1,0
352,148,161192,1,0
148,224,162101,1,0
