osu file format v9

[General]
AudioFilename: 1.mp3
AudioLeadIn: 0
PreviewTime: -1
Countdown: 1
SampleSet: Normal
StackLeniency: 0.7
Mode: 0
LetterboxInBreaks: 1

[Editor]
Bookmarks: 8464,20283,54828,85737,98464,127555,145737,158464,189373
DistanceSpacing: 1
BeatDivisor: 4
GridSize: 8

[Metadata]
Title:Who said I am moe?
Artist:yangzd88
Creator:jameskong1
Version:A bit moe
Source:
Tags:Sherrie__fay

[Difficulty]
HPDrainRate:4
CircleSize:4
OverallDifficulty:4
ApproachRate:5
SliderMultiplier:1.4
SliderTickRate:1

[Events]
//Background and Video events
0,0,"Card-Captor-Sakura2.jpg"
//Break Periods
2,20937,53628
//Storyboard Layer 0 (Background)
//Storyboard Layer 1 (Fail)
//Storyboard Layer 2 (Pass)
//Storyboard Layer 3 (Foreground)
//Storyboard Sound Samples
//Background Colour Transformations
3,100,163,162,255

[TimingPoints]
283,454.545454545455,4,1,0,40,1,0
1533,-100,4,2,0,5,0,0
2101,-100,4,2,0,40,0,0
30169,-200,4,1,0,40,0,0
30851,-100,4,1,0,40,0,0
35396,-200,4,1,0,40,0,0
36078,-100,4,1,0,40,0,0
38123,-200,4,1,0,40,0,0
40169,-100,4,1,0,40,0,0
46533,-200,4,1,0,40,0,0
48464,-100,4,1,0,40,0,0
49714,-133.333333333333,4,1,0,40,0,0
54828,-100,4,1,0,40,0,0
98010,-100,4,1,0,40,0,0
101078,-200,4,1,0,40,0,0
103919,-100,4,1,0,40,0,0
115623,-200,4,1,0,40,0,0
116305,-100,4,1,0,40,0,0
159260,-200,4,1,0,40,0,0
161987,-100,4,1,0,40,0,0
168351,-200,4,1,0,40,0,0
170510,-100,4,1,0,40,0,0
185396,-200,4,1,0,40,0,0

[Colours]
Combo1 : 255,89,89
Combo2 : 255,128,255
Combo3 : 176,176,255
Combo4 : 244,220,0
Combo5 : 204,117,0

[HitObjects]
256,192,283,12,0,1646
148,244,2101,6,0,B|272:308|432:240,2,280
152,176,4146,1,0
152,104,4373,1,0
88,136,4601,1,0
88,136,4828,2,0,B|88:216,1,70
88,280,5283,6,0,B|168:296,1,70
224,304,5737,2,0,B|304:296,1,70
360,288,6192,2,0,B|448:240,1,70
416,184,6646,5,0
416,184,7101,2,0,B|344:144|280:192,2,140
472,56,8464,2,0,B|392:56,1,70
264,48,9146,5,0
160,136,9601,2,0,B|184:176|216:176,2,70
120,80,10283,1,0
64,120,10510,1,0
104,176,10737,1,0
104,176,10964,2,0,B|104:256,1,70
144,304,11419,6,0,B|272:336|432:304,1,280
424,240,12555,2,0,B|424:160,1,70
384,112,13010,2,0,B|360:192|160:112|96:184,1,280
152,272,14373,1,0
152,272,14828,5,0
152,272,15283,1,0
152,272,15737,1,0
152,128,16192,2,0,B|152:200,1,70
272,128,16873,5,0
344,128,17101,1,0
440,232,17555,1,0
368,232,17783,1,0
296,232,18010,1,0
224,232,18237,1,0
96,296,18692,5,0
168,296,18919,1,0
304,296,19373,1,0
448,296,19828,1,0
376,176,20283,6,0,B|376:104,2,70
152,56,54828,6,0,B|112:120|152:208,1,140
216,176,55510,1,0
288,176,55737,2,0,B|328:240|288:328,1,140,0|0
295,310,56419,1,0
224,312,56646,6,0,B|136:312,1,70
128,248,57101,2,0,B|48:248,1,70
56,176,57555,2,0,B|16:112,1,70
88,96,58010,2,0,B|120:32,1,70
256,40,58464,6,0,B|256:112,1,70
104,184,59373,1,0
176,184,59601,1,0
312,184,60055,2,0,B|384:184,1,70
400,48,60737,2,0,B|400:120,1,70
400,192,61192,6,0,B|400:264,3,70
312,152,62328,2,0,B|24:152,1,280
24,224,63464,1,0
24,296,63692,1,0
96,296,63919,2,0,B|256:296,1,140
200,160,64828,6,0,B|352:160,1,140
440,256,65737,6,0,B|360:280|304:216,2,140
424,120,67101,2,0,B|328:120,1,70
216,152,67783,2,0,B|216:240,1,70
216,288,68237,2,0,B|216:72,1,210
424,64,69601,5,0
384,120,69828,1,0
384,192,70055,1,0
352,256,70283,1,0
