osu file format v13

[General]
AudioFilename: strangeatractor (Cut Size).mp3
AudioLeadIn: 0
PreviewTime: 47681
Countdown: 0
SampleSet: Soft
StackLeniency: 0.7
Mode: 0
LetterboxInBreaks: 0
WidescreenStoryboard: 0

[Editor]
Bookmarks: 36583
DistanceSpacing: 0.7
BeatDivisor: 4
GridSize: 4
TimelineZoom: 1

[Metadata]
Title:strangeatractor
TitleUnicode:ストレンジアトラクター
Artist:yanaginagi
ArtistUnicode:やなぎなぎ
Creator:HabiHolic
Version:Insane
Source:
Tags:Kibbleru KantoKun qoot8123
BeatmapID:511482
BeatmapSetID:218166

[Difficulty]
HPDrainRate:7
CircleSize:4
OverallDifficulty:7
ApproachRate:9
SliderMultiplier:1.8
SliderTickRate:1

[Events]
//Background and Video events
0,0,"BG.jpg",0,0
//Break Periods
2,73546,81070
//Storyboard Layer 0 (Background)
//Storyboard Layer 1 (Fail)
//Storyboard Layer 2 (Pass)
//Storyboard Layer 3 (Foreground)
//Storyboard Sound Samples
//Background Colour Transformations
3,100,163,162,255

[TimingPoints]
2595,346.820809248555,4,2,0,35,1,0
13693,-100,4,2,0,50,0,0
16294,-100,4,2,1,50,0,0
16641,-100,4,2,0,50,0,0
16988,-100,4,2,1,50,0,0
17161,-100,4,2,0,50,0,0
19068,-100,4,2,1,50,0,0
19936,-100,4,2,0,50,0,0
21843,-100,4,2,1,50,0,0
22190,-100,4,2,0,50,0,0
24097,-100,4,2,1,75,0,0
48201,-100,4,2,1,75,0,1
58779,-100,4,2,1,75,0,0
59300,-100,4,2,1,75,0,1
70571,-100,4,2,1,75,0,0
116178,-100,4,2,1,75,0,1
126756,-100,4,2,1,75,0,0
127277,-100,4,2,1,75,0,1
138548,-100,4,2,1,75,0,0

[Colours]
Combo1 : 128,255,0
Combo2 : 61,141,239
Combo3 : 192,192,192
Combo4 : 92,234,237

[HitObjects]
212,152,2421,5,0,0:0:0:0:
212,152,2508,1,0,0:0:0:0:
212,152,2595,2,0,P|220:104|212:64,1,90,4|0,0:0|0:0,0:0:0:0:
128,104,2941,1,2,0:0:0:0:
308,100,3115,1,0,0:0:0:0:
128,208,3288,6,0,L|36:200,1,90
208,360,3635,2,0,P|220:316|212:272,1,90,2|0,0:0|0:0,0:0:0:0:
120,312,3982,1,0,0:0:0:0:
212,152,4155,1,0,0:0:0:0:
300,208,4329,2,0,L|396:200,1,90,2|0,0:0|0:0,0:0:0:0:
500,60,4675,2,0,P|420:27|349:77,1,180,0|2,0:0|0:0,0:0:0:0:
208,248,5196,5,0,0:0:0:0:
208,248,5282,1,0,0:0:0:0:
208,248,5369,2,0,L|112:244,1,90
0,128,5716,2,0,L|96:124,1,90,2|0,0:0|0:0,0:0:0:0:
184,64,6063,1,0,0:0:0:0:
280,128,6236,1,0,0:0:0:0:
468,56,6410,2,0,L|372:60,1,90,2|0,0:0|0:0,0:0:0:0:
184,176,6756,2,0,P|176:224|192:272,1,90,0|0,0:0|0:0,0:0:0:0:
272,320,7103,6,0,L|368:312,1,90,2|0,0:0|0:0,0:0:0:0:
500,180,7450,2,0,P|416:154|348:207,1,180,0|2,0:0|0:0,0:0:0:0:
432,244,7970,1,0,0:0:0:0:
432,244,8057,1,0,0:0:0:0:
432,244,8144,1,4,0:0:0:0:
412,68,8317,1,0,0:0:0:0:
332,136,8490,6,0,L|240:144,1,90,2|0,0:0|0:0,0:0:0:0:
120,176,8837,2,0,P|124:132|112:84,1,90,2|0,0:0|0:0,0:0:0:0:
208,260,9184,2,0,P|204:304|216:352,1,90,2|0,0:0|0:0,0:0:0:0:
308,308,9531,1,2,0:0:0:0:
276,104,9704,1,0,0:0:0:0:
480,240,9878,2,0,L|384:232,1,90,2|0,0:0|0:0,0:0:0:0:
312,64,10225,5,2,0:0:0:0:
390,232,10398,1,0,0:0:0:0:
196,168,10571,2,0,P|176:124|180:80,1,90,2|0,0:0|0:0,0:0:0:0:
208,304,10918,2,0,P|168:320|116:320,1,90,2|0,0:0|0:0,0:0:0:0:
121,320,11178,1,0,0:0:0:0:
121,320,11265,1,2,0:0:0:0:
316,208,11438,2,0,P|364:196|412:204,1,90,0|2,0:0|0:0,0:0:0:0:
472,272,11785,1,0,0:0:0:0:
316,208,11959,1,2,0:0:0:0:
400,352,12132,1,0,0:0:0:0:
420,168,12305,6,0,P|428:128|420:76,1,90,2|0,0:0|0:0,0:0:0:0:
336,24,12652,2,0,L|236:32,1,90,2|0,0:0|0:0,0:0:0:0:
168,104,12999,1,2,0:0:0:0:
64,72,13173,1,0,0:0:0:0:
127,207,13346,2,0,P|194:213|249:176,1,135
284,112,13693,6,0,L|384:120,1,90,4|0,0:0|0:0,0:0:0:0:
472,72,14040,1,2,0:0:0:0:
472,72,14213,1,0,0:0:0:0:
340,296,14386,2,0,P|324:252|332:204,1,90,0|0,0:0|0:0,0:0:0:0:
420,244,14733,1,2,0:0:0:0:
224,188,14907,2,0,L|128:196,1,90,0|0,0:0|0:0,0:0:0:0:
40,136,15253,1,0,0:0:0:0:
38,303,15427,2,0,L|128:296,1,90,2|0,0:0|0:0,0:0:0:0:
356,288,15774,6,0,P|272:272|216:344,1,180,0|2,0:0|0:0,0:0:0:0:
304,352,16294,1,2,0:0:0:0:
276,188,16467,2,0,P|284:144|276:96,1,90,2|0,0:0|0:0,0:0:0:0:
277,99,16727,1,0,0:0:0:0:
277,99,16814,1,2,0:0:0:0:
184,144,16988,1,2,0:0:0:0:
372,140,17161,1,0,0:0:0:0:
188,244,17334,2,0,L|92:236,1,90,0|2,0:0|0:0,0:0:0:0:
32,152,17681,1,0,0:0:0:0:
288,352,17855,6,0,P|296:304|288:256,1,90,0|0,0:0|0:0,0:0:0:0:
176,136,18201,1,2,0:0:0:0:
176,136,18548,2,0,L|272:132,1,90,0|0,0:0|0:0,0:0:0:0:
480,64,18895,2,0,L|384:60,1,90,2|2,0:0|0:0,0:0:0:0:
390,60,19155,1,0,0:0:0:0:
390,60,19242,1,2,0:0:0:0:
344,228,19415,5,0,0:0:0:0:
345,205,19501,1,0,0:0:0:0:
347,183,19588,1,2,0:0:0:0:
264,32,19762,1,0,0:0:0:0:
176,136,19936,2,0,P|128:144|76:140,1,90,2|0,0:0|0:0,0:0:0:0:
4,311,20282,2,0,P|79:267|162:294,1,180,2|0,0:0|0:0,0:0:0:0:
260,352,20803,1,0,0:0:0:0:
344,288,20976,2,0,P|360:244|356:196,1,90,2|0,0:0|0:0,0:0:0:0:
416,108,21323,6,0,L|516:100,1,90
468,196,21670,1,2,0:0:0:0:
456,16,21843,1,2,0:0:0:0:
456,16,21930,1,0,0:0:0:0:
456,16,22016,1,2,0:0:0:0:
320,112,22190,1,0,0:0:0:0:
320,112,22277,1,0,0:0:0:0:
320,112,22363,1,2,0:0:0:0:
360,216,22537,6,0,P|376:260|376:312,1,90,0|0,0:0|0:0,0:0:0:0:
284,276,22884,1,0,0:0:0:0:
200,332,23057,2,0,P|184:288|184:236,1,90,2|0,0:0|0:0,0:0:0:0:
252,172,23404,1,2,0:0:0:0:
88,292,23577,1,0,0:0:0:0:
284,276,23751,2,0,L|380:272,1,90,2|0,0:0|0:0,0:0:0:0:
440,344,24097,1,8,0:0:0:0:
476,128,24271,1,8,0:0:0:0:
476,128,24618,6,0,P|408:184|320:168,1,180,4|2,0:0|0:0,0:0:0:0:
256,88,25138,1,8,0:0:0:0:
160,124,25311,1,2,0:0:0:0:
160,124,25398,1,8,0:0:0:0:
160,124,25485,2,0,L|64:132,1,90,0|2,0:0|0:0,0:0:0:0:
0,56,25831,1,8,0:0:0:0:
24,240,26005,2,0,B|88:248|88:248|128:280|128:280|200:288,1,180,2|2,0:0|0:0,0:0:0:0:
272,224,26525,1,8,0:0:0:0:
237,34,26699,5,2,0:0:0:0:
240,56,26785,1,8,0:0:0:0:
244,79,26872,1,2,0:0:0:0:
352,128,27045,1,2,0:0:0:0:
152,160,27219,2,0,P|112:160|60:152,1,90,8|2,0:0|0:0,0:0:0:0:
62,152,27479,1,8,0:0:0:0:
62,152,27566,1,2,0:0:0:0:
120,48,27739,5,2,0:0:0:0:
100,276,27912,1,8,0:0:0:0:
240,204,28086,1,2,0:0:0:0:
240,204,28173,1,8,0:0:0:0:
240,204,28259,2,0,P|288:196|336:196,1,90,2|2,0:0|0:0,0:0:0:0:
416,252,28606,1,8,0:0:0:0:
284,104,28779,5,8,0:0:0:0:
308,284,28953,1,2,0:0:0:0:
488,144,29126,2,0,L|392:140,1,90,2|8,0:0|0:0,0:0:0:0:
398,140,29386,1,2,0:0:0:0:
398,140,29473,1,2,0:0:0:0:
240,204,29647,5,2,0:0:0:0:
276,48,29820,1,2,0:0:0:0:
152,136,29993,1,8,0:0:0:0:
150,113,30079,1,2,0:0:0:0:
148,91,30166,1,2,0:0:0:0:
44,176,30340,2,0,L|52:268,1,90,2|2,0:0|0:0,0:0:0:0:
51,265,30600,1,2,0:0:0:0:
51,265,30687,1,8,0:0:0:0:
303,283,30860,2,0,P|221:257|150:307,1,180,2|2,0:0|0:0,0:0:0:0:
392,352,31381,6,0,P|416:312|416:264,1,90,8|0,0:0|0:0,0:0:0:0:
372,104,31727,2,0,P|348:144|348:192,1,90,2|2,0:0|0:0,0:0:0:0:
444,172,32074,1,8,0:0:0:0:
248,200,32248,1,2,0:0:0:0:
248,200,32334,1,8,0:0:0:0:
248,200,32421,1,2,0:0:0:0:
324,284,32595,2,0,L|416:280,1,90,2|8,0:0|0:0,0:0:0:0:
413,280,32941,1,0,0:0:0:0:
327,127,33115,6,0,P|245:97|166:135,1,180,2|8,0:0|0:0,0:0:0:0:
120,224,33635,1,2,0:0:0:0:
120,224,33722,1,8,0:0:0:0:
120,224,33808,2,0,P|72:232|28:228,1,90,2|2,0:0|0:0,0:0:0:0:
72,136,34155,1,8,0:0:0:0:
224,204,34329,2,2,P|308:188|376:248,1,180,2|2,0:0|0:0,0:0:0:0:
288,372,34849,2,0,P|276:336|288:280,1,90,8|0,0:0|0:0,0:0:0:0:
372,336,35196,1,8,0:0:0:0:
184,324,35369,5,2,0:0:0:0:
139,322,35455,1,2,0:0:0:0:
94,320,35542,1,8,0:0:0:0:
49,318,35629,1,2,0:0:0:0:
4,316,35715,1,2,0:0:0:0:
64,128,35889,6,0,L|160:124,1,90,2|0,0:0|0:0,0:0:0:0:
340,192,36236,2,0,L|244:188,1,90,2|0,0:0|0:0,0:0:0:0:
60,264,36583,2,0,L|156:260,1,90,2|0,0:0|0:0,0:0:0:0:
336,328,36930,2,0,L|240:324,1,90,2|0,0:0|0:0,0:0:0:0:
248,188,37277,6,0,P|240:140|248:96,1,90,2|0,0:0|0:0,0:0:0:0:
320,36,37623,1,2,0:0:0:0:
148,132,37797,1,0,0:0:0:0:
148,132,37884,1,0,0:0:0:0:
148,132,37970,2,0,L|56:128,1,90,2|0,0:0|0:0,0:0:0:0:
0,212,38317,1,2,0:0:0:0:
220,216,38490,1,0,0:0:0:0:
220,216,38577,1,0,0:0:0:0:
220,216,38663,2,0,L|312:212,1,90,2|0,0:0|0:0,0:0:0:0:
432,244,39011,6,0,P|424:200|432:152,1,90,2|0,0:0|0:0,0:0:0:0:
496,72,39358,1,2,0:0:0:0:
408,24,39531,2,0,L|316:32,1,90,0|2,0:0|0:0,0:0:0:0:
256,124,39878,1,0,0:0:0:0:
104,24,40051,2,0,L|196:32,1,90,2|0,0:0|0:0,0:0:0:0:
256,124,40398,1,2,0:0:0:0:
16,104,40571,1,0,0:0:0:0:
176,240,40745,1,2,0:0:0:0:
172,222,40831,1,0,0:0:0:0:
169,204,40918,1,0,0:0:0:0:
256,124,41092,6,0,P|304:128|344:112,1,90,8|2,0:0|0:0,0:0:0:0:
342,113,41352,1,2,0:0:0:0:
342,113,41438,1,4,0:0:0:0:
408,32,41612,1,2,0:0:0:0:
504,204,41785,2,0,L|404:200,1,90,8|0,0:0|0:0,0:0:0:0:
208,256,42132,2,0,P|268:316|352:296,1,180,2|8,0:0|0:0,0:0:0:0:
252,151,42652,6,0,P|207:156|162:153,1,90,0|2,0:0|0:0,0:0:0:0:
76,96,42999,1,2,0:0:0:0:
23,264,43173,2,0,P|68:259|113:262,1,90,8|0,0:0|0:0,0:0:0:0:
340,208,43519,2,0,P|360:140|336:76,1,135,2|0,0:0|0:0,0:0:0:0:
280,28,43866,2,0,L|184:36,1,90,8|2,0:0|0:0,0:0:0:0:
8,168,44213,6,0,P|92:190|160:136,1,180,2|8,0:0|0:0,0:0:0:0:
300,76,44733,2,0,L|296:168,1,90,0|2,0:0|0:0,0:0:0:0:
192,216,45080,2,0,L|196:308,1,90,2|8,0:0|0:0,0:0:0:0:
288,364,45427,2,0,P|352:308|448:328,1,180,2|2,0:0|0:0,0:0:0:0:
500,228,45947,2,0,L|492:136,1,90,8|0,0:0|0:0,0:0:0:0:
412,80,46294,1,2,0:0:0:0:
336,156,46467,1,8,0:0:0:0:
500,228,46641,1,2,0:0:0:0:
500,228,46727,1,8,0:0:0:0:
500,228,46814,1,2,0:0:0:0:
408,360,46988,5,8,0:0:0:0:
464,144,47681,5,8,0:0:0:0:
464,144,47855,1,8,0:0:0:0:
208,232,48201,6,0,P|124:208|48:268,1,180,4|2,0:0|0:0,0:0:0:0:
140,304,48722,1,8,0:0:0:0:
308,264,48895,1,2,0:0:0:0:
309,241,48981,1,8,0:0:0:0:
311,219,49068,1,2,0:0:0:0:
240,48,49242,2,0,L|244:140,1,90,2|8,0:0|0:0,0:0:0:0:
239,331,49589,2,0,P|323:357|393:306,1,180,2|2,0:0|0:0,0:0:0:0:
408,200,50109,1,8,0:0:0:0:
200,228,50282,5,2,0:0:0:0:
200,228,50369,1,8,0:0:0:0:
200,228,50456,1,2,0:0:0:0:
384,300,50629,2,0,L|480:296,1,90,2|8,0:0|0:0,0:0:0:0:
284,352,50976,2,0,L|188:348,1,90,0|2,0:0|0:0,0:0:0:0:
49,289,51323,1,2,0:0:0:0:
72,288,51409,1,2,0:0:0:0:
94,286,51496,1,8,0:0:0:0:
120,120,51670,1,0,0:0:0:0:
336,160,51843,6,0,L|240:156,1,90,2|2,0:0|0:0,0:0:0:0:
164,216,52190,1,8,0:0:0:0:
392,256,52363,2,0,L|488:252,1,90,0|2,0:0|0:0,0:0:0:0:
296,360,52710,2,0,P|284:320|292:268,1,90,2|8,0:0|0:0,0:0:0:0:
444,144,53057,1,2,0:0:0:0:
444,144,53144,1,8,0:0:0:0:
444,144,53230,1,2,0:0:0:0:
220,184,53404,1,2,0:0:0:0:
360,44,53577,1,8,0:0:0:0:
392,256,53751,1,2,0:0:0:0:
220,184,53924,6,0,B|152:192|152:192|120:216|120:216|44:224,1,180,4|8,0:0|0:0,0:0:0:0:
76,84,54444,1,2,0:0:0:0:
77,106,54530,1,8,0:0:0:0:
79,128,54617,1,2,0:0:0:0:
172,288,54791,1,2,0:0:0:0:
48,223,54964,1,8,0:0:0:0:
308,240,55138,6,0,P|324:192|312:144,1,90,0|2,0:0|0:0,0:0:0:0:
240,96,55485,1,2,0:0:0:0:
292,344,55658,2,0,L|388:336,1,90,8|0,0:0|0:0,0:0:0:0:
468,272,56005,1,2,0:0:0:0:
344,144,56178,1,2,0:0:0:0:
256,300,56352,2,0,L|352:292,1,90,8|0,0:0|0:0,0:0:0:0:
452,168,56699,6,0,P|456:124|448:72,1,90,2|2,0:0|0:0,0:0:0:0:
264,56,57045,1,8,0:0:0:0:
376,244,57219,1,2,0:0:0:0:
353,242,57305,1,8,0:0:0:0:
331,241,57392,1,2,0:0:0:0:
140,188,57566,2,0,L|232:180,1,90,2|8,0:0|0:0,0:0:0:0:
188,332,57912,2,0,P|100:356|32:304,1,180,2|2,0:0|0:0,0:0:0:0:
32,208,58433,1,8,0:0:0:0:
188,332,58606,1,0,0:0:0:0:
200,104,58779,5,8,0:0:0:0:
200,104,58953,1,8,0:0:0:0:
468,152,59300,6,0,B|456:221|456:221|464:265|464:265|456:329,1,180,4|2,0:0|0:0,0:0:0:0:
356,364,59820,1,8,0:0:0:0:
288,180,59993,1,2,0:0:0:0:
289,197,60079,1,8,0:0:0:0:
290,215,60166,1,2,0:0:0:0:
136,340,60340,2,0,L|232:332,1,90,2|8,0:0|0:0,0:0:0:0:
480,324,60687,6,0,P|492:240|480:136,1,180,2|2,0:0|0:0,0:0:0:0:
482,145,61207,1,8,0:0:0:0:
292,240,61381,1,2,0:0:0:0:
292,240,61467,1,8,0:0:0:0:
292,240,61554,1,2,0:0:0:0:
400,80,61727,2,0,L|304:88,1,90,2|8,0:0|0:0,0:0:0:0:
211,299,62074,2,0,P|290:337|369:299,1,180,2|2,0:0|0:0,0:0:0:0:
204,200,62595,2,0,L|104:208,1,90,8|2,0:0|0:0,0:0:0:0:
96,188,62855,1,8,0:0:0:0:
76,168,62941,1,2,0:0:0:0:
28,288,63115,5,2,0:0:0:0:
204,200,63288,1,8,0:0:0:0:
319,71,63462,2,0,P|236:50|169:105,1,180,2|2,0:0|0:0,0:0:0:0:
436,120,63982,2,0,P|440:72|436:28,1,90,8|2,0:0|0:0,0:0:0:0:
436,30,64242,1,8,0:0:0:0:
436,30,64329,1,2,0:0:0:0:
256,136,64502,1,2,0:0:0:0:
360,264,64675,2,0,L|460:260,1,90,8|2,0:0|0:0,0:0:0:0:
312,352,65022,6,0,L|100:344,1,180,4|8,0:0|0:0,0:0:0:0:
40,252,65542,1,2,0:0:0:0:
40,252,65629,1,8,0:0:0:0:
40,252,65716,1,2,0:0:0:0:
156,164,65889,1,0,0:0:0:0:
100,332,66063,1,8,0:0:0:0:
216,240,66236,6,0,P|296:248|368:184,1,180,2|2,0:0|0:0,0:0:0:0:
352,80,66756,1,8,0:0:0:0:
492,124,66930,1,2,0:0:0:0:
474,125,67016,1,8,0:0:0:0:
456,127,67103,1,2,0:0:0:0:
224,188,67277,2,0,L|316:192,1,90,2|8,0:0|0:0,0:0:0:0:
492,280,67623,6,0,P|408:268|348:340,1,180,2|2,0:0|0:0,0:0:0:0:
349,333,68144,1,8,0:0:0:0:
320,148,68317,1,0,0:0:0:0:
408,196,68490,2,0,L|504:188,1,90,2|2,0:0|0:0,0:0:0:0:
497,188,68837,1,8,0:0:0:0:
368,60,69011,1,2,0:0:0:0:
368,60,69097,1,8,0:0:0:0:
367,59,69184,2,0,P|280:55|220:118,1,180,4|8,0:0|0:0,0:0:0:0:
240,216,69704,1,0,0:0:0:0:
360,328,69878,6,0,L|456:320,1,90,2|2,0:0|0:0,0:0:0:0:
464,140,70225,1,8,0:0:0:0:
360,328,70398,1,2,0:0:0:0:
508,224,70571,1,4,0:0:0:0:
256,192,70658,12,4,73346,0:0:0:0:
192,128,81670,6,0,L|88:124,1,90,4|0,0:0|0:0,0:0:0:0:
36,52,82016,1,8,0:0:0:0:
192,128,82190,1,0,0:0:0:0:
92,308,82363,2,0,P|108:264|100:220,1,90,2|2,0:0|0:0,0:0:0:0:
16,256,82710,1,0,0:0:0:0:
192,268,82884,2,0,P|272:252|356:304,1,180,8|2,0:0|0:0,0:0:0:0:
456,348,83404,2,0,L|464:256,1,90,8|2,0:0|0:0,0:0:0:0:
463,258,83664,1,8,0:0:0:0:
463,258,83751,1,2,0:0:0:0:
500,156,83924,5,2,0:0:0:0:
400,116,84097,2,0,P|364:120|304:112,1,90,8|0,0:0|0:0,0:0:0:0:
208,52,84444,2,0,P|212:96|200:148,1,90,2|2,0:0|0:0,0:0:0:0:
202,140,84704,1,2,0:0:0:0:
202,140,84791,1,8,0:0:0:0:
276,304,84964,2,0,P|272:260|284:208,1,90,0|2,0:0|0:0,0:0:0:0:
372,152,85311,1,2,0:0:0:0:
168,240,85485,1,0,0:0:0:0:
276,304,85658,6,0,B|344:308|344:308|376:336|376:336|456:344,1,180,8|2,0:0|0:0,0:0:0:0:
432,248,86178,1,8,0:0:0:0:
236,176,86352,1,2,0:0:0:0:
234,153,86438,1,8,0:0:0:0:
232,131,86525,1,2,0:0:0:0:
344,20,86699,2,0,L|340:120,1,90,2|8,0:0|0:0,0:0:0:0:
152,56,87045,6,0,P|72:36|-4:96,1,180,2|2,0:0|0:0,0:0:0:0:
84,219,87566,2,0,P|95:176|89:132,1,90,8|2,0:0|0:0,0:0:0:0:
89,132,87826,1,2,0:0:0:0:
89,132,87912,1,2,0:0:0:0:
44,328,88086,2,0,P|88:324|136:328,1,90,2|2,0:0|0:0,0:0:0:0:
336,259,88433,2,0,P|250:269|193:203,1,180,8|2,0:0|0:0,0:0:0:0:
208,96,88953,1,8,0:0:0:0:
385,121,89126,1,2,0:0:0:0:
384,144,89212,1,8,0:0:0:0:
382,166,89299,1,2,0:0:0:0:
132,176,89473,6,0,L|32:168,1,90,2|8,0:0|0:0,0:0:0:0:
12,80,89820,1,0,0:0:0:0:
216,240,89993,2,0,L|316:232,1,90,2|0,0:0|0:0,0:0:0:0:
382,166,90340,1,2,0:0:0:0:
328,320,90514,2,0,L|428:312,1,90,0|2,0:0|0:0,0:0:0:0:
492,244,90861,1,0,0:0:0:0:
328,320,91034,1,2,0:0:0:0:
296,104,91207,1,2,0:0:0:0:
240,264,91381,5,8,0:0:0:0:
380,164,91554,1,2,0:0:0:0:
156,108,91727,2,0,L|164:204,1,90,8|0,0:0|0:0,0:0:0:0:
240,264,92074,1,8,0:0:0:0:
380,164,92248,2,0,L|480:160,1,90,2|8,0:0|0:0,0:0:0:0:
275,40,92595,6,0,P|187:53|97:49,1,180,4|2,0:0|0:0,0:0:0:0:
8,104,93115,1,8,0:0:0:0:
72,236,93288,1,2,0:0:0:0:
74,218,93374,1,8,0:0:0:0:
75,200,93461,1,2,0:0:0:0:
160,40,93635,2,0,L|168:140,1,90,2|8,0:0|0:0,0:0:0:0:
272,312,93982,2,0,L|284:120,1,180,2|2,0:0|0:0,0:0:0:0:
360,64,94502,1,8,0:0:0:0:
184,184,94675,5,2,0:0:0:0:
184,184,94762,1,8,0:0:0:0:
184,184,94849,1,2,0:0:0:0:
108,64,95022,1,2,0:0:0:0:
20,236,95196,2,0,L|112:240,1,90,8|2,0:0|0:0,0:0:0:0:
109,239,95456,1,8,0:0:0:0:
109,239,95542,1,2,0:0:0:0:
272,360,95716,2,0,P|280:312|272:264,1,90,2|8,0:0|0:0,0:0:0:0:
320,164,96063,1,2,0:0:0:0:
342,165,96149,1,8,0:0:0:0:
364,167,96236,1,2,0:0:0:0:
480,288,96410,5,2,0:0:0:0:
480,288,96756,2,0,P|496:200|480:108,1,180,8|2,0:0|0:0,0:0:0:0:
392,40,97277,2,0,L|292:48,1,90,8|2,0:0|0:0,0:0:0:0:
302,47,97537,1,8,0:0:0:0:
302,47,97623,1,2,0:0:0:0:
128,176,97797,2,0,L|217:168,1,90,2|8,0:0|0:0,0:0:0:0:
304,228,98144,1,0,0:0:0:0:
32,248,98317,6,0,P|40:160|32:64,1,180,2|8,0:0|0:0,0:0:0:0:
132,24,98837,1,2,0:0:0:0:
132,24,98924,1,8,0:0:0:0:
132,24,99011,1,2,0:0:0:0:
160,208,99184,1,2,0:0:0:0:
228,80,99358,2,0,L|328:84,1,90,8|0,0:0|0:0,0:0:0:0:
503,176,99704,6,0,P|427:218|343:191,1,180,2|8,0:0|0:0,0:0:0:0:
144,172,100225,1,2,0:0:0:0:
166,170,100311,1,8,0:0:0:0:
188,168,100398,1,2,0:0:0:0:
116,288,100571,2,0,L|20:280,1,90,2|8,0:0|0:0,0:0:0:0:
4,176,100918,1,0,0:0:0:0:
260,88,101092,6,0,P|296:152|264:248,1,180,2|8,0:0|0:0,0:0:0:0:
264,247,101612,1,2,0:0:0:0:
62,226,101785,1,2,0:0:0:0:
84,224,101871,1,2,0:0:0:0:
106,223,101958,1,2,0:0:0:0:
129,222,102045,1,2,0:0:0:0:
151,221,102131,1,8,0:0:0:0:
352,296,102306,2,0,P|281:346|197:321,1,180,4|2,0:0|0:0,0:0:0:0:
176,112,102826,5,8,0:0:0:0:
36,228,102999,1,2,0:0:0:0:
92,28,103173,1,8,0:0:0:0:
284,84,103346,1,2,0:0:0:0:
312,105,103432,1,2,0:0:0:0:
347,115,103519,1,8,0:0:0:0:
382,113,103606,1,2,0:0:0:0:
415,99,103692,1,2,0:0:0:0:
442,75,103779,1,2,0:0:0:0:
458,43,103866,6,0,L|472:232,1,180,4|2,0:0|0:0,0:0:0:0:
416,320,104386,2,0,P|376:312|316:316,1,90,0|2,0:0|0:0,0:0:0:0:
236,360,104733,1,0,0:0:0:0:
188,200,104907,2,0,P|228:208|288:204,1,90,2|0,0:0|0:0,0:0:0:0:
432,116,105253,2,0,P|392:108|332:112,1,90,2|0,0:0|0:0,0:0:0:0:
232,88,105600,1,2,0:0:0:0:
232,88,105774,1,0,0:0:0:0:
376,232,105947,2,0,L|372:324,1,90,0|0,3:0|3:0,0:0:0:0:
372,321,106294,1,0,3:0:0:0:
480,204,106467,1,0,0:0:0:0:
264,216,106641,6,0,P|184:228|80:220,1,180,2|2,0:0|0:0,0:0:0:0:
8,136,107161,1,0,0:0:0:0:
20,332,107334,2,0,P|64:324|116:324,1,90,2|0,0:0|3:0,0:0:0:0:
204,360,107681,1,2,0:0:0:0:
296,320,107855,1,0,0:0:0:0:
228,144,108028,6,0,L|236:244,1,90,2|0,0:0|0:0,0:0:0:0:
296,320,108375,1,8,0:0:0:0:
140,200,108548,1,2,0:0:0:0:
360,240,108722,1,2,0:0:0:0:
360,240,108808,1,8,0:0:0:0:
360,240,108895,2,0,L|460:248,1,90,2|8,0:0|0:0,0:0:0:0:
500,168,109242,1,2,0:0:0:0:
284,160,109415,6,0,B|216:152|216:152|180:120|180:120|112:116,1,180,4|8,0:0|0:0,0:0:0:0:
8,240,109936,1,2,0:0:0:0:
30,238,110022,1,8,0:0:0:0:
52,236,110109,1,2,0:0:0:0:
232,332,110282,2,0,L|136:328,1,90,2|8,0:0|0:0,0:0:0:0:
180,140,110629,2,0,P|188:96|180:48,1,90,0|2,0:0|0:0,0:0:0:0:
100,92,110976,1,2,0:0:0:0:
20,48,111149,2,0,P|12:92|20:140,1,90,8|0,0:0|0:0,0:0:0:0:
120,288,111496,2,0,L|212:284,1,90,2|2,0:0|0:0,0:0:0:0:
464,184,111843,2,0,L|372:188,1,90,8|2,0:0|0:0,0:0:0:0:
374,187,112103,1,8,0:0:0:0:
374,187,112190,1,2,0:0:0:0:
288,112,112363,5,2,0:0:0:0:
128,232,112537,1,8,0:0:0:0:
208,40,112710,2,0,L|112:44,1,90,2|2,0:0|0:0,0:0:0:0:
32,104,113057,1,8,0:0:0:0:
32,104,113404,6,0,B|40:172|40:172|28:212|28:212|40:292,1,180,2|2,0:0|0:0,0:0:0:0:
128,348,113924,1,8,0:0:0:0:
192,168,114097,1,2,0:0:0:0:
128,348,114271,1,8,0:0:0:0:
156,116,114444,1,2,0:0:0:0:
220,264,114618,1,8,0:0:0:0:
251,261,114704,1,2,0:0:0:0:
282,258,114791,1,2,0:0:0:0:
388,324,114964,5,8,0:0:0:0:
464,72,115658,5,8,0:0:0:0:
464,72,115831,1,8,0:0:0:0:
224,164,116178,6,0,P|168:224|72:212,1,180,4|2,0:0|0:0,0:0:0:0:
24,124,116699,1,8,0:0:0:0:
216,60,116872,1,2,0:0:0:0:
238,62,116958,1,8,0:0:0:0:
260,64,117045,1,2,0:0:0:0:
472,124,117219,2,0,L|372:128,1,90,2|8,0:0|0:0,0:0:0:0:
176,216,117566,2,0,L|276:220,1,90,0|2,0:0|0:0,0:0:0:0:
344,288,117912,1,2,0:0:0:0:
64,256,118086,2,0,P|68:208|64:164,1,90,8|2,0:0|0:0,0:0:0:0:
64,166,118346,1,8,0:0:0:0:
64,166,118433,1,2,0:0:0:0:
16,80,118606,5,2,0:0:0:0:
64,256,118779,1,8,0:0:0:0:
300,136,118953,2,0,P|248:192|148:172,1,180,2|0,0:0|0:0,0:0:0:0:
212,104,119473,1,8,0:0:0:0:
168,328,119647,1,2,0:0:0:0:
166,305,119733,1,8,0:0:0:0:
165,283,119820,1,2,0:0:0:0:
32,160,119993,2,0,P|80:164|136:160,1,90,2|8,0:0|0:0,0:0:0:0:
400,192,120340,6,0,P|328:164|252:224,1,180,2|2,0:0|0:0,0:0:0:0:
504,236,120860,2,0,P|500:188|504:140,1,90,8|2,0:0|0:0,0:0:0:0:
503,146,121121,1,8,0:0:0:0:
503,146,121207,1,2,0:0:0:0:
416,44,121381,2,0,L|320:48,1,90,2|8,0:0|0:0,0:0:0:0:
184,48,121727,1,0,0:0:0:0:
92,76,121901,2,0,P|153:137|240:125,1,180,4|8,0:0|0:0,0:0:0:0:
360,104,122421,5,2,0:0:0:0:
359,126,122507,1,8,0:0:0:0:
358,148,122594,1,2,0:0:0:0:
240,336,122768,2,0,L|236:246,1,90,2|8,0:0|0:0,0:0:0:0:
28,148,123115,2,0,P|113:166|180:111,1,180,2|2,0:0|0:0,0:0:0:0:
256,28,123635,2,0,L|356:32,1,90,8|0,0:0|0:0,0:0:0:0:
496,176,123982,2,0,L|396:180,1,90,2|2,0:0|0:0,0:0:0:0:
296,120,124329,1,8,0:0:0:0:
192,312,124502,1,0,0:0:0:0:
128,216,124675,6,0,P|84:208|32:216,1,90,2|2,0:0|0:0,0:0:0:0:
80,304,125022,1,8,0:0:0:0:
232,208,125196,2,0,P|248:164|248:120,1,90,0|2,0:0|0:0,0:0:0:0:
168,40,125542,2,0,L|68:44,1,90,2|8,0:0|0:0,0:0:0:0:
248,116,125889,2,0,L|436:120,1,180,2|2,0:0|0:0,0:0:0:0:
504,248,126410,2,0,L|404:256,1,90,8|0,0:0|0:0,0:0:0:0:
324,324,126756,1,2,0:0:0:0:
304,104,126930,1,2,0:0:0:0:
400,248,127103,1,8,0:0:0:0:
232,272,127277,6,0,P|147:248|68:288,1,180,4|2,0:0|0:0,0:0:0:0:
32,176,127797,2,0,P|40:132|36:88,1,90,8|2,0:0|0:0,0:0:0:0:
35,87,128057,1,8,0:0:0:0:
35,87,128144,1,2,0:0:0:0:
156,32,128317,2,0,P|148:76|152:120,1,90,2|8,0:0|0:0,0:0:0:0:
416,168,128664,2,0,P|348:124|248:156,1,180,2|2,0:0|0:0,0:0:0:0:
192,220,129184,1,8,0:0:0:0:
248,32,129358,1,0,0:0:0:0:
104,156,129531,2,0,L|12:168,2,90,2|2|8,0:0|0:0|0:0,0:0:0:0:
123,303,130051,6,0,P|209:321|280:270,1,180,2|2,0:0|0:0,0:0:0:0:
208,96,130571,2,0,L|216:192,1,90,8|2,0:0|0:0,0:0:0:0:
215,185,130831,1,8,0:0:0:0:
215,185,130918,1,2,0:0:0:0:
376,224,131092,1,2,0:0:0:0:
208,96,131265,1,8,0:0:0:0:
504,136,131438,6,0,L|412:132,1,90,0|2,0:0|0:0,0:0:0:0:
344,60,131785,1,2,0:0:0:0:
376,224,131959,1,8,0:0:0:0:
264,132,132132,1,2,0:0:0:0:
265,149,132218,1,8,0:0:0:0:
266,167,132305,1,2,0:0:0:0:
360,268,132479,1,2,0:0:0:0:
172,320,132652,2,0,L|176:228,1,90,8|0,0:0|0:0,0:0:0:0:
48,48,132999,6,0,L|56:232,1,180,4|8,0:0|0:0,0:0:0:0:
80,348,133519,1,2,0:0:0:0:
80,348,133606,1,8,0:0:0:0:
80,348,133693,1,2,0:0:0:0:
188,196,133866,1,2,0:0:0:0:
20,240,134040,1,8,0:0:0:0:
188,196,134213,2,0,L|284:192,1,90,0|2,0:0|0:0,0:0:0:0:
364,128,134560,1,2,0:0:0:0:
240,280,134733,1,8,0:0:0:0:
279,65,134907,5,2,0:0:0:0:
261,66,134993,1,8,0:0:0:0:
244,68,135080,1,2,0:0:0:0:
12,116,135253,2,0,L|112:120,1,90,2|8,0:0|0:0,0:0:0:0:
336,168,135600,2,0,P|256:164|184:240,1,180,2|2,0:0|0:0,0:0:0:0:
288,368,136121,2,0,P|292:316|292:264,1,90,8|0,0:0|0:0,0:0:0:0:
228,92,136467,1,2,0:0:0:0:
336,236,136641,5,2,0:0:0:0:
308,28,136814,1,8,0:0:0:0:
420,176,136988,1,2,0:0:0:0:
420,176,137074,1,8,0:0:0:0:
420,176,137161,1,2,0:0:0:0:
232,216,137334,2,0,L|140:212,1,90,2|8,0:0|0:0,0:0:0:0:
48,136,137681,1,0,0:0:0:0:
20,332,137855,6,0,L|112:328,1,90,2|2,0:0|0:0,0:0:0:0:
256,368,138201,2,0,P|248:320|256:272,1,90,8|0,0:0|0:0,0:0:0:0:
140,188,138548,1,4,0:0:0:0:
256,192,138635,12,4,141323,0:0:0:0:
