osu file format v13

[General]
AudioFilename: 02. mnemonic.mp3
AudioLeadIn: 1500
PreviewTime: 51118
Countdown: 0
SampleSet: Soft
StackLeniency: 0.7
Mode: 0
LetterboxInBreaks: 0
WidescreenStoryboard: 0

[Editor]
DistanceSpacing: 1
BeatDivisor: 4
GridSize: 8
TimelineZoom: 1

[Metadata]
Title:mnemonic
TitleUnicode:mnemonic
Artist:yanaginagi
ArtistUnicode:やなぎなぎ
Creator:wcx19911123
Version:Normal
Source:Nagi no Asukara
Tags:凪のあすから insert song OST Mukaido Manaka Hiradaira Chisaki Sakishima Hikari Isaki Kaname Kihara Tsumugu Shiodome Miuna Hisanuma Sayu
BeatmapID:400706
BeatmapSetID:162391

[Difficulty]
HPDrainRate:3
CircleSize:4
OverallDifficulty:3
ApproachRate:4
SliderMultiplier:0.96
SliderTickRate:1

[Events]
//Background and Video events
0,0,"BG.jpg",0,0
//Break Periods
2,87931,103866
2,175204,191139
//Storyboard Layer 0 (Background)
//Storyboard Layer 1 (Fail)
//Storyboard Layer 2 (Pass)
//Storyboard Layer 3 (Foreground)
//Storyboard Sound Samples
//Background Colour Transformations
3,100,163,162,255

[TimingPoints]
459,545.454545454546,4,2,1,40,1,0
17913,-100,4,2,1,45,0,0
35095,-100,4,2,1,5,0,0
35368,-100,4,2,1,40,0,0
50640,-100,4,2,1,50,0,0
51731,-100,4,2,1,60,0,0
52822,-100,4,2,1,65,0,1
54459,-100,4,1,1,65,0,1
54595,-100,4,2,1,65,0,1
70140,-100,4,2,1,65,0,0
70277,-100,4,2,1,65,0,1
85277,-100,4,2,1,60,0,1
86368,-100,4,2,1,50,0,1
87731,-100,4,2,1,50,0,0
105186,-100,4,2,1,45,0,0
124277,-100,4,2,1,30,0,0
124822,-100,4,2,1,45,0,0
133004,-100,4,2,1,30,0,0
133549,-100,4,2,1,45,0,0
135731,-100,4,2,1,50,0,0
138459,-100,4,2,1,60,0,0
140095,-100,4,2,1,65,0,1
141731,-100,4,1,1,65,0,1
141868,-100,4,2,1,65,0,1
157413,-100,4,2,1,65,0,0
157549,-100,4,2,1,65,0,1
172549,-100,4,2,1,60,0,1
173640,-100,4,2,1,50,0,1
175004,-100,4,2,1,50,0,0
192459,-125,4,2,1,40,0,0
194095,-125,4,2,1,5,0,0
194368,-125,4,2,1,40,0,0
202822,-125,4,2,1,5,0,0
203095,-125,4,2,1,40,0,0
209913,-125,4,2,1,45,0,0
220004,-125,4,2,1,5,0,0
220277,-125,4,2,1,45,0,0
222459,-125,4,2,1,5,0,0
222731,-125,4,2,1,45,0,0
224368,-125,4,2,1,5,0,0
224640,-125,4,2,1,45,0,0
226822,-125,4,2,1,5,0,0
227095,-125,4,2,1,45,0,0
227913,-125,4,2,1,5,0,0
228186,-125,4,2,1,45,0,0
230913,-125,4,2,1,5,0,0
231186,-125,4,2,1,45,0,0
232277,-125,4,2,1,5,0,0
232549,-125,4,2,1,45,0,0
233913,-125,4,2,1,40,0,0
235277,-125,4,2,1,5,0,0
235549,-125,4,2,1,40,0,0
238277,-125,4,2,1,30,0,0
239368,-125,4,2,1,5,0,0
240186,-125,4,2,1,30,0,0
240868,-125,4,2,1,20,0,0
242640,-125,4,2,1,30,0,0
245368,-125,4,2,1,5,0,0
245640,-125,4,2,1,30,0,0
245913,-125,4,2,1,5,0,0
246459,-125,4,2,1,30,0,0
247549,-125,4,2,1,5,0,0
247822,-125,4,2,1,30,0,0
250549,-125,4,2,1,5,0,0
250822,-125,4,2,1,30,0,0
251913,-125,4,2,1,5,0,0
252186,-125,4,2,1,30,0,0
254095,-125,4,2,1,5,0,0
254368,-125,4,2,1,30,0,0
255731,-125,4,2,1,40,0,0
258186,-125,4,2,1,50,0,0
258459,-100,4,2,1,50,0,0
259004,-100,4,2,1,60,0,0
260095,-100,4,2,1,65,0,1
261731,-100,4,1,1,65,0,1
261868,-100,4,2,1,65,0,1
277413,-100,4,2,1,65,0,0
277549,-100,4,2,1,65,0,1
291731,-100,4,2,1,60,0,1
293640,-100,4,2,1,50,0,1
295004,-100,4,2,1,50,0,0
295277,-100,4,2,1,10,0,0
297186,-100,4,2,1,5,0,0

[Colours]
Combo1 : 244,166,255
Combo2 : 147,220,255
Combo3 : 6,124,255

[HitObjects]
384,256,459,6,0,P|352:224|288:208,1,96,2|0,0:0|0:0,0:0:0:0:
256,200,1277,2,0,P|211:186|177:153,1,96,2|0,0:0|0:0,0:0:0:0:
168,104,2095,1,0,0:0:0:0:
264,104,2640,2,0,P|320:96|352:72,1,96,2|0,0:0|0:0,0:0:0:0:
376,32,3459,1,2,0:0:0:0:
448,96,4004,2,0,L|432:152,1,48
400,232,4822,6,0,P|352:280|304:288,1,96,2|0,0:0|0:0,0:0:0:0:
280,280,5640,2,0,P|224:280|176:312,1,96,2|0,0:0|0:0,0:0:0:0:
160,336,6459,1,0,0:0:0:0:
80,280,7004,2,0,P|64:240|72:184,1,96,2|0,0:0|0:0,0:0:0:0:
88,144,7822,2,0,L|112:96,2,48,2|0|0,0:0|0:0|0:0,0:0:0:0:
208,224,9186,6,0,P|272:224|312:200,1,96,2|0,0:0|0:0,0:0:0:0:
320,168,10004,2,0,P|344:120|392:96,1,96,2|0,0:0|0:0,0:0:0:0:
424,88,10822,1,0,0:0:0:0:
480,168,11368,2,0,P|488:216|472:264,1,96,2|0,0:0|0:0,0:0:0:0:
440,296,12186,1,2,0:0:0:0:
352,328,12731,2,0,L|304:320,1,48
208,296,13549,6,0,P|160:272|136:232,1,96,2|0,0:0|0:0,0:0:0:0:
128,192,14368,2,0,P|128:160|168:96,1,96,2|0,0:0|0:0,0:0:0:0:
200,80,15186,1,0,0:0:0:0:
272,144,15731,2,0,P|304:160|368:160,1,96,2|0,0:0|0:0,0:0:0:0:
408,148,16549,2,0,L|456:132,2,48,2|0|0,0:0|0:0|0:0,0:0:0:0:
336,272,17913,6,0,P|288:288|232:280,1,96,8|2,0:0|0:0,0:0:0:0:
200,264,18731,1,0,0:0:0:0:
168,232,19004,2,0,P|152:200|152:152,1,72,2|0,0:0|0:0,0:0:0:0:
176,96,19822,2,0,L|200:48,2,48,2|8|0,0:0|0:0|0:0,0:0:0:0:
88,136,20913,2,0,P|56:168|40:224,1,96,2|0,0:0|0:0,0:0:0:0:
72,304,22004,5,0,0:0:0:0:
72,304,22277,2,0,P|104:328|176:328,1,96,10|0,0:0|0:0,0:0:0:0:
200,312,23095,2,0,B|216:272|192:256|208:216,1,96,2|0,0:0|0:0,0:0:0:0:
280,152,24186,2,0,L|328:136,2,48,0|10|0,0:0|0:0|0:0,0:0:0:0:
184,160,25277,2,0,P|136:144|104:104,1,96,2|0,0:0|0:0,0:0:0:0:
224,24,26640,6,0,P|272:16|328:40,1,96,8|2,0:0|0:0,0:0:0:0:
352,64,27459,1,0,0:0:0:0:
372,108,27731,2,0,P|372:148|352:184,1,72,2|0,0:0|0:0,0:0:0:0:
296,216,28549,2,0,L|240:240,2,48,0|10|0,0:0|0:0|0:0,0:0:0:0:
392,216,29640,2,0,P|432:248|448:304,1,96,2|0,0:0|0:0,0:0:0:0:
352,304,30731,5,0,0:0:0:0:
352,304,31004,2,0,P|312:304|264:272,1,96,10|0,0:0|0:0,0:0:0:0:
244,232,31822,2,0,B|236:192|268:184|260:136,1,96,2|0,0:0|0:0,0:0:0:0:
200,64,32913,2,0,L|152:40,2,48,0|10|0,0:0|0:0|0:0,0:0:0:0:
296,72,34004,1,2,0:0:0:0:
384,32,34549,2,0,B|400:76|384:112|384:112|416:128|424:160,1,144,0|4,0:0|0:0,0:0:0:0:
336,352,36731,6,0,L|360:304,1,48
376,264,37277,2,0,P|368:224|328:184,1,96,2|0,0:0|0:0,0:0:0:0:
236,172,38368,1,0,0:0:0:0:
160,232,38913,1,0,0:0:0:0:
64,224,39459,2,0,L|32:184,1,48,0|2,0:0|0:0,0:0:0:0:
4,148,40004,6,0,P|4:116|36:60,1,96
120,20,41095,2,0,P|164:20|216:52,1,96
236,84,41913,1,2,0:0:0:0:
256,176,42459,2,0,L|184:192,2,72,0|2|0,0:0|0:0|0:0,0:0:0:0:
288,140,43549,2,0,P|320:124|392:132,1,96,2|4,0:0|0:0,0:0:0:0:
400,304,45459,6,0,L|344:288,1,48
308,276,46004,2,0,P|268:268|204:292,1,96,2|0,0:0|0:0,0:0:0:0:
152,352,47095,1,0,0:0:0:0:
72,296,47640,1,0,0:0:0:0:
56,200,48186,2,0,L|56:152,1,48,0|2,0:0|0:0,0:0:0:0:
64,104,48731,6,0,P|80:72|136:40,1,96,0|2,0:0|0:0,0:0:0:0:
160,136,49822,2,0,P|200:168|264:168,1,96,2|0,0:0|0:0,0:0:0:0:
288,160,50640,2,0,L|344:136,1,48,2|8,0:0|0:0,0:0:0:0:
376,120,51186,1,8,0:0:0:0:
456,176,51731,2,0,L|456:224,1,48,10|8,0:0|0:0,0:0:0:0:
424,260,52277,2,0,L|424:316,1,48,8|10,0:1|0:0,0:0:0:0:
396,348,52822,6,0,P|348:372|292:364,1,96,4|8,0:0|0:1,0:0:0:0:
232,312,53913,2,0,L|160:328,2,72,10|0|2,0:0|0:0|0:0,0:0:0:0:
272,288,55004,2,0,P|288:240|272:184,1,96,8|8,0:0|0:1,0:0:0:0:
252,156,55822,2,0,P|196:132|156:140,1,96,10|0,0:0|0:0,0:0:0:0:
120,160,56640,1,8,0:1:0:0:
56,88,57186,6,0,P|72:48|120:16,1,96,10|8,0:0|0:1,0:0:0:0:
160,8,58004,2,0,P|192:8|256:56,1,96,10|0,0:0|0:0,0:0:0:0:
264,84,58822,2,0,L|280:132,1,48,8|0,0:1|0:0,0:0:0:0:
300,172,59368,2,0,P|336:196|396:196,1,96,10|8,0:0|0:1,0:0:0:0:
432,180,60186,2,0,P|456:152|464:88,1,96,10|0,0:0|0:0,0:0:0:0:
448,52,61004,1,8,0:1:0:0:
368,104,61549,6,0,P|320:104|272:72,1,96,10|8,0:0|0:1,0:0:0:0:
240,52,62368,2,0,P|184:44|136:68,1,96,10|0,0:0|0:0,0:0:0:0:
116,92,63186,1,8,0:1:0:0:
200,144,63731,2,0,P|216:184|200:248,1,96,10|8,0:0|0:1,0:0:0:0:
176,272,64549,1,10,0:0:0:0:
184,320,64822,2,0,P|208:344|288:352,1,96,8|8,0:0|0:1,0:0:0:0:
352,312,65913,5,10,0:0:0:0:
360,216,66459,1,8,0:1:0:0:
320,128,67004,2,0,P|280:104|232:104,1,96,10|8,0:0|0:1,0:0:0:0:
188,124,67822,2,0,L|140:148,1,48,2|8,0:0|0:0,0:0:0:0:
200,224,68640,2,0,L|152:248,1,48,8|10,0:1|0:0,0:0:0:0:
112,260,69186,2,0,P|88:260|40:236,2,72,8|10|8,0:0|0:0|0:0,0:0:0:0:
132,304,70277,6,0,P|160:328|224:336,1,96,12|8,0:0|0:1,0:0:0:0:
264,320,71095,1,10,0:0:0:0:
320,240,71640,2,0,L|376:256,2,48,2|8|0,0:0|0:1|0:0,0:0:0:0:
280,216,72459,2,0,P|256:176|256:128,1,96,10|8,0:0|0:1,0:0:0:0:
268,80,73277,2,0,P|308:48|372:48,1,96,10|0,0:0|0:0,0:0:0:0:
396,56,74095,1,8,0:1:0:0:
344,136,74640,6,0,P|344:168|384:224,1,96,10|8,0:0|0:1,0:0:0:0:
416,248,75459,2,0,P|420:292|396:340,1,96,10|0,0:0|0:0,0:0:0:0:
352,352,76277,2,0,L|304:360,1,48,8|0,0:1|0:0,0:0:0:0:
256,360,76822,2,0,P|232:360|168:312,1,96,10|8,0:0|0:1,0:0:0:0:
152,280,77640,2,0,P|152:224|176:184,1,96,10|0,0:0|0:0,0:0:0:0:
208,160,78459,1,8,0:1:0:0:
296,200,79004,6,0,P|352:208|400:192,1,96,10|8,0:0|0:1,0:0:0:0:
428,172,79822,2,0,P|452:124|448:80,1,96,10|0,0:0|0:0,0:0:0:0:
424,44,80640,1,8,0:1:0:0:
352,112,81186,2,0,P|320:120|256:104,1,96,10|8,0:0|0:1,0:0:0:0:
224,76,82004,1,10,0:0:0:0:
176,72,82277,2,0,P|128:96|104:136,1,96,8|8,0:0|0:1,0:0:0:0:
88,224,83368,5,10,0:0:0:0:
144,304,83913,1,8,0:1:0:0:
232,344,84459,2,0,P|272:344|328:312,1,96,10|8,0:0|0:1,0:0:0:0:
340,276,85277,2,0,L|356:220,1,48,2|8,0:0|0:0,0:0:0:0:
376,136,86095,1,8,0:1:0:0:
376,136,86368,2,0,P|320:152|280:144,1,96,10|0,0:0|0:0,0:0:0:0:
240,128,87186,2,0,L|192:104,1,48,8|8,0:1|0:0,0:0:0:0:
156,84,87731,1,4,0:0:0:0:
156,84,105186,6,0,P|192:104|248:104,1,96,8|2,0:0|0:0,0:0:0:0:
288,80,106004,1,0,0:0:0:0:
332,60,106277,2,0,P|364:52|412:60,1,72,2|0,0:0|0:0,0:0:0:0:
464,96,107095,2,0,L|496:136,2,48,2|8|0,0:0|0:0|0:0,0:0:0:0:
376,136,108186,2,0,P|360:168|360:232,1,96,2|0,0:0|0:0,0:0:0:0:
424,296,109277,5,0,0:0:0:0:
424,296,109549,2,0,P|376:320|320:312,1,96,10|0,0:0|0:0,0:0:0:0:
296,288,110368,2,0,B|272:248|304:240|280:192,1,96,2|0,0:0|0:0,0:0:0:0:
208,136,111459,2,0,L|152:120,2,48,0|10|0,0:0|0:0|0:0,0:0:0:0:
304,136,112549,2,0,P|344:120|376:64,1,96,2|0,0:0|0:0,0:0:0:0:
240,24,113913,6,0,P|200:24|144:56,1,96,8|2,0:0|0:0,0:0:0:0:
124,88,114731,1,0,0:0:0:0:
116,136,115004,2,0,P|116:168|132:208,1,72,2|0,0:0|0:0,0:0:0:0:
192,240,115822,2,0,L|240:264,2,48,2|8|0,0:0|0:0|0:0,0:0:0:0:
96,224,116913,2,0,P|56:224|0:264,1,96,2|0,0:0|0:0,0:0:0:0:
80,320,118004,5,0,0:0:0:0:
80,320,118277,2,0,P|120:336|184:328,1,96,10|0,0:0|0:0,0:0:0:0:
208,300,119095,2,0,B|232:260|200:252|224:204,1,96,2|0,0:0|0:0,0:0:0:0:
296,144,120186,2,0,L|344:120,2,48,0|10|0,0:0|0:0|0:0,0:0:0:0:
200,160,121277,1,0,0:0:0:0:
128,104,121822,2,0,B|160:64|208:68|208:68|236:60|240:32,1,144,2|12,0:0|0:0,0:0:0:0:
312,24,123049,6,0,P|336:24|392:56,1,72,8|10,0:0|0:0,0:0:0:0:
408,80,123731,2,0,L|448:168,1,96,8|4,0:1|0:3,0:0:0:0:
488,256,124822,1,10,0:0:0:0:
416,272,125231,2,0,P|376:272|336:248,1,72,8|10,0:0|0:0,0:0:0:0:
296,176,126186,2,0,L|280:128,2,48,8|2|0,0:0|0:0|0:0,0:0:0:0:
296,224,127004,6,0,P|288:248|256:280,1,72,10|8,0:0|0:0,0:0:0:0:
184,288,127822,1,8,0:0:0:0:
184,288,128095,2,0,P|128:272|104:240,1,96,8|2,0:1|0:0,0:0:0:0:
104,144,129186,2,0,L|112:72,2,72,8|10|8,0:0|0:0|0:0,0:0:0:0:
184,200,130549,2,0,L|192:136,1,48,8|2,0:0|0:0,0:0:0:0:
272,104,131368,6,0,P|256:80|208:56,2,72,12|8|10,0:0|0:0|0:0,0:0:0:0:
280,152,132459,2,0,P|320:192|360:200,1,96,8|4,0:1|0:3,0:0:0:0:
448,168,133549,1,8,0:0:0:0:
416,104,133959,2,0,P|384:72|344:64,1,72,10|8,0:0|0:0,0:0:0:0:
264,80,134913,2,0,L|208:96,2,48,8|2|0,0:0|0:0|0:0,0:0:0:0:
288,120,135731,6,0,P|272:168|240:192,1,72,10|8,0:0|0:0,0:0:0:0:
192,216,136549,1,8,0:0:0:0:
192,216,136822,2,0,P|136:208|96:168,1,96,8|0,0:1|0:0,0:0:0:0:
72,96,137913,1,2,0:0:0:0:
136,24,138459,1,8,0:0:0:0:
232,24,139004,2,0,L|280:24,1,48,2|8,0:0|0:0,0:0:0:0:
316,56,139549,2,0,L|364:56,1,48,8|8,0:1|0:0,0:0:0:0:
412,56,140095,6,0,P|452:72|484:128,1,96,12|8,0:0|0:1,0:0:0:0:
424,192,141186,2,0,P|464:212|504:208,2,72,10|0|2,0:0|0:0|0:0,0:0:0:0:
392,156,142277,2,0,P|352:132|304:132,1,96,8|8,0:0|0:1,0:0:0:0:
264,160,143095,2,0,P|248:200|256:256,1,96,10|0,0:0|0:0,0:0:0:0:
284,288,143913,1,8,0:1:0:0:
200,336,144459,6,0,P|144:336|104:304,1,96,10|8,0:0|0:1,0:0:0:0:
80,280,145277,2,0,P|72:240|96:176,1,96,10|0,0:0|0:0,0:0:0:0:
120,152,146095,2,0,L|168:112,1,48,8|2,0:1|0:0,0:0:0:0:
200,96,146640,2,0,P|232:80|296:88,1,96,8|8,0:0|0:1,0:0:0:0:
324,120,147459,2,0,P|348:144|424:152,1,96,10|0,0:0|0:0,0:0:0:0:
452,140,148277,1,8,0:1:0:0:
400,60,148822,6,0,P|360:28|296:28,1,96,10|8,0:0|0:1,0:0:0:0:
268,32,149640,2,0,P|236:48|208:112,1,96,10|0,0:0|0:0,0:0:0:0:
212,148,150459,1,8,0:1:0:0:
288,208,151004,2,0,P|248:240|184:240,1,96,10|8,0:0|0:1,0:0:0:0:
160,228,151822,1,10,0:0:0:0:
112,232,152095,2,0,P|88:248|64:320,1,96,8|8,0:0|0:1,0:0:0:0:
128,376,153186,5,10,0:0:0:0:
224,376,153731,1,8,0:1:0:0:
288,304,154277,2,0,P|296:272|272:208,1,96,10|8,0:0|0:1,0:0:0:0:
240,184,155095,2,0,L|200:152,1,48,2|8,0:0|0:0,0:0:0:0:
232,64,155913,2,0,L|272:96,1,48,8|10,0:1|0:0,0:0:0:0:
312,116,156459,2,0,P|360:120|400:104,2,72,8|10|8,0:0|0:0|0:0,0:0:0:0:
328,160,157549,6,0,P|328:200|296:248,1,96,12|8,0:0|0:1,0:0:0:0:
256,268,158368,2,0,P|200:272|160:248,1,96,10|2,0:0|0:0,0:0:0:0:
136,216,159186,1,8,0:1:0:0:
48,176,159731,2,0,P|72:140|136:120,1,96,10|8,0:0|0:1,0:0:0:0:
168,124,160549,1,10,0:0:0:0:
208,152,160822,2,0,P|232:192|224:256,1,96,8|8,0:0|0:1,0:0:0:0:
264,328,161913,6,0,P|296:352|360:352,1,96,10|8,0:0|0:1,0:0:0:0:
396,340,162731,2,0,P|428:308|436:256,1,96,10|0,0:0|0:0,0:0:0:0:
416,216,163549,2,0,L|392:168,1,48,8|2,0:1|0:0,0:0:0:0:
368,132,164095,2,0,P|328:100|272:96,1,96,8|8,0:0|0:1,0:0:0:0:
240,112,164913,2,0,P|192:128|136:112,1,96,10|0,0:0|0:0,0:0:0:0:
112,88,165731,1,8,0:1:0:0:
104,184,166277,6,0,P|88:216|32:248,1,96,10|8,0:0|0:1,0:0:0:0:
40,296,167095,2,0,P|72:328|128:336,1,96,10|0,0:0|0:0,0:0:0:0:
168,328,167913,1,8,0:1:0:0:
196,236,168459,2,0,P|212:204|276:172,1,96,10|8,0:0|0:1,0:0:0:0:
312,168,169277,1,10,0:0:0:0:
360,176,169549,2,0,P|400:200|424:256,1,96,8|8,0:0|0:1,0:0:0:0:
376,328,170640,5,10,0:0:0:0:
280,344,171186,1,8,0:1:0:0:
192,304,171731,2,0,P|168:272|168:208,1,96,10|8,0:0|0:1,0:0:0:0:
184,176,172549,2,0,L|208:128,1,48,2|8,0:0|0:0,0:0:0:0:
248,48,173368,1,8,0:1:0:0:
248,48,173640,2,0,P|288:84|300:140,1,96,10|8,0:0|0:0,0:0:0:0:
300,172,174459,2,0,L|300:236,1,48,8|8,0:1|0:0,0:0:0:0:
300,268,175004,1,4,0:0:0:0:
300,268,192459,6,0,P|336:256|360:232,1,57.6,10|8,0:0|0:0,0:0:0:0:
400,136,193549,2,0,P|392:88|344:40,1,115.2,0|8,0:0|0:0,0:0:0:0:
304,24,194640,2,0,L|240:16,1,57.6,8|0,0:0|0:0,0:0:0:0:
176,16,195459,2,0,P|136:24|96:56,1,76.8
56,120,196549,5,0,0:0:0:0:
56,120,196822,2,0,L|64:192,1,57.6,10|8,0:0|0:0,0:0:0:0:
176,264,198731,1,8,0:0:0:0:
176,264,199004,2,0,L|184:336,1,57.6,8|8,0:0|0:0,0:0:0:0:
240,360,199822,2,0,L|280:368,2,38.4
288,232,201186,6,0,P|312:200|336:184,1,57.6,10|8,0:0|0:0,0:0:0:0:
440,168,202277,2,0,P|432:128|368:72,1,115.2,0|8,0:0|0:0,0:0:0:0:
336,72,203368,2,0,L|264:80,1,57.6,8|8,0:0|0:0,0:0:0:0:
216,48,204186,2,0,P|208:80|226:124,1,76.8
296,176,205277,5,0,0:0:0:0:
296,176,205549,2,0,L|272:232,1,57.6,10|8,0:0|0:0,0:0:0:0:
128,216,207459,1,8,0:0:0:0:
128,216,207731,2,0,L|104:272,1,57.6,8|8,0:0|0:0,0:0:0:0:
256,352,209368,1,0,0:0:0:0:
336,304,209913,6,0,L|360:248,1,57.6,10|8,0:0|0:0,0:0:0:0:
376,184,210731,2,0,P|368:136|344:108,1,76.8,2|0,0:0|0:0,0:0:0:0:
272,64,211822,1,8,0:0:0:0:
272,64,212095,2,0,P|240:56|192:64,1,76.8,10|0,0:0|0:0,0:0:0:0:
112,96,213186,1,0,0:0:0:0:
64,176,213731,1,0,0:0:0:0:
88,264,214277,6,0,L|136:296,1,57.6,10|8,0:0|0:0,0:0:0:0:
200,328,215095,2,0,P|224:328|280:304,1,76.8,2|0,0:0|0:0,0:0:0:0:
320,232,216186,1,8,0:0:0:0:
320,232,216459,2,0,P|328:192|312:152,1,76.8,10|0,0:0|0:0,0:0:0:0:
240,104,217549,1,0,0:0:0:0:
320,56,218095,1,0,0:0:0:0:
412,64,218640,6,0,P|444:88|460:136,1,76.8,10|0,0:0|0:0,0:0:0:0:
464,168,219459,2,0,P|448:216|392:256,1,115.2,2|0,0:0|0:0,0:0:0:0:
352,264,220549,1,8,0:0:0:0:
352,264,220822,2,0,L|288:264,1,57.6,10|8,0:0|0:0,0:0:0:0:
192,208,221913,2,0,P|128:208|80:240,1,115.2
68,276,223004,6,0,P|80:316|104:340,1,76.8,10|0,0:0|0:0,0:0:0:0:
148,352,223822,2,0,P|188:352|252:312,1,115.2,2|0,0:0|0:0,0:0:0:0:
272,272,224913,1,8,0:0:0:0:
272,272,225186,2,0,L|296:208,1,57.6,10|8,0:0|0:0,0:0:0:0:
400,184,226277,2,0,P|424:152|424:72,1,115.2,0|8,0:0|0:0,0:0:0:0:
404,40,227368,6,0,P|364:16|288:24,1,115.2,10|2,0:0|0:0,0:0:0:0:
216,64,228731,1,0,0:0:0:0:
240,152,229277,1,8,0:0:0:0:
240,152,229549,2,0,L|256:216,1,57.6,10|8,0:0|0:0,0:0:0:0:
224,272,230368,2,0,P|184:296|112:288,1,115.2,10|0,0:0|0:0,0:0:0:0:
76,272,231459,1,8,0:0:0:0:
52,232,231731,6,0,P|44:184|76:120,1,115.2,10|2,0:0|0:0,0:0:0:0:
152,80,233095,1,0,0:0:0:0:
200,160,233640,1,8,0:0:0:0:
200,160,233913,2,0,L|232:216,1,57.6,10|8,0:0|0:0,0:0:0:0:
280,256,234731,2,0,P|328:264|424:208,1,153.6,2|8,0:0|0:0,0:0:0:0:
432,172,236095,6,0,L|440:108,2,57.6,10|8|0,0:0|0:0|0:0,0:0:0:0:
264,248,238004,2,0,L|256:304,2,38.4,8|10|0,0:0|0:0|0:0,0:0:0:0:
264,200,238822,2,0,P|224:160|88:152,1,192,0|8,0:0|0:0,0:0:0:0:
56,124,240459,2,0,L|68:184,1,57.6,10|8,0:0|0:0,0:0:0:0:
64,112,242640,5,4,0:0:0:0:
200,48,243731,2,0,P|224:48|264:64,1,57.6,2|0,0:0|0:0,0:0:0:0:
312,136,244822,2,0,P|304:192|264:232,2,115.2,2|2|0,0:0|0:0|0:0,0:0:0:0:
360,56,247004,6,0,P|400:40|472:56,1,115.2,2|2,0:0|0:0,0:0:0:0:
512,136,248368,1,0,0:0:0:0:
488,224,248913,2,0,P|464:256|432:272,1,76.8,2|0,0:0|0:0,0:0:0:0:
408,184,250004,2,0,P|376:152|304:144,1,115.2,2|0,0:0|0:0,0:0:0:0:
232,192,251368,6,0,P|264:224|336:232,1,115.2,2|2,0:0|0:0,0:0:0:0:
424,128,253004,1,0,0:0:0:0:
376,48,253549,2,0,P|336:24|264:24,1,115.2,2|2,0:0|0:0,0:0:0:0:
104,104,255459,5,0,0:0:0:0:
104,104,255731,2,0,L|120:192,1,76.8,2|0,0:0|0:0,0:0:0:0:
64,256,256822,2,0,P|92:272|148:268,1,76.8,2|0,0:0|0:0,0:0:0:0:
176,251,257640,2,0,P|200:224|208:175,1,76.8,2|0,0:0|0:0,0:0:0:0:
192,140,258459,1,2,0:0:0:0:
264,80,259004,2,0,L|312:72,1,48,0|10,0:0|0:0,0:0:0:0:
352,96,259549,2,0,L|400:88,1,48,8|8,0:1|0:0,0:0:0:0:
448,96,260095,6,0,P|480:120|504:184,1,96,4|8,0:0|0:1,0:0:0:0:
464,256,261186,2,0,L|480:336,2,72,10|0|2,0:0|0:0|0:0,0:0:0:0:
424,224,262277,2,0,P|384:216|320:240,1,96,8|8,0:0|0:1,0:0:0:0:
296,264,263095,2,0,P|264:280|192:272,1,96,10|0,0:0|0:0,0:0:0:0:
168,248,263913,1,8,0:1:0:0:
240,184,264459,6,0,P|256:144|240:88,1,96,10|8,0:0|0:1,0:0:0:0:
212,60,265277,2,0,P|172:44|104:64,1,96,10|0,0:0|0:0,0:0:0:0:
88,88,266095,2,0,L|56:136,1,48,8|2,0:1|0:0,0:0:0:0:
44,172,266640,2,0,P|52:220|92:260,1,96,8|8,0:0|0:1,0:0:0:0:
128,272,267459,2,0,P|176:272|216:248,1,96,10|0,0:0|0:0,0:0:0:0:
240,208,268277,1,8,0:1:0:0:
256,112,268822,6,0,P|280:88|344:72,1,96,10|8,0:0|0:1,0:0:0:0:
388,76,269640,2,0,P|436:92|468:132,1,96,10|0,0:0|0:0,0:0:0:0:
476,172,270459,1,8,0:1:0:0:
380,172,271004,2,0,P|348:188|316:252,1,96,10|8,0:0|0:1,0:0:0:0:
312,288,271822,1,10,0:0:0:0:
284,328,272095,2,0,P|236:344|188:336,1,96,8|8,0:0|0:1,0:0:0:0:
104,296,273186,5,10,0:0:0:0:
88,200,273731,1,8,0:1:0:0:
104,104,274277,2,0,P|128:72|192:48,1,96,10|8,0:0|0:1,0:0:0:0:
224,48,275095,2,0,L|280:48,1,48,2|8,0:0|0:0,0:0:0:0:
344,112,275913,2,0,L|400:112,1,48,8|10,0:1|0:0,0:0:0:0:
440,104,276459,2,0,P|472:80|488:48,2,72,8|8|10,0:0|0:0|0:0,0:0:0:0:
448,152,277549,6,0,P|440:192|392:240,1,96,12|8,0:0|0:1,0:0:0:0:
360,248,278368,2,0,P|320:256|256:232,1,96,10|2,0:0|0:0,0:0:0:0:
236,204,279186,1,8,0:1:0:0:
320,156,279731,2,0,P|328:120|304:56,1,96,10|8,0:0|0:1,0:0:0:0:
274,33,280549,1,10,0:0:0:0:
228,24,280822,2,0,P|176:40|144:80,1,96,8|8,0:0|0:1,0:0:0:0:
232,120,281913,6,0,P|256:144|272:208,1,96,10|8,0:0|0:1,0:0:0:0:
268,252,282731,2,0,P|240:304|188:324,1,96,10|0,0:0|0:0,0:0:0:0:
160,328,283549,2,0,L|96:328,1,48,8|2,0:1|0:0,0:0:0:0:
64,320,284095,2,0,P|24:288|8:240,1,96,8|8,0:0|0:1,0:0:0:0:
8,200,284913,2,0,P|16:168|72:120,1,96,10|0,0:0|0:0,0:0:0:0:
108,116,285731,1,8,0:1:0:0:
160,200,286277,6,0,P|184:224|264:232,1,96,10|8,0:0|0:1,0:0:0:0:
292,228,287095,2,0,P|340:188|352:136,1,96,10|0,0:0|0:0,0:0:0:0:
344,112,287913,1,8,0:1:0:0:
440,128,288459,2,0,P|480:168|488:224,1,96,10|8,0:0|0:1,0:0:0:0:
484,252,289277,1,10,0:0:0:0:
468,296,289549,2,0,P|432:328|380:336,1,96,8|8,0:0|0:1,0:0:0:0:
296,296,290640,5,10,0:0:0:0:
344,212,291186,1,8,0:1:0:0:
320,120,291731,2,0,P|280:88|216:88,1,96,10|8,0:0|0:1,0:0:0:0:
188,88,292549,2,0,L|132:96,1,48,2|8,0:0|0:0,0:0:0:0:
48,120,293368,1,8,0:1:0:0:
48,120,293640,2,0,P|64:156|116:188,1,96,10|2,0:0|0:0,0:0:0:0:
160,192,294459,2,0,L|216:192,1,48,8|8,0:1|0:0,0:0:0:0:
256,192,295004,1,4,0:0:0:0:
256,192,295277,12,0,299368,0:0:0:0:
