osu file format v13

[General]
AudioFilename: 02. mnemonic.mp3
AudioLeadIn: 1500
PreviewTime: 51118
Countdown: 0
SampleSet: Soft
StackLeniency: 0.7
Mode: 0
LetterboxInBreaks: 0
WidescreenStoryboard: 0

[Editor]
DistanceSpacing: 1.6
BeatDivisor: 4
GridSize: 8
TimelineZoom: 1

[Metadata]
Title:mnemonic
TitleUnicode:mnemonic
Artist:yanaginagi
ArtistUnicode:やなぎなぎ
Creator:wcx19911123
Version:Hard
Source:Nagi no Asukara
Tags:凪のあすから insert song OST Mukaido Manaka Hiradaira Chisaki Sakishima Hikari Isaki Kaname Kihara Tsumugu Shiodome Miuna Hisanuma Sayu
BeatmapID:396159
BeatmapSetID:162391

[Difficulty]
HPDrainRate:6
CircleSize:5
OverallDifficulty:6
ApproachRate:8
SliderMultiplier:1.6
SliderTickRate:1

[Events]
//Background and Video events
0,0,"BG.jpg",0,0
//Break Periods
2,87931,104436
2,175204,191709
//Storyboard Layer 0 (Background)
//Storyboard Layer 1 (Fail)
//Storyboard Layer 2 (Pass)
//Storyboard Layer 3 (Foreground)
//Storyboard Sound Samples
//Background Colour Transformations
3,100,163,162,255

[TimingPoints]
459,545.454545454546,4,2,1,40,1,0
8913,-100,4,2,1,5,0,0
9049,-100,4,2,1,40,0,0
17640,-100,4,2,1,5,0,0
17777,-100,4,2,1,40,0,0
17913,-100,4,2,1,45,0,0
26368,-100,4,2,1,5,0,0
26504,-100,4,2,1,45,0,0
35095,-100,4,2,1,5,0,0
35368,-100,4,2,1,40,0,0
50640,-100,4,2,1,50,0,0
51731,-100,4,2,1,60,0,0
52822,-100,4,2,1,65,0,1
70140,-100,4,2,1,65,0,0
70277,-100,4,2,1,65,0,1
85277,-100,4,2,1,60,0,1
86368,-100,4,2,1,50,0,1
87731,-100,4,2,1,50,0,0
105186,-100,4,2,1,45,0,0
113640,-100,4,2,1,5,0,0
113777,-100,4,2,1,45,0,0
124277,-100,4,2,1,30,0,0
124549,-100,4,2,1,45,0,0
133004,-100,4,2,1,30,0,0
133277,-100,4,2,1,45,0,0
135731,-100,4,2,1,50,0,0
138459,-100,4,2,1,60,0,0
140095,-100,4,2,1,65,0,1
157413,-100,4,2,1,65,0,0
157549,-100,4,2,1,65,0,1
172549,-100,4,2,1,60,0,1
173640,-100,4,2,1,50,0,1
175004,-100,4,2,1,50,0,0
192459,-125,4,2,1,40,0,0
209913,-125,4,2,1,45,0,0
220004,-125,4,2,1,5,0,0
220277,-125,4,2,1,45,0,0
224368,-125,4,2,1,5,0,0
224640,-125,4,2,1,45,0,0
233913,-125,4,2,1,40,0,0
235277,-125,4,2,1,5,0,0
235549,-125,4,2,1,40,0,0
237459,-125,4,2,1,5,0,0
237731,-125,4,2,1,40,0,0
238277,-125,4,2,1,30,0,0
238822,-166.666666666667,4,2,1,30,0,0
239368,-166.666666666667,4,2,1,5,0,0
239913,-166.666666666667,4,2,1,30,0,0
240868,-166.666666666667,4,2,1,20,0,0
242640,-166.666666666667,4,2,1,30,0,0
255731,-166.666666666667,4,2,1,40,0,0
257913,-125,4,2,1,50,0,0
259004,-125,4,2,1,60,0,0
259277,-100,4,2,1,60,0,0
260095,-100,4,2,1,65,0,1
277413,-100,4,2,1,65,0,0
277549,-100,4,2,1,65,0,1
292549,-100,4,2,1,60,0,1
293640,-100,4,2,1,50,0,1
295004,-100,4,2,1,50,0,0
295140,-100,4,2,1,10,0,0
297186,-100,4,2,1,5,0,0

[Colours]
Combo1 : 244,166,255
Combo2 : 147,220,255
Combo3 : 6,124,255

[HitObjects]
200,168,459,5,2,0:0:0:0:
264,216,731,1,0,0:0:0:0:
272,136,1004,1,0,0:0:0:0:
208,88,1277,2,0,P|144:80|56:112,1,160,2|0,0:0|0:0,0:0:0:0:
32,256,2095,2,0,P|80:248|120:224,1,80
216,160,2640,5,2,0:0:0:0:
280,208,2912,1,0,0:0:0:0:
208,240,3186,1,0,0:0:0:0:
288,128,3459,1,2,0:0:0:0:
456,32,4004,1,0,0:0:0:0:
400,88,4277,2,0,P|384:144|392:216,1,120
408,240,4822,5,2,0:0:0:0:
464,296,5095,1,0,0:0:0:0:
384,320,5368,2,0,P|336:320|296:304,1,80,0|2,0:0|0:0,0:0:0:0:
320,208,5913,1,0,0:0:0:0:
306,309,6186,2,0,P|264:312|216:296,1,80
216,192,6731,1,0,0:0:0:0:
227,302,7004,6,0,P|184:320|152:320,1,80,2|0,0:0|0:0,0:0:0:0:
120,312,7413,1,0,0:0:0:0:
96,296,7549,1,0,0:0:0:0:
112,160,7822,1,2,0:0:0:0:
64,224,8095,1,0,0:0:0:0:
144,232,8368,2,0,B|224:232|272:200|272:200|272:200|304:216|336:216,1,200,0|0,0:0|0:0,0:0:0:0:
376,216,9186,5,2,0:0:0:0:
440,168,9459,1,0,0:0:0:0:
448,248,9731,1,0,0:0:0:0:
384,296,10004,2,0,P|336:320|224:320,1,160,2|0,0:0|0:0,0:0:0:0:
160,184,10822,2,0,P|216:176|272:192,1,80
384,224,11368,5,2,0:0:0:0:
448,176,11641,1,0,0:0:0:0:
456,256,11913,1,0,0:0:0:0:
376,144,12186,1,2,0:0:0:0:
208,32,12731,1,0,0:0:0:0:
256,96,13004,2,0,P|264:136|248:224,1,120
232,248,13549,5,2,0:0:0:0:
168,296,13822,1,0,0:0:0:0:
240,328,14095,2,0,P|280:328|320:312,1,80,0|2,0:0|0:0,0:0:0:0:
288,216,14640,1,0,0:0:0:0:
317,314,14913,2,0,P|369:305|401:281,1,80
344,176,15459,1,0,0:0:0:0:
391,291,15731,6,0,P|433:267|449:235,1,80,2|0,0:0|0:0,0:0:0:0:
456,208,16140,1,0,0:0:0:0:
456,176,16277,1,0,0:0:0:0:
400,48,16549,1,2,0:0:0:0:
464,96,16822,1,0,0:0:0:0:
392,128,17095,2,0,B|352:136|312:120|312:120|256:136|192:120,1,200
160,104,17913,5,8,0:0:0:0:
96,152,18186,2,0,L|56:184,2,40,0|8|2,0:0|0:0|0:0,0:0:0:0:
232,72,18731,1,0,0:0:0:0:
168,184,19004,2,0,P|160:232|184:312,1,120,2|0,0:0|0:0,0:0:0:0:
392,264,19822,2,0,P|416:232|424:192,2,80,0|10|0,0:0|0:0|0:0,0:0:0:0:
360,288,20504,5,8,0:0:0:0:
320,112,20913,2,0,P|360:72|384:64,1,80,2|0,0:0|0:0,0:0:0:0:
240,176,21459,2,0,P|184:160|160:128,1,80,2|0,0:0|0:0,0:0:0:0:
128,40,22004,1,0,0:0:0:0:
128,40,22140,1,0,0:0:0:0:
128,40,22277,2,0,B|128:80|168:104|168:104|128:136,1,120,10|8,0:0|0:0,0:0:0:0:
104,152,22822,5,0,0:0:0:0:
200,40,23095,2,0,P|240:24|296:24,1,80,2|0,0:0|0:0,0:0:0:0:
376,136,23640,2,0,P|424:152|464:152,1,80,2|0,0:0|0:0,0:0:0:0:
312,248,24186,2,0,P|264:272|224:272,2,80,0|10|0,0:0|0:0|0:0,0:0:0:0:
336,216,24868,5,8,0:0:0:0:
144,192,25277,2,0,P|96:208|72:232,1,80,2|0,0:0|0:0,0:0:0:0:
160,64,25822,2,0,B|152:104|176:136|176:136|208:156|208:196|208:196|240:184|264:192,1,200,2|0,0:0|0:0,0:0:0:0:
296,208,26640,5,10,0:0:0:0:
240,304,26913,2,0,L|248:256,2,40,0|8|2,0:0|0:0|0:0,0:0:0:0:
176,352,27459,1,0,0:0:0:0:
296,360,27731,2,0,P|344:352|400:304,1,120,2|0,0:0|0:0,0:0:0:0:
376,136,28549,2,0,P|384:176|408:208,2,80,0|10|0,0:0|0:0|0:0,0:0:0:0:
384,96,29231,5,8,0:0:0:0:
248,176,29640,2,0,P|208:176|168:160,1,80,2|0,0:0|0:0,0:0:0:0:
32,32,30186,2,0,P|72:32|112:48,1,80,2|0,0:0|0:0,0:0:0:0:
184,136,30731,1,0,0:0:0:0:
184,136,30868,1,0,0:0:0:0:
184,136,31004,2,0,B|176:184|128:192|128:192|160:216,1,120,10|8,0:0|0:0,0:0:0:0:
192,232,31549,5,0,0:0:0:0:
120,128,31822,2,0,P|120:88|144:48,1,80,2|0,0:0|0:0,0:0:0:0:
256,208,32368,2,0,P|256:248|232:288,1,80,2|0,0:0|0:0,0:0:0:0:
88,312,32913,2,0,P|144:296|184:304,2,80,0|10|0,0:0|0:0|0:0,0:0:0:0:
56,336,33595,5,8,0:0:0:0:
256,328,34004,2,0,P|296:304|320:264,1,80,2|0,0:0|0:0,0:0:0:0:
512,192,34549,2,0,B|464:184|440:216|440:216|400:208|368:240|368:240|344:204|292:212,1,240,2|4,0:0|0:0,0:0:0:0:
280,224,36731,5,0,0:0:0:0:
328,88,37004,1,0,0:0:0:0:
280,224,37277,2,0,B|288:264|288:264|328:280,1,80,0|2,0:0|0:0,0:0:0:0:
232,176,37822,2,0,B|208:208|216:240|216:240|168:248|168:248|152:296,2,160
416,64,39459,6,0,P|424:112|456:144,1,80,0|2,0:0|0:0,0:0:0:0:
344,24,40004,2,0,P|296:16|184:48,1,160
48,216,41095,2,0,L|24:176,2,40,2|0|0,0:0|0:0|0:0,0:0:0:0:
88,288,41640,1,2,0:0:0:0:
160,136,41913,5,0,0:0:0:0:
216,192,42186,1,0,0:0:0:0:
296,192,42459,1,2,0:0:0:0:
352,136,42731,1,0,0:0:0:0:
352,136,42868,1,2,0:0:0:0:
256,24,43277,1,0,0:0:0:0:
256,104,43549,2,0,B|256:152|248:176|248:176|264:176|264:176|256:200|256:248,1,160,2|4,0:0|0:0,0:0:0:0:
256,264,45459,5,0,0:0:0:0:
200,128,45731,1,0,0:0:0:0:
256,264,46004,2,0,B|240:304|240:304|200:320,1,80,0|2,0:0|0:0,0:0:0:0:
304,220,46549,2,0,B|328:252|316:284|316:284|352:312|352:312|344:368,2,160
96,184,48186,6,0,P|152:192|192:176,1,80,0|2,0:0|0:0,0:0:0:0:
296,48,48731,2,0,P|336:24|392:24,1,80,0|2,0:0|0:0,0:0:0:0:
416,136,49277,1,0,0:0:0:0:
416,136,49413,2,0,P|376:160|320:160,1,80,2|0,0:0|0:0,0:0:0:0:
248,120,49822,2,0,L|280:156,1,40
300,216,50095,2,0,P|288:248|248:280,1,80,2|0,0:0|0:0,0:0:0:0:
136,312,50640,5,2,0:0:0:0:
64,184,50913,1,8,0:0:0:0:
192,240,51186,2,0,L|288:248,1,80,8|0,0:0|0:0,0:0:0:0:
408,312,51731,1,10,0:0:0:0:
360,224,52004,1,8,0:0:0:0:
344,192,52140,1,0,0:0:0:0:
328,160,52277,1,8,0:1:0:0:
376,56,52549,1,10,0:0:0:0:
240,184,52822,6,0,B|184:192|144:152|144:152|112:152|96:176,1,160,12|8,0:0|0:1,0:0:0:0:
224,72,53640,1,10,0:0:0:0:
376,136,53913,2,0,P|408:184|408:256,1,120,8|2,0:0|0:0,0:0:0:0:
396,284,54459,1,8,0:1:0:0:
280,352,54731,1,0,0:0:0:0:
256,208,55004,6,0,P|224:168|128:160,1,120,8|2,0:0|0:0,0:0:0:0:
120,160,55549,1,8,0:1:0:0:
136,312,55822,2,0,P|168:272|168:240,2,80,8|8|0,0:0|0:0|0:0,0:0:0:0:
16,184,56640,1,8,0:1:0:0:
104,256,56913,5,2,0:0:0:0:
104,256,57049,1,0,0:0:0:0:
104,256,57186,2,0,B|160:288|160:248|224:280,1,120,8|0,0:0|0:0,0:0:0:0:
248,304,57731,1,8,0:1:0:0:
312,200,58004,2,0,P|352:168|408:160,1,80,10|8,0:0|0:0,0:0:0:0:
504,152,58549,1,0,0:0:0:0:
384,248,58822,1,8,0:1:0:0:
240,104,59095,6,0,P|176:96|144:104,2,80,2|8|0,0:0|0:0|0:0,0:0:0:0:
336,168,59913,1,8,0:1:0:0:
224,304,60186,2,0,P|216:256|224:224,1,80,10|8,0:0|0:0,0:0:0:0:
304,112,60731,1,0,0:0:0:0:
360,200,61004,1,8,0:1:0:0:
392,208,61140,1,0,0:0:0:0:
424,216,61277,1,2,0:0:0:0:
304,48,61549,6,0,B|248:56|240:104|240:104|208:120|176:96,1,160,8|8,0:0|0:1,0:0:0:0:
96,32,62368,1,10,0:0:0:0:
120,176,62640,2,0,P|104:224|72:256,1,80,8|2,0:0|0:0,0:0:0:0:
0,288,63186,1,8,0:1:0:0:
144,328,63459,5,0,0:0:0:0:
144,328,63595,2,0,L|184:336,1,40,0|10,0:0|0:0,0:0:0:0:
224,340,63868,2,0,P|288:324|328:260,1,120,0|8,0:0|0:1,0:0:0:0:
368,128,64549,1,8,0:0:0:0:
408,248,64822,1,8,0:0:0:0:
264,184,65095,2,0,P|216:184|176:208,1,80,2|8,0:0|0:1,0:0:0:0:
64,56,65640,5,0,0:0:0:0:
64,56,65777,1,0,0:0:0:0:
64,56,65913,2,0,P|112:96|216:96,1,160,10|8,0:0|0:1,0:0:0:0:
288,56,66731,1,8,0:0:0:0:
264,184,67004,2,0,L|248:272,1,80,10|0,0:0|0:0,0:0:0:0:
168,336,67549,1,8,0:1:0:0:
192,160,67822,6,0,P|216:120|272:104,1,80,2|8,0:0|0:0,0:0:0:0:
432,104,68368,1,0,0:0:0:0:
336,168,68640,1,8,0:1:0:0:
192,56,68913,2,0,P|144:56|104:80,1,80,10|8,0:0|0:0,0:0:0:0:
40,176,69459,1,2,0:0:0:0:
40,176,69595,2,0,P|80:200|136:192,1,80,8|0,0:0|0:0,0:0:0:0:
152,192,70004,1,10,0:0:0:0:
328,304,70277,6,0,B|272:280|272:216|272:216|248:216|232:240,1,160,12|8,0:0|0:1,0:0:0:0:
208,328,71095,1,10,0:0:0:0:
360,224,71368,2,0,P|400:224|440:240,1,80,8|2,0:0|0:0,0:0:0:0:
488,320,71913,1,8,0:1:0:0:
488,320,72186,1,0,0:0:0:0:
408,184,72459,6,0,P|408:136|440:72,1,120,10|0,0:0|0:0,0:0:0:0:
472,48,73004,1,8,0:1:0:0:
328,128,73277,2,0,P|288:128|240:112,1,80,10|8,0:0|0:0,0:0:0:0:
144,32,73822,1,0,0:0:0:0:
288,56,74095,1,8,0:1:0:0:
168,128,74368,5,2,0:0:0:0:
168,128,74504,1,0,0:0:0:0:
168,128,74640,2,0,P|136:168|128:208,1,80,8|0,0:0|0:0,0:0:0:0:
136,312,75186,1,8,0:1:0:0:
248,232,75459,2,0,P|288:216|328:216,1,80,10|8,0:0|0:0,0:0:0:0:
448,264,76004,1,0,0:0:0:0:
312,320,76277,1,8,0:1:0:0:
384,152,76549,6,0,P|384:104|360:64,2,80,2|8|0,0:0|0:0|0:0,0:0:0:0:
320,256,77368,1,8,0:1:0:0:
216,176,77640,2,0,P|176:160|128:160,1,80,10|8,0:0|0:0,0:0:0:0:
24,200,78186,1,0,0:0:0:0:
96,272,78459,1,8,0:1:0:0:
128,280,78595,1,0,0:0:0:0:
160,288,78731,1,0,0:0:0:0:
296,184,79004,6,0,B|352:160|400:184|400:184|416:160|400:128,1,160,10|8,0:0|0:1,0:0:0:0:
288,88,79822,1,10,0:0:0:0:
224,224,80095,2,0,P|224:272|240:304,1,80,8|0,0:0|0:0,0:0:0:0:
336,360,80640,1,8,0:1:0:0:
392,232,80913,5,2,0:0:0:0:
392,232,81049,2,0,L|408:192,1,40,0|8,0:0|0:0,0:0:0:0:
392,160,81322,2,0,P|392:96|424:48,1,120,0|8,0:0|0:1,0:0:0:0:
256,24,82004,1,10,0:0:0:0:
304,128,82277,2,0,P|304:176|272:224,1,80,8|0,0:0|0:0,0:0:0:0:
192,264,82822,1,8,0:1:0:0:
80,144,83095,5,2,0:0:0:0:
80,144,83231,1,0,0:0:0:0:
80,144,83368,2,0,P|144:128|240:160,1,160,8|8,0:0|0:1,0:0:0:0:
312,240,84186,1,8,0:0:0:0:
432,336,84459,2,0,P|408:304|400:248,1,80,10|0,0:0|0:0,0:0:0:0:
424,144,85004,1,8,0:1:0:0:
312,240,85277,6,0,P|256:256|216:248,1,80,0|8,0:0|0:0,0:0:0:0:
136,208,85822,1,0,0:0:0:0:
96,112,86095,1,8,0:1:0:0:
256,24,86368,2,0,P|264:72|240:120,1,80,10|8,0:0|0:0,0:0:0:0:
136,208,86913,1,0,0:0:0:0:
136,208,87049,1,8,0:0:0:0:
136,208,87186,2,0,P|192:184|240:192,1,80,8|8,0:1|0:0,0:0:0:0:
384,240,87731,1,4,0:0:0:0:
384,240,105186,5,8,0:0:0:0:
432,176,105459,2,0,L|480:168,2,40,0|8|2,0:0|0:0|0:0,0:0:0:0:
312,200,106004,1,0,0:0:0:0:
232,296,106277,2,0,P|184:304|112:280,1,120,2|0,0:0|0:0,0:0:0:0:
80,96,107095,2,0,P|120:64|152:56,2,80,0|10|0,0:0|0:0|0:0,0:0:0:0:
64,132,107777,5,8,0:0:0:0:
312,200,108186,2,0,L|392:216,1,80,2|0,0:0|0:0,0:0:0:0:
208,288,108731,2,0,P|184:256|176:216,1,80,2|0,0:0|0:0,0:0:0:0:
256,88,109277,1,0,0:0:0:0:
256,88,109413,1,0,0:0:0:0:
256,88,109549,2,0,B|296:80|296:80|320:112|368:112,1,120,10|8,0:0|0:0,0:0:0:0:
404,104,110095,5,0,0:0:0:0:
288,16,110368,2,0,L|208:32,1,80,2|0,0:0|0:0,0:0:0:0:
96,192,110913,2,0,P|128:232|160:240,1,80,2|0,0:0|0:0,0:0:0:0:
352,192,111459,2,0,P|320:168|272:168,2,80,0|10|0,0:0|0:0|0:0,0:0:0:0:
368,228,112140,5,8,0:0:0:0:
264,88,112549,2,0,P|224:104|200:144,1,80,2|0,0:0|0:0,0:0:0:0:
344,288,113095,2,0,B|384:304|416:272|416:272|448:288|448:288|440:244|472:208,1,200,2|0,0:0|0:0,0:0:0:0:
508,192,113913,5,10,0:0:0:0:
448,136,114186,2,0,L|432:88,2,40,0|8|2,0:0|0:0|0:0,0:0:0:0:
464,24,114731,1,0,0:0:0:0:
360,128,115004,2,0,P|320:136|240:104,1,120,2|0,0:0|0:0,0:0:0:0:
64,48,115822,2,0,L|144:32,2,80,0|10|0,0:0|0:0|0:0,0:0:0:0:
24,56,116504,5,8,0:0:0:0:
208,128,116913,2,0,P|248:152|272:192,1,80,2|0,0:0|0:0,0:0:0:0:
144,328,117459,2,0,P|144:288|168:248,1,80,2|0,0:0|0:0,0:0:0:0:
368,272,118004,1,0,0:0:0:0:
368,272,118140,1,0,0:0:0:0:
368,272,118277,2,0,B|328:280|328:280|304:320|264:320,1,120,10|8,0:0|0:0,0:0:0:0:
224,312,118822,5,0,0:0:0:0:
320,216,119095,2,0,L|400:200,1,80,2|0,0:0|0:0,0:0:0:0:
480,56,119640,2,0,P|432:16|400:16,1,80,2|0,0:0|0:0,0:0:0:0:
232,96,120186,2,0,P|272:120|304:120,2,80,0|10|0,0:0|0:0|0:0,0:0:0:0:
208,64,120868,5,8,0:0:0:0:
192,248,121277,2,0,P|160:280|112:288,2,80,2|0|0,0:0|0:0|0:0,0:0:0:0:
384,288,122095,2,0,P|346:277|320:248,1,80,2|0,0:0|0:0,0:0:0:0:
256,32,122640,6,0,B|272:112|272:112|232:104,2,120,12|8|8,0:0|0:0|0:0,0:0:0:0:
352,136,123731,1,8,0:1:0:0:
240,192,124004,2,0,L|168:176,2,40,10|0|4,0:0|0:0|0:3,0:0:0:0:
320,216,124549,1,0,0:0:0:0:
168,264,124822,6,0,B|88:288|88:288|72:320,2,120,10|8|10,0:0|0:0|0:0,0:0:0:0:
184,272,126186,1,8,0:0:0:0:
128,184,126459,2,0,L|144:144,2,40,2|0|0,0:0|0:0|0:0,0:0:0:0:
112,56,127004,6,0,B|120:64|120:64|128:56|128:56|136:64|136:64|224:96,1,120,10|8,0:0|0:0,0:0:0:0:
408,144,127822,1,8,0:0:0:0:
288,56,128095,1,8,0:1:0:0:
368,64,128368,2,0,L|440:72,2,40,10|0|0,0:0|0:0|0:0,0:0:0:0:
240,120,128913,1,0,0:0:0:0:
352,224,129186,5,10,0:0:0:0:
296,280,129459,1,0,0:0:0:0:
216,280,129731,1,2,0:0:0:0:
160,224,130004,1,8,0:0:0:0:
160,224,130140,1,2,0:0:0:0:
256,24,130549,1,8,0:0:0:0:
256,104,130822,2,0,P|256:112|264:144,1,40,2|0,0:0|0:0,0:0:0:0:
456,320,131368,6,0,B|376:304|376:304|384:344,2,120,12|8|8,0:0|0:0|0:0,0:0:0:0:
352,232,132459,1,8,0:1:0:0:
312,344,132731,2,0,L|320:384,2,40,10|0|4,0:0|0:0|0:3,0:0:0:0:
292,268,133277,1,2,0:0:0:0:
152,176,133549,6,0,B|64:160|64:160|32:176,2,120,8|8|10,0:0|0:0|0:0,0:0:0:0:
160,184,134913,1,8,0:0:0:0:
104,280,135186,2,0,L|136:304,2,40,2|0|0,0:0|0:0|0:0,0:0:0:0:
32,120,135731,6,0,P|64:88|112:72,1,80,8|2,0:0|0:0,0:0:0:0:
136,72,136140,1,8,0:0:0:0:
248,264,136549,1,8,0:0:0:0:
248,264,136686,2,0,L|288:280,1,40,2|8,0:0|0:1,0:0:0:0:
448,344,137095,2,0,L|408:328,1,40,10|0,0:0|0:0,0:0:0:0:
376,312,137368,1,0,0:0:0:0:
424,200,137640,1,0,0:0:0:0:
328,248,137913,5,2,0:0:0:0:
480,256,138186,1,8,0:0:0:0:
336,136,138459,2,0,P|280:136|240:168,1,80,10|0,0:0|0:0,0:0:0:0:
144,272,139004,1,8,0:0:0:0:
168,176,139277,1,8,0:0:0:0:
152,144,139413,1,2,0:0:0:0:
136,112,139549,1,8,0:1:0:0:
176,24,139822,1,10,0:0:0:0:
56,168,140095,6,0,B|40:248|104:240|88:320,1,160,12|8,0:0|0:1,0:0:0:0:
32,376,140913,1,10,0:0:0:0:
136,192,141186,2,0,P|176:168|272:176,1,120,8|2,0:0|0:0,0:0:0:0:
284,180,141731,1,8,0:1:0:0:
384,280,142004,1,0,0:0:0:0:
424,144,142277,6,0,P|408:104|344:56,1,120,8|2,0:0|0:0,0:0:0:0:
312,48,142822,1,8,0:1:0:0:
224,168,143095,2,0,L|176:240,2,80,8|8|0,0:0|0:0|0:0,0:0:0:0:
192,56,143913,1,8,0:1:0:0:
288,152,144186,5,0,0:0:0:0:
288,152,144322,1,0,0:0:0:0:
288,152,144459,2,0,B|296:184|276:208|276:208|288:240|264:272,1,120,10|0,0:0|0:0,0:0:0:0:
240,292,145004,1,8,0:1:0:0:
128,216,145277,2,0,P|80:216|40:240,1,80,10|8,0:0|0:0,0:0:0:0:
120,352,145822,1,0,0:0:0:0:
304,328,146095,1,8,0:1:0:0:
184,168,146368,6,0,P|184:128|208:88,2,80,2|8|0,0:0|0:0|0:0,0:0:0:0:
240,292,147186,1,8,0:1:0:0:
312,168,147459,2,0,P|344:144|392:136,1,80,10|8,0:0|0:0,0:0:0:0:
512,152,148004,1,0,0:0:0:0:
440,216,148277,1,8,0:1:0:0:
432,248,148413,1,0,0:0:0:0:
424,280,148549,1,2,0:0:0:0:
364,120,148822,6,0,B|340:92|300:96|300:96|284:72|284:72|256:88|224:80,1,160,8|8,0:0|0:1,0:0:0:0:
120,32,149640,1,10,0:0:0:0:
56,144,149913,2,0,P|48:184|64:232,1,80,8|2,0:0|0:0,0:0:0:0:
144,312,150459,1,8,0:1:0:0:
248,240,150731,5,0,0:0:0:0:
248,240,150868,2,0,L|256:200,1,40,0|8,0:0|0:0,0:0:0:0:
272,168,151140,2,0,P|312:136|392:136,1,120,2|8,0:0|0:1,0:0:0:0:
480,200,151822,1,8,0:0:0:0:
424,64,152095,1,10,0:0:0:0:
400,224,152368,2,0,P|376:264|336:288,1,80,0|8,0:0|0:1,0:0:0:0:
232,128,152913,5,0,0:0:0:0:
232,128,153049,1,0,0:0:0:0:
232,128,153186,2,0,P|184:104|72:128,1,160,10|8,0:0|0:1,0:0:0:0:
8,216,154004,1,8,0:0:0:0:
80,328,154277,2,0,L|112:240,1,80,10|0,0:0|0:0,0:0:0:0:
152,120,154822,1,8,0:1:0:0:
208,256,155095,6,0,P|240:280|296:280,1,80,2|8,0:0|0:0,0:0:0:0:
416,232,155640,1,0,0:0:0:0:
272,200,155913,1,8,0:1:0:0:
336,64,156186,2,0,P|376:32|416:24,1,80,10|8,0:0|0:0,0:0:0:0:
464,144,156731,1,2,0:0:0:0:
464,144,156868,2,0,P|424:176|384:184,1,80,8|0,0:0|0:0,0:0:0:0:
356,176,157277,1,10,0:0:0:0:
130,133,157549,6,0,B|170:157|170:157|190:185|226:181|226:181|274:201,1,160,12|8,0:0|0:1,0:0:0:0:
360,72,158368,1,8,0:0:0:0:
220,120,158640,2,0,P|192:152|184:200,1,80,8|2,0:0|0:0,0:0:0:0:
208,328,159186,1,8,0:1:0:0:
208,328,159459,1,0,0:0:0:0:
288,208,159731,6,0,P|328:176|408:168,1,120,10|0,0:0|0:0,0:0:0:0:
432,176,160277,1,8,0:1:0:0:
272,280,160549,2,0,P|232:256|216:224,1,80,10|8,0:0|0:0,0:0:0:0:
192,96,161095,1,0,0:0:0:0:
56,168,161368,1,8,0:1:0:0:
88,296,161640,5,0,0:0:0:0:
88,296,161777,1,0,0:0:0:0:
88,296,161913,2,0,P|120:328|160:336,1,80,10|0,0:0|0:0,0:0:0:0:
288,328,162459,1,8,0:1:0:0:
264,192,162731,2,0,L|248:104,1,80,10|8,0:0|0:0,0:0:0:0:
312,56,163277,1,0,0:0:0:0:
176,176,163549,1,8,0:1:0:0:
336,256,163822,6,0,P|368:288|376:328,2,80,2|8|0,0:0|0:0|0:0,0:0:0:0:
208,248,164640,1,8,0:1:0:0:
72,152,164913,2,0,P|112:176|152:176,1,80,10|8,0:0|0:0,0:0:0:0:
280,96,165459,1,0,0:0:0:0:
224,184,165731,1,8,0:1:0:0:
216,216,165868,1,0,0:0:0:0:
208,248,166004,1,2,0:0:0:0:
368,344,166277,6,0,B|360:280|296:256|296:256|336:248,1,160,8|8,0:0|0:1,0:0:0:0:
416,232,167095,1,10,0:0:0:0:
272,352,167368,2,0,P|224:360|176:344,1,80,8|0,0:0|0:0,0:0:0:0:
80,304,167913,1,8,0:1:0:0:
152,208,168186,5,2,0:0:0:0:
152,208,168322,2,0,L|144:168,1,40,0|8,0:0|0:0,0:0:0:0:
136,128,168595,2,0,P|152:80|208:40,1,120,0|8,0:0|0:1,0:0:0:0:
336,24,169277,1,10,0:0:0:0:
416,128,169549,1,8,0:0:0:0:
288,184,169822,2,0,P|248:184|208:160,1,80,0|8,0:0|0:1,0:0:0:0:
24,192,170368,5,0,0:0:0:0:
24,192,170504,1,0,0:0:0:0:
24,192,170640,2,0,P|72:184|168:232,1,160,10|8,0:0|0:1,0:0:0:0:
208,336,171459,1,8,0:0:0:0:
264,240,171731,2,0,P|312:216|352:216,1,80,10|0,0:0|0:0,0:0:0:0:
440,232,172277,1,8,0:1:0:0:
400,128,172549,6,0,L|304:120,1,80,2|8,0:0|0:0,0:0:0:0:
184,112,173095,1,0,0:0:0:0:
288,48,173368,1,8,0:1:0:0:
256,176,173640,2,0,P|224:216|176:232,1,80,10|8,0:0|0:0,0:0:0:0:
24,232,174186,1,0,0:0:0:0:
24,232,174322,1,8,0:0:0:0:
24,232,174459,2,0,P|72:232|112:256,1,80,8|8,0:1|0:0,0:0:0:0:
224,360,175004,1,4,0:0:0:0:
224,360,192459,6,0,L|320:344,2,96,10|8|0,0:0|0:0|0:0,0:0:0:0:
168,288,193549,2,0,P|128:272|72:280,1,96
208,96,194368,1,8,0:0:0:0:
224,184,194640,6,0,L|240:288,1,96,8|8,0:0|0:0,0:0:0:0:
288,128,195459,2,0,P|344:112|424:136,1,128
496,304,196549,1,0,0:0:0:0:
416,264,196822,2,0,L|320:280,1,96,10|8,0:0|0:0,0:0:0:0:
432,192,198731,5,8,0:0:0:0:
400,272,199004,2,0,L|304:288,1,96,8|8,0:0|0:0,0:0:0:0:
152,312,199822,1,0,0:0:0:0:
208,240,200095,2,0,P|208:200|192:168,2,64
152,312,200913,1,0,0:0:0:0:
56,144,201186,6,0,L|88:48,2,96,10|8|0,0:0|0:0|0:0,0:0:0:0:
128,200,202277,2,0,P|192:208|240:184,1,96
368,48,203095,1,8,0:0:0:0:
384,136,203368,6,0,L|400:240,1,96,8|8,0:0|0:0,0:0:0:0:
304,104,204186,2,0,P|248:104|184:64,1,128
24,232,205277,1,0,0:0:0:0:
96,280,205549,2,0,L|192:256,1,96,10|8,0:0|0:0,0:0:0:0:
64,344,207459,5,8,0:0:0:0:
128,280,207731,2,0,L|224:256,1,96,8|8,0:0|0:0,0:0:0:0:
448,208,208822,1,0,0:0:0:0:
304,80,209368,1,0,0:0:0:0:
192,232,209913,6,0,L|184:272,4,32,10|0|0|8|0,0:0|0:0|0:0|0:0|0:0,0:0:0:0:
176,144,210731,2,0,P|128:112|56:112,1,128,2|0,0:0|0:0,0:0:0:0:
8,240,211549,2,0,P|24:272|48:296,1,64,0|8,0:0|0:0,0:0:0:0:
128,328,212095,6,0,L|160:336,3,32,10|0|0|8,0:0|0:0|0:0|0:0,0:0:0:0:
159,335,212640,2,0,P|184:336|224:328,1,64
296,280,213186,2,0,P|328:248|336:216,1,64
344,144,213731,2,0,P|344:112|336:80,1,64
208,168,214277,6,0,L|176:200,4,32,10|0|0|8|0,0:0|0:0|0:0|0:0|0:0,0:0:0:0:
288,120,215095,2,0,P|352:120|416:160,1,128,2|0,0:0|0:0,0:0:0:0:
448,256,215913,2,0,P|440:312|424:336,1,64,0|8,0:0|0:0,0:0:0:0:
360,360,216459,6,0,L|328:368,3,32,10|0|0|8,0:0|0:0|0:0|0:0,0:0:0:0:
329,368,217004,2,0,P|305:369|249:345,1,64
200,296,217549,2,0,P|192:256|200:216,1,64
240,152,218095,1,0,0:0:0:0:
128,72,218368,5,0,0:0:0:0:
128,72,218504,1,0,0:0:0:0:
128,72,218640,2,0,L|80:96,4,32,10|0|0|8|0,0:0|0:0|0:0|0:0|0:0,0:0:0:0:
240,24,219459,2,0,B|312:8|352:56|352:56|344:96|360:124,1,192,2|0,0:0|0:0,0:0:0:0:
432,176,220549,1,8,0:0:0:0:
464,80,220822,6,0,L|416:88,4,32,10|0|0|8|0,0:0|0:0|0:0|0:0|0:0,0:0:0:0:
504,232,221640,1,2,0:0:0:0:
416,328,221913,2,0,P|360:328|320:304,1,96
232,152,222731,5,0,0:0:0:0:
232,152,222868,1,0,0:0:0:0:
232,152,223004,2,0,L|248:112,4,32,10|0|0|8|0,0:0|0:0|0:0|0:0|0:0,0:0:0:0:
208,32,223822,2,0,B|160:8|112:32|112:32|56:24|24:64,1,192,2|0,0:0|0:0,0:0:0:0:
0,144,224913,1,8,0:0:0:0:
104,144,225186,6,0,L|88:104,4,32,10|0|0|8|0,0:0|0:0|0:0|0:0|0:0,0:0:0:0:
144,240,226004,1,2,0:0:0:0:
208,160,226277,2,0,L|296:120,1,96
472,144,227095,1,8,0:0:0:0:
448,272,227368,6,0,P|408:312|336:328,1,128,10|0,0:0|0:0,0:0:0:0:
248,256,228186,2,0,B|224:196|272:188|248:132,1,128,2|0,0:0|0:0,0:0:0:0:
184,72,229004,1,0,0:0:0:0:
72,112,229277,1,8,0:0:0:0:
184,160,229549,6,0,P|224:152|264:104,1,96,10|8,0:0|0:0,0:0:0:0:
384,48,230368,2,0,P|424:96|432:160,1,128,10|0,0:0|0:0,0:0:0:0:
400,280,231186,2,0,P|376:304|336:320,1,64,0|8,0:0|0:0,0:0:0:0:
144,288,231731,6,0,P|104:248|88:176,1,128,10|0,0:0|0:0,0:0:0:0:
144,80,232549,2,0,B|200:56|216:96|272:80,1,128,2|0,0:0|0:0,0:0:0:0:
336,24,233368,1,0,0:0:0:0:
440,104,233640,1,8,0:0:0:0:
344,120,233913,6,0,P|312:152|304:208,1,96,10|8,0:0|0:0,0:0:0:0:
376,368,234731,2,0,B|392:344|384:312|384:312|352:296|336:256|336:256|304:272|272:256,1,192,2|0,0:0|0:0,0:0:0:0:
216,192,235822,1,8,0:0:0:0:
360,160,236095,6,0,P|400:200|408:240,1,96,10|8,0:0|0:0,0:0:0:0:
256,352,236913,2,0,B|208:360|176:328|176:328|152:336|152:336|152:288|120:264,1,192
40,232,238004,1,8,0:0:0:0:
112,184,238277,6,0,P|136:160|144:128,1,64,10|0,0:0|0:0,0:0:0:0:
136,48,238822,2,0,B|192:48|216:92|216:92|248:128|304:120,1,191.999994140625
376,88,240186,1,8,0:0:0:0:
400,20,240459,6,0,L|376:88,1,71.9999978027344,10|8,0:0|0:0,0:0:0:0:
408,24,242640,5,4,0:0:0:0:
464,248,243459,1,0,0:0:0:0:
424,184,243731,2,0,P|432:160|464:128,2,71.9999978027344,2|0|0,0:0|0:0|0:0,0:0:0:0:
392,256,244822,6,0,P|368:272|312:272,1,71.9999978027344,2|0,0:0|0:0,0:0:0:0:
264,176,245640,1,0,0:0:0:0:
336,204,245913,2,0,P|364:244|356:308,1,95.9999970703126,2|0,0:0|0:0,0:0:0:0:
248,328,246731,5,0,0:0:0:0:
248,328,246868,1,0,0:0:0:0:
248,328,247004,2,0,P|220:288|228:224,1,95.9999970703126,2|0,0:0|0:0,0:0:0:0:
264,176,247822,2,0,P|296:160|328:96,1,95.9999970703126,2|0,0:0|0:0,0:0:0:0:
288,40,248640,1,0,0:0:0:0:
216,72,248913,6,0,P|184:80|168:80,1,47.9999985351563,0|2,0:0|0:0,0:0:0:0:
64,24,249459,2,0,P|88:48|96:64,1,47.9999985351563
120,136,250004,2,0,B|128:176|88:192|96:232,1,95.9999970703126,2|0,0:0|0:0,0:0:0:0:
120,296,250822,1,0,0:0:0:0:
184,336,251095,1,0,0:0:0:0:
260,336,251368,6,0,P|292:320|308:304,1,47.9999985351563,2|0,0:0|0:0,0:0:0:0:
284,236,251913,2,0,P|252:252|236:268,1,47.9999985351563,0|2,0:0|0:0,0:0:0:0:
376,336,252731,1,0,0:0:0:0:
424,280,253004,2,0,P|440:240|440:224,1,47.9999985351563
436,196,253413,6,0,P|420:164|380:140,1,71.9999978027344,2|0,0:0|0:0,0:0:0:0:
324,180,254095,2,0,P|348:204|376:216,1,47.9999985351563,0|2,0:0|0:0,0:0:0:0:
464,48,255186,1,0,0:0:0:0:
400,96,255459,1,0,0:0:0:0:
328,128,255731,6,0,P|288:136|232:120,1,95.9999970703126,2|0,0:0|0:0,0:0:0:0:
184,64,256549,1,2,0:0:0:0:
200,192,256822,2,0,P|192:224|152:272,1,95.9999970703126,0|2,0:0|0:0,0:0:0:0:
80,304,257640,1,0,0:0:0:0:
208,336,257913,6,0,P|248:328|280:304,1,64,2|0,0:0|0:0,0:0:0:0:
360,168,258459,2,0,P|392:192|408:224,1,64,2|0,0:0|0:0,0:0:0:0:
400,352,259004,1,0,0:0:0:0:
320,248,259277,1,8,0:0:0:0:
288,240,259413,1,0,0:0:0:0:
256,232,259549,1,8,0:1:0:0:
144,256,259822,1,10,0:0:0:0:
272,120,260095,6,0,B|304:72|280:16|280:16|304:8|332:24,1,160,12|8,0:0|0:1,0:0:0:0:
392,96,260913,1,10,0:0:0:0:
200,64,261186,2,0,P|144:72|96:112,1,120,8|2,0:0|0:0,0:0:0:0:
84,148,261731,1,8,0:1:0:0:
120,296,262004,1,0,0:0:0:0:
232,200,262277,6,0,P|288:192|360:224,1,120,8|2,0:0|0:0,0:0:0:0:
376,240,262822,1,8,0:1:0:0:
424,360,263095,1,8,0:0:0:0:
456,232,263368,2,0,P|432:180|392:160,1,80,8|0,0:0|0:0,0:0:0:0:
248,144,263913,1,8,0:1:0:0:
344,88,264186,5,0,0:0:0:0:
344,88,264322,1,0,0:0:0:0:
344,88,264459,2,0,B|376:72|376:32|376:32|424:56,1,120,10|0,0:0|0:0,0:0:0:0:
456,72,265004,1,8,0:1:0:0:
308,32,265277,2,0,P|256:40|232:56,1,80,10|8,0:0|0:0,0:0:0:0:
136,216,265822,1,0,0:0:0:0:
288,160,266095,1,8,0:1:0:0:
136,64,266368,6,0,P|80:72|48:96,2,80,2|8|0,0:0|0:0|0:0,0:0:0:0:
256,104,267186,1,8,0:1:0:0:
232,248,267459,2,0,L|216:336,1,80,10|8,0:0|0:0,0:0:0:0:
360,368,268004,1,0,0:0:0:0:
392,256,268277,1,8,0:1:0:0:
376,224,268413,1,0,0:0:0:0:
360,192,268549,1,2,0:0:0:0:
448,24,268822,6,0,P|480:64|480:184,1,160,8|8,0:0|0:1,0:0:0:0:
408,288,269640,1,10,0:0:0:0:
248,248,269913,2,0,L|264:160,1,80,8|0,0:0|0:0,0:0:0:0:
288,24,270459,1,8,0:1:0:0:
136,88,270731,5,2,0:0:0:0:
136,88,270868,2,0,L|96:112,1,40,0|8,0:0|0:0,0:0:0:0:
72,136,271140,2,0,P|48:176|48:248,1,120,0|8,0:0|0:1,0:0:0:0:
168,344,271822,1,10,0:0:0:0:
256,224,272095,2,0,P|248:176|216:144,1,80,8|0,0:0|0:0,0:0:0:0:
136,88,272640,1,8,0:1:0:0:
288,40,272913,5,0,0:0:0:0:
288,40,273049,1,0,0:0:0:0:
288,40,273186,2,0,P|344:32|432:88,1,160,10|8,0:0|0:1,0:0:0:0:
472,192,274004,1,8,0:0:0:0:
296,280,274277,2,0,P|288:224|304:192,1,80,10|0,0:0|0:0,0:0:0:0:
384,144,274822,1,8,0:1:0:0:
368,304,275095,6,0,P|336:344|288:352,1,80,2|8,0:0|0:0,0:0:0:0:
176,320,275640,1,0,0:0:0:0:
256,192,275913,1,8,0:1:0:0:
120,136,276186,2,0,P|80:144|48:176,1,80,10|8,0:0|0:0,0:0:0:0:
104,272,276731,1,0,0:0:0:0:
104,272,276868,2,0,P|144:264|176:232,1,80,8|0,0:0|0:0,0:0:0:0:
192,204,277277,1,10,0:0:0:0:
356,132,277549,6,0,B|324:188|260:180|260:180|252:156|228:140,1,160,12|8,0:0|0:1,0:0:0:0:
136,128,278368,1,10,0:0:0:0:
304,72,278640,2,0,P|344:56|400:64,1,80,8|0,0:0|0:0,0:0:0:0:
496,112,279186,1,8,0:1:0:0:
496,112,279459,1,2,0:0:0:0:
360,200,279731,6,0,P|344:248|352:320,1,120,8|0,0:0|0:0,0:0:0:0:
368,352,280277,1,8,0:1:0:0:
232,280,280549,2,0,L|144:264,1,80,10|8,0:0|0:0,0:0:0:0:
24,248,281095,1,0,0:0:0:0:
120,336,281368,1,8,0:1:0:0:
136,200,281640,5,0,0:0:0:0:
136,200,281777,1,0,0:0:0:0:
136,200,281913,2,0,P|160:160|192:144,1,80,10|0,0:0|0:0,0:0:0:0:
328,136,282459,1,8,0:1:0:0:
200,32,282731,2,0,P|160:32|120:56,1,80,10|8,0:0|0:0,0:0:0:0:
48,176,283277,1,0,0:0:0:0:
184,112,283549,1,8,0:1:0:0:
320,208,283822,6,0,P|360:200|392:168,2,80,2|8|0,0:0|0:0|0:0,0:0:0:0:
184,176,284640,1,8,0:1:0:0:
312,88,284913,2,0,P|360:72|408:80,1,80,10|8,0:0|0:0,0:0:0:0:
504,136,285459,1,0,0:0:0:0:
440,240,285731,1,8,0:1:0:0:
408,248,285868,1,0,0:0:0:0:
376,256,286004,1,2,0:0:0:0:
224,280,286277,6,0,B|288:264|288:200|288:200|248:168,1,160,8|8,0:0|0:1,0:0:0:0:
152,112,287095,1,10,0:0:0:0:
288,112,287368,2,0,L|360:168,1,80,8|0,0:0|0:0,0:0:0:0:
456,248,287913,1,8,0:1:0:0:
344,312,288186,5,2,0:0:0:0:
344,312,288322,2,0,L|304:336,1,40,0|8,0:0|0:0,0:0:0:0:
272,344,288595,2,0,P|232:352|144:312,1,120,0|8,0:0|0:1,0:0:0:0:
88,224,289277,1,10,0:0:0:0:
216,216,289549,2,0,P|264:200|296:168,1,80,8|0,0:0|0:0,0:0:0:0:
336,64,290095,1,8,0:1:0:0:
216,16,290368,5,0,0:0:0:0:
216,16,290504,1,0,0:0:0:0:
216,16,290640,2,0,P|168:16|80:80,1,160,10|8,0:0|0:1,0:0:0:0:
48,200,291459,1,8,0:0:0:0:
176,152,291731,2,0,P|224:144|280:160,1,80,10|0,0:0|0:0,0:0:0:0:
368,224,292277,1,8,0:1:0:0:
272,344,292549,6,0,L|296:264,1,80,2|8,0:0|0:0,0:0:0:0:
344,128,293095,1,0,0:0:0:0:
456,72,293368,1,8,0:1:0:0:
312,16,293640,2,0,P|264:16|208:40,1,80,10|8,0:0|0:0,0:0:0:0:
88,96,294186,1,0,0:0:0:0:
88,96,294322,1,8,0:0:0:0:
88,96,294459,2,0,P|104:128|152:160,1,80,8|8,0:1|0:0,0:0:0:0:
256,192,295004,1,4,0:0:0:0:
256,192,295140,12,0,299368,0:0:0:0:
