osu file format v13

[General]
AudioFilename: mnemonic.mp3
AudioLeadIn: 0
PreviewTime: 255195
Countdown: 0
SampleSet: Soft
StackLeniency: 0.7
Mode: 3
LetterboxInBreaks: 0
EpilepsyWarning: 1
SpecialStyle: 0
WidescreenStoryboard: 1

[Editor]
Bookmarks: 9195,105174,192447,240447
DistanceSpacing: 1.2
BeatDivisor: 4
GridSize: 4
TimelineZoom: 1

[Metadata]
Title:mnemonic
TitleUnicode:mnemonic
Artist:yanaginagi
ArtistUnicode:やなぎなぎ
Creator:Sharlo
Version:Ruru's HD
Source:凪のあすから
Tags:Nagi_no_Asukara Rumia-
BeatmapID:444027
BeatmapSetID:185800

[Difficulty]
HPDrainRate:8
CircleSize:7
OverallDifficulty:8
ApproachRate:7
SliderMultiplier:1.7
SliderTickRate:2

[Events]
//Background and Video events
0,0,"BG.jpg",0,0
//Break Periods
//Storyboard Layer 0 (Background)
//Storyboard Layer 1 (Fail)
//Storyboard Layer 2 (Pass)
//Storyboard Layer 3 (Foreground)
//Storyboard Sound Samples
//Background Colour Transformations
3,100,163,162,255

[TimingPoints]
468,545.454545454546,4,2,1,30,1,0
17922,-100,4,2,1,10,0,0
32922,-100,4,2,0,10,0,0
33195,-100,4,2,2,10,0,0
33468,-100,4,2,0,10,0,0
33740,-100,4,2,1,10,0,0
34558,-133.333333333333,4,2,1,20,0,0
35104,-100,4,2,1,20,0,0
41922,-100,4,2,1,20,0,0
42195,-100,4,2,1,40,0,0
47377,-100,4,2,1,20,0,0
47649,-100,4,2,1,40,0,0
50649,-100,4,2,1,20,0,0
50922,-100,4,2,1,30,0,0
51740,-100,4,2,2,30,0,0
52286,-100,4,2,1,40,0,0
52558,-100,4,2,2,40,0,0
52831,-100,4,2,1,50,0,1
54468,-100,4,2,1,50,0,1
54604,-100,4,2,1,50,0,1
55558,-100,4,2,1,50,0,1
55695,-100,4,2,1,50,0,1
58286,-100,4,2,2,50,0,1
58558,-100,4,2,1,50,0,1
59377,-100,4,2,2,50,0,1
59649,-100,4,2,1,50,0,1
73013,-100,4,2,1,50,0,1
73149,-100,4,2,1,50,0,1
76831,-100,4,2,2,50,0,1
77377,-100,4,2,1,50,0,1
77513,-100,4,2,1,50,0,1
81740,-100,4,2,1,50,0,1
81877,-100,4,2,1,50,0,1
87740,-100,4,2,1,5,0,0
105195,-100,4,2,1,40,0,0
121831,-133.333333333333,4,2,1,40,0,0
122377,-100,4,2,1,40,0,0
129195,-100,4,2,1,20,0,0
129468,-100,4,2,1,40,0,0
137922,-100,4,2,1,20,0,0
138195,-100,4,2,1,30,0,0
139013,-100,4,2,2,30,0,0
139558,-100,4,2,1,40,0,0
139831,-100,4,2,2,40,0,0
140104,-100,4,2,1,50,0,1
141740,-100,4,2,1,50,0,1
141877,-100,4,2,1,50,0,1
142831,-100,4,2,1,50,0,1
142968,-100,4,2,1,50,0,1
145558,-100,4,2,1,50,0,1
145831,-100,4,2,1,50,0,1
146649,-100,4,2,1,50,0,1
146922,-100,4,2,1,50,0,1
151831,-100,4,2,2,50,0,1
152104,-100,4,2,1,50,0,1
155377,-100,4,2,1,50,0,1
155649,-100,4,2,1,50,0,1
160286,-100,4,2,1,50,0,1
160422,-100,4,2,1,50,0,1
164104,-100,4,2,1,50,0,1
164377,-100,4,2,1,50,0,1
164649,-100,4,2,1,50,0,1
164786,-100,4,2,1,50,0,1
169013,-100,4,2,1,50,0,1
169149,-100,4,2,1,50,0,1
175013,-200,4,2,1,5,0,0
202013,-200,4,2,1,20,0,0
202286,-200,4,2,1,20,0,0
203649,-200,4,2,1,20,0,0
203786,-200,4,2,1,20,0,0
209922,-125,4,2,2,40,0,0
210468,-125,4,2,1,40,0,0
212104,-125,4,2,2,40,0,0
212649,-125,4,2,1,40,0,0
214286,-125,4,2,2,40,0,0
214831,-125,4,2,1,40,0,0
216468,-125,4,2,2,40,0,0
217013,-125,4,2,1,40,0,0
218649,-125,4,2,2,40,0,0
219195,-125,4,2,1,40,0,0
220831,-125,4,2,2,40,0,0
221377,-125,4,2,1,40,0,0
223013,-125,4,2,2,40,0,0
223558,-125,4,2,1,40,0,0
225195,-125,4,2,2,40,0,0
225740,-125,4,2,1,40,0,0
227377,-125,4,2,1,20,0,0
236104,-125,4,2,1,25,0,0
258468,-100,4,2,1,30,0,0
259013,-100,4,2,2,30,0,0
259558,-100,4,2,1,40,0,0
259831,-100,4,2,2,40,0,0
260104,-100,4,2,1,50,0,1
261740,-100,4,2,1,50,0,1
261877,-100,4,2,1,50,0,1
262831,-100,4,2,1,50,0,1
262968,-100,4,2,1,50,0,1
265558,-100,4,2,2,50,0,1
265831,-100,4,2,1,50,0,1
266104,-100,4,2,1,50,0,1
266240,-100,4,2,1,50,0,1
269649,-100,4,2,2,50,0,1
269922,-100,4,2,1,50,0,1
271558,-100,4,2,1,50,0,1
271695,-100,4,2,1,50,0,1
275377,-100,4,2,2,50,0,1
275649,-100,4,2,1,50,0,1
280286,-100,4,2,1,50,0,1
280422,-100,4,2,1,50,0,1
283013,-100,4,2,2,50,0,1
283286,-100,4,2,1,50,0,1
283558,-100,4,2,1,50,0,1
283695,-100,4,2,1,50,0,1
285195,-100,4,2,2,50,0,1
285468,-100,4,2,1,50,0,1
289013,-100,4,2,1,50,0,1
289149,-100,4,2,1,50,0,1
293922,-100,4,2,2,50,0,1
294195,-100,4,2,1,50,0,1
295013,-100,4,2,1,50,0,0

[Colours]
Combo1 : 70,163,255
Combo2 : 170,170,255

[HitObjects]
36,192,468,5,0,0:0:0:0:
475,192,468,1,0,0:0:0:0:
256,192,740,1,0,0:0:0:0:
402,192,877,1,0,0:0:0:0:
109,192,1013,1,0,0:0:0:0:
256,192,1286,1,0,0:0:0:0:
475,192,1286,1,0,0:0:0:0:
402,192,1558,1,0,0:0:0:0:
182,192,1558,1,0,0:0:0:0:
329,192,1831,1,0,0:0:0:0:
109,192,1831,1,0,0:0:0:0:
256,192,2104,1,4,0:0:0:0:
36,192,2104,1,0,0:0:0:0:
329,192,2377,1,0,0:0:0:0:
475,192,2377,1,0,0:0:0:0:
256,192,2649,1,0,0:0:0:0:
109,192,2649,1,0,0:0:0:0:
329,192,2922,1,0,0:0:0:0:
475,192,3058,1,0,0:0:0:0:
329,192,3195,1,0,0:0:0:0:
36,192,3468,1,0,0:0:0:0:
182,192,3468,1,0,0:0:0:0:
109,192,4013,1,0,0:0:0:0:
256,192,4013,1,0,0:0:0:0:
329,192,4286,1,0,0:0:0:0:
109,192,4831,1,0,0:0:0:0:
402,192,4831,1,0,0:0:0:0:
256,192,5104,1,0,0:0:0:0:
475,192,5240,1,0,0:0:0:0:
36,192,5377,1,0,0:0:0:0:
182,192,5377,1,0,0:0:0:0:
256,192,5649,1,0,0:0:0:0:
402,192,5649,1,0,0:0:0:0:
329,192,6195,1,0,0:0:0:0:
36,192,6195,1,0,0:0:0:0:
182,192,6468,1,4,0:0:0:0:
402,192,6740,1,0,0:0:0:0:
256,192,7013,1,0,0:0:0:0:
36,192,7013,128,0,9195:0:0:0:0:
475,192,7286,1,0,0:0:0:0:
329,192,7422,1,0,0:0:0:0:
475,192,7558,1,0,0:0:0:0:
256,192,7831,1,0,0:0:0:0:
109,192,8104,1,0,0:0:0:0:
329,192,8377,1,0,0:0:0:0:
402,192,9195,1,0,0:0:0:0:
256,192,9195,1,0,0:0:0:0:
109,192,9468,1,0,0:0:0:0:
36,192,9604,1,0,0:0:0:0:
182,192,9740,1,2,0:0:0:0:
329,192,9740,1,0,0:0:0:0:
256,192,10013,1,0,0:0:0:0:
402,192,10013,1,0,0:0:0:0:
36,192,10286,1,0,0:0:0:0:
329,192,10286,1,0,0:0:0:0:
402,192,10558,1,0,0:0:0:0:
109,192,10558,1,2,0:0:0:0:
475,192,10831,1,0,0:0:0:0:
182,192,10831,1,0,0:0:0:0:
402,192,11104,1,0,0:0:0:0:
109,192,11104,1,0,0:0:0:0:
329,192,11377,1,0,0:0:0:0:
36,192,11377,1,0,0:0:0:0:
256,192,11649,1,0,0:0:0:0:
109,192,11786,1,0,0:0:0:0:
256,192,11922,1,2,0:0:0:0:
475,192,11922,1,0,0:0:0:0:
182,192,12195,1,0,0:0:0:0:
402,192,12195,1,0,0:0:0:0:
329,192,12740,1,0,0:0:0:0:
109,192,12740,1,0,0:0:0:0:
256,192,13013,1,4,0:0:0:0:
109,192,13558,1,0,0:0:0:0:
402,192,13558,1,0,0:0:0:0:
182,192,13831,1,0,0:0:0:0:
329,192,13968,1,0,0:0:0:0:
182,192,14104,1,0,0:0:0:0:
109,192,14377,1,0,0:0:0:0:
402,192,14377,1,0,0:0:0:0:
182,192,14922,1,0,0:0:0:0:
329,192,14922,1,0,0:0:0:0:
402,192,15195,1,2,0:0:0:0:
109,192,15468,1,0,0:0:0:0:
256,192,15740,128,0,17922:0:0:0:0:
475,192,15740,1,0,0:0:0:0:
36,192,15740,1,0,0:0:0:0:
182,192,16013,1,0,0:0:0:0:
329,192,16149,1,0,0:0:0:0:
182,192,16286,1,0,0:0:0:0:
402,192,16558,1,0,0:0:0:0:
109,192,16831,1,0,0:0:0:0:
329,192,17104,1,0,0:0:0:0:
109,192,17922,1,0,0:0:0:0:
402,192,17922,1,0,0:0:0:0:
329,192,18195,1,0,0:0:0:0:
182,192,18331,1,0,0:0:0:0:
329,192,18468,1,0,0:0:0:0:
36,192,18468,1,4,0:0:0:0:
182,192,18740,1,0,0:0:0:0:
256,192,19013,1,0,0:0:0:0:
475,192,19013,1,0,0:0:0:0:
402,192,19286,1,0,0:0:0:0:
182,192,19286,1,0,0:0:0:0:
329,192,19558,1,0,0:0:0:0:
109,192,19558,1,0,0:0:0:0:
256,192,19831,1,0,0:0:0:0:
36,192,19831,1,0,0:0:0:0:
109,192,20104,1,0,0:0:0:0:
329,192,20104,1,0,0:0:0:0:
402,192,20377,1,0,0:0:0:0:
475,192,20513,1,0,0:0:0:0:
329,192,20649,1,0,0:0:0:0:
182,192,20922,1,0,0:0:0:0:
36,192,20922,1,0,0:0:0:0:
402,192,21195,1,0,0:0:0:0:
109,192,21468,1,0,0:0:0:0:
256,192,21468,1,0,0:0:0:0:
402,192,21740,1,0,0:0:0:0:
329,192,22013,1,0,0:0:0:0:
256,192,22149,1,0,0:0:0:0:
182,192,22286,1,0,0:0:0:0:
475,192,22286,128,0,24468:0:0:0:0:
36,192,22558,1,0,0:0:0:0:
109,192,22694,1,0,0:0:0:0:
329,192,22695,1,0,0:0:0:0:
182,192,22831,1,0,0:0:0:0:
256,192,23104,1,0,0:0:0:0:
402,192,23104,1,0,0:0:0:0:
109,192,23377,1,0,0:0:0:0:
182,192,23649,1,0,0:0:0:0:
36,192,23649,1,0,0:0:0:0:
329,192,23922,1,0,0:0:0:0:
109,192,24195,1,0,0:0:0:0:
256,192,24468,1,0,0:0:0:0:
402,192,24468,128,0,26649:0:0:0:0:
36,192,24740,1,0,0:0:0:0:
109,192,24877,1,0,0:0:0:0:
256,192,24877,1,0,0:0:0:0:
329,192,25013,1,0,0:0:0:0:
182,192,25286,1,0,0:0:0:0:
36,192,25558,1,0,0:0:0:0:
256,192,25831,1,0,0:0:0:0:
475,192,26649,128,0,28831:0:0:0:0:
256,192,26649,1,0,0:0:0:0:
109,192,26649,1,0,0:0:0:0:
36,192,26922,1,0,0:0:0:0:
182,192,27058,1,0,0:0:0:0:
36,192,27195,1,0,0:0:0:0:
329,192,27195,128,0,27468:0:0:0:0:
109,192,27468,128,0,27740:0:0:0:0:
256,192,27740,128,0,28013:0:0:0:0:
36,192,28013,128,0,28286:0:0:0:0:
329,192,28286,128,0,28558:0:0:0:0:
109,192,28558,128,0,28831:0:0:0:0:
402,192,28831,1,0,0:0:0:0:
182,192,28831,128,0,31013:0:0:0:0:
329,192,29104,1,0,0:0:0:0:
402,192,29240,1,0,0:0:0:0:
329,192,29377,1,0,0:0:0:0:
109,192,29377,128,0,29649:0:0:0:0:
36,192,29649,128,0,29922:0:0:0:0:
402,192,29922,128,0,30195:0:0:0:0:
475,192,30195,128,0,30468:0:0:0:0:
329,192,30468,1,0,0:0:0:0:
109,192,30740,1,0,0:0:0:0:
36,192,30877,1,0,0:0:0:0:
475,192,31013,128,0,33195:0:0:0:0:
256,192,31013,1,0,0:0:0:0:
109,192,31286,1,0,0:0:0:0:
256,192,31422,1,0,0:0:0:0:
402,192,31558,1,0,0:0:0:0:
182,192,31831,1,0,0:0:0:0:
36,192,31831,1,0,0:0:0:0:
329,192,32104,1,0,0:0:0:0:
109,192,32377,1,0,0:0:0:0:
182,192,32922,1,0,0:0:0:0:
36,192,33195,1,0,0:0:0:0:
329,192,33195,1,0,0:0:0:0:
182,192,33468,1,0,0:0:0:0:
329,192,33604,1,0,0:0:0:0:
182,192,33740,1,0,0:0:0:0:
256,192,34013,1,0,0:0:0:0:
109,192,34013,1,0,0:0:0:0:
402,192,34286,1,0,0:0:0:0:
182,192,34558,1,0,0:0:0:0:
109,192,35377,1,0,0:0:0:0:
402,192,35377,1,0,0:0:0:0:
402,192,35649,1,0,0:0:0:0:
109,192,35649,1,0,0:0:0:0:
256,192,35922,1,0,0:0:0:0:
109,192,36195,1,0,0:0:0:0:
256,192,36331,1,0,0:0:0:0:
402,192,36468,1,0,0:0:0:0:
329,192,36740,1,0,0:0:0:0:
182,192,36877,1,0,0:0:0:0:
36,192,37013,1,0,0:0:0:0:
182,192,37286,1,0,0:0:0:0:
475,192,37286,1,0,0:0:0:0:
402,192,37558,1,0,0:0:0:0:
109,192,37558,1,0,0:0:0:0:
329,192,37831,1,0,0:0:0:0:
36,192,37831,1,0,0:0:0:0:
182,192,38104,1,0,0:0:0:0:
475,192,38104,1,0,0:0:0:0:
109,192,38377,1,0,0:0:0:0:
256,192,38513,1,0,0:0:0:0:
109,192,38649,1,0,0:0:0:0:
329,192,38922,1,0,0:0:0:0:
475,192,38922,1,0,0:0:0:0:
109,192,39195,1,0,0:0:0:0:
256,192,39195,1,0,0:0:0:0:
329,192,39740,1,0,0:0:0:0:
475,192,39740,128,0,41922:0:0:0:0:
36,192,39740,1,0,0:0:0:0:
182,192,40013,1,0,0:0:0:0:
329,192,40286,1,0,0:0:0:0:
182,192,40558,1,0,0:0:0:0:
109,192,40695,1,0,0:0:0:0:
329,192,40831,1,0,0:0:0:0:
402,192,41104,1,0,0:0:0:0:
329,192,41240,1,0,0:0:0:0:
109,192,41377,1,0,0:0:0:0:
36,192,41649,1,0,0:0:0:0:
402,192,41922,128,0,44104:0:0:0:0:
109,192,41922,1,0,0:0:0:0:
182,192,42195,1,0,0:0:0:0:
329,192,42468,1,0,0:0:0:0:
109,192,42740,1,0,0:0:0:0:
329,192,42877,1,0,0:0:0:0:
109,192,43013,1,0,0:0:0:0:
475,192,43286,1,0,0:0:0:0:
329,192,43558,1,0,0:0:0:0:
182,192,43831,1,0,0:0:0:0:
36,192,44104,128,0,46286:0:0:0:0:
256,192,44104,1,0,0:0:0:0:
329,192,44377,1,0,0:0:0:0:
475,192,44377,1,0,0:0:0:0:
402,192,44649,1,0,0:0:0:0:
256,192,44649,1,0,0:0:0:0:
182,192,44922,1,0,0:0:0:0:
329,192,45058,1,0,0:0:0:0:
475,192,45195,1,0,0:0:0:0:
402,192,45468,1,0,0:0:0:0:
256,192,45604,1,0,0:0:0:0:
109,192,45740,1,0,0:0:0:0:
182,192,46013,1,0,0:0:0:0:
329,192,46013,1,0,0:0:0:0:
475,192,46286,128,0,48468:0:0:0:0:
256,192,46286,1,0,0:0:0:0:
402,192,46286,1,0,0:0:0:0:
182,192,46558,1,0,0:0:0:0:
329,192,46831,1,0,0:0:0:0:
182,192,47104,1,0,0:0:0:0:
36,192,47240,1,0,0:0:0:0:
182,192,47377,1,0,0:0:0:0:
402,192,47649,1,0,0:0:0:0:
329,192,47922,1,0,0:0:0:0:
256,192,48195,1,0,0:0:0:0:
182,192,48468,1,0,0:0:0:0:
36,192,48468,128,0,50649:0:0:0:0:
256,192,48604,1,0,0:0:0:0:
329,192,48740,1,0,0:0:0:0:
475,192,49013,1,0,0:0:0:0:
329,192,49286,1,0,0:0:0:0:
256,192,49422,1,0,0:0:0:0:
182,192,49558,1,0,0:0:0:0:
109,192,49831,1,0,0:0:0:0:
402,192,49968,1,0,0:0:0:0:
182,192,50104,1,0,0:0:0:0:
329,192,50104,1,0,0:0:0:0:
256,192,50377,1,0,0:0:0:0:
402,192,50377,1,0,0:0:0:0:
109,192,50649,1,4,0:0:0:0:
475,192,50649,128,0,52831:0:0:0:0:
182,192,50922,1,8,0:0:0:0:
256,192,51195,1,8,0:0:0:0:
402,192,51195,1,0,0:0:0:0:
329,192,51468,1,0,0:0:0:0:
182,192,51468,1,8,0:0:0:0:
256,192,51740,1,0,0:0:0:0:
36,192,51740,1,8,0:0:0:0:
182,192,52013,1,8,0:0:0:0:
329,192,52013,1,0,0:0:0:0:
256,192,52149,1,0,0:0:0:0:
109,192,52286,1,0,0:0:0:0:
402,192,52286,1,0,1:0:0:0:
36,192,52558,1,2,0:0:0:0:
109,192,52831,1,0,0:0:0:0:
329,192,52831,1,0,0:0:0:0:
182,192,53104,1,0,0:0:0:0:
475,192,53377,1,0,0:1:0:70:normal-hitnormal.wav
36,192,53377,1,0,0:0:0:0:
182,192,53649,1,0,0:0:0:0:
109,192,53786,1,0,0:0:0:0:
256,192,53922,1,2,0:0:0:0:
402,192,54195,1,0,0:0:0:0:
182,192,54468,1,0,1:0:0:0:
36,192,54468,1,0,0:0:0:0:
329,192,54740,1,0,0:0:0:0:
109,192,55013,1,0,0:0:0:0:
475,192,55013,1,2,0:0:0:0:
256,192,55286,1,0,0:0:0:0:
182,192,55558,1,0,1:1:0:0:
36,192,55558,1,0,0:0:0:0:
329,192,55831,1,0,0:0:0:0:
402,192,56104,1,2,0:0:0:0:
256,192,56377,1,0,0:0:0:0:
182,192,56649,1,0,1:1:0:0:
36,192,56649,1,0,0:0:0:0:
329,192,56922,1,2,0:0:0:0:
256,192,57195,1,0,0:0:0:0:
109,192,57195,1,0,0:0:0:0:
329,192,57468,1,2,0:0:0:0:
475,192,57740,1,0,1:0:0:0:
36,192,57740,1,0,0:0:0:0:
256,192,58013,1,0,0:0:0:0:
182,192,58286,1,2,0:0:0:0:
402,192,58558,1,0,0:0:0:0:
256,192,58831,1,0,0:0:0:0:
475,192,58831,1,0,1:0:0:0:
329,192,59104,1,2,0:0:0:0:
182,192,59377,1,0,0:0:0:0:
402,192,59377,1,0,0:0:0:0:
256,192,59649,1,2,0:0:0:0:
36,192,59922,1,0,1:0:0:0:
182,192,59922,1,0,0:1:0:0:
329,192,60195,1,2,0:0:0:0:
475,192,60468,1,0,0:0:0:0:
182,192,60740,1,2,0:0:0:0:
36,192,61013,1,0,1:0:0:0:
329,192,61013,1,0,0:1:0:0:
402,192,61149,1,0,0:0:0:0:
182,192,61286,1,2,0:0:0:0:
329,192,61558,1,0,0:0:0:0:
109,192,61558,128,0,63740:0:0:0:0:
256,192,61831,1,2,0:0:0:0:
182,192,62104,1,0,0:0:0:0:
475,192,62104,1,0,1:0:0:0:
329,192,62377,1,2,0:0:0:0:
402,192,62649,1,0,0:0:0:0:
256,192,62922,1,0,0:0:0:0:
36,192,63195,1,0,1:0:0:0:
329,192,63195,1,0,0:0:0:0:
182,192,63468,1,2,0:0:0:0:
36,192,63740,1,0,0:0:0:0:
402,192,63740,1,0,0:0:0:0:
256,192,63740,128,0,65922:0:0:0:0:
182,192,64013,1,2,0:0:0:0:
329,192,64286,1,0,1:0:0:0:
475,192,64286,1,0,0:0:0:0:
109,192,64558,1,2,0:0:0:0:
402,192,64831,1,0,0:0:0:0:
36,192,65104,1,0,0:0:0:0:
182,192,65377,1,0,0:1:0:0:
329,192,65377,1,0,1:0:0:0:
109,192,65649,1,2,0:0:0:0:
475,192,65922,128,0,66468:0:0:0:0:
402,192,65922,1,0,0:0:0:0:
256,192,66195,1,0,0:0:0:0:
329,192,66468,128,0,67013:0:0:0:0:
182,192,66468,1,0,1:0:0:0:
36,192,66740,1,2,0:0:0:0:
182,192,67013,128,0,67558:0:0:0:0:
402,192,67013,1,0,0:0:0:0:
475,192,67286,1,2,0:0:0:0:
329,192,67558,1,0,1:0:0:0:
109,192,67558,1,0,0:0:0:0:
182,192,67831,1,0,0:0:0:0:
402,192,67831,1,2,0:0:0:0:
475,192,68104,1,0,0:0:0:0:
256,192,68104,1,0,0:0:0:0:
109,192,68377,1,0,0:0:0:0:
329,192,68649,1,0,0:0:0:0:
402,192,68649,1,0,1:0:0:0:
182,192,68922,1,0,0:0:0:0:
36,192,69195,1,8,0:0:0:0:
475,192,69195,1,0,0:0:0:0:
256,192,69468,1,8,0:0:0:0:
109,192,69604,1,8,0:0:0:0:
329,192,69740,1,8,0:0:0:0:
475,192,69740,1,0,0:0:0:0:
182,192,70013,1,0,0:0:0:0:
36,192,70013,1,0,0:0:0:0:
256,192,70286,128,0,72468:0:0:0:0:
402,192,70286,1,8,0:0:0:0:
109,192,70558,1,2,0:0:0:0:
329,192,70831,1,0,0:0:0:0:
475,192,70831,1,0,1:0:0:0:
36,192,71104,1,2,0:0:0:0:
402,192,71377,1,0,0:0:0:0:
109,192,71649,1,8,0:0:0:0:
329,192,71922,1,0,0:0:0:0:
475,192,71922,1,0,1:0:0:0:
182,192,72195,1,0,0:0:0:0:
36,192,72468,1,0,0:0:0:0:
402,192,72468,1,0,0:0:0:0:
109,192,72740,1,2,0:0:0:0:
475,192,73013,1,0,0:0:0:0:
182,192,73013,1,0,1:0:0:0:
36,192,73149,1,0,0:0:0:0:
329,192,73286,1,0,0:0:0:0:
36,192,73558,1,2,0:0:0:0:
402,192,73831,1,0,0:0:0:0:
109,192,74104,1,0,1:0:0:0:
256,192,74104,1,0,0:0:0:0:
329,192,74377,1,0,0:0:0:0:
402,192,74513,1,0,0:0:0:0:
475,192,74649,1,0,0:0:0:0:
36,192,74649,1,0,0:0:0:0:
402,192,74922,1,2,0:0:0:0:
256,192,74922,1,0,0:0:0:0:
329,192,75195,1,0,1:0:0:0:
182,192,75195,1,0,0:0:0:0:
475,192,75468,1,2,0:0:0:0:
109,192,75468,1,0,0:0:0:0:
402,192,75740,1,0,0:0:0:0:
182,192,75740,1,0,0:0:0:0:
256,192,76013,1,2,0:0:0:0:
109,192,76013,1,0,0:0:0:0:
36,192,76286,1,0,0:0:0:0:
475,192,76286,1,0,1:0:0:0:
182,192,76558,1,2,0:0:0:0:
402,192,76831,1,0,0:0:0:0:
109,192,76831,1,0,0:0:0:0:
256,192,77104,1,0,0:0:0:0:
182,192,77377,1,0,0:0:0:0:
475,192,77377,1,0,1:0:0:0:
109,192,77649,1,2,0:0:0:0:
36,192,77922,1,2,0:0:0:0:
109,192,78195,1,2,0:0:0:0:
402,192,78468,1,0,1:0:0:0:
256,192,78468,1,8,0:0:0:0:
109,192,78740,1,0,0:0:0:0:
36,192,79013,1,0,0:0:0:0:
475,192,79013,1,0,0:0:0:0:
256,192,79013,128,0,81195:0:0:0:0:
329,192,79286,1,2,0:0:0:0:
109,192,79558,1,0,0:0:0:0:
402,192,79558,1,0,1:0:0:0:
182,192,79831,1,2,0:0:0:0:
475,192,80104,1,2,0:0:0:0:
36,192,80377,1,0,0:0:0:0:
182,192,80649,1,0,0:0:0:0:
329,192,80649,1,0,1:0:0:0:
402,192,80922,1,0,0:0:0:0:
109,192,81195,128,0,83377:0:0:0:0:
475,192,81195,1,0,0:0:0:0:
329,192,81468,1,2,0:0:0:0:
182,192,81740,1,0,1:0:0:0:
36,192,81740,1,0,0:0:0:0:
256,192,82013,1,2,0:0:0:0:
475,192,82013,1,0,0:0:0:0:
329,192,82286,1,0,0:0:0:0:
182,192,82558,1,2,0:0:0:0:
475,192,82831,1,0,0:0:0:0:
329,192,82831,1,0,1:0:0:0:
256,192,83104,1,2,0:0:0:0:
182,192,83240,1,0,0:0:0:0:
402,192,83377,128,0,83922:0:0:0:0:
36,192,83377,1,0,0:0:0:0:
182,192,83649,1,0,0:0:0:0:
256,192,83922,128,0,84468:0:0:0:0:
475,192,83922,1,0,1:0:0:0:
329,192,83922,1,0,0:0:0:0:
182,192,84195,1,2,0:0:0:0:
109,192,84468,128,0,85013:0:0:0:0:
329,192,84468,1,0,0:0:0:0:
402,192,84740,1,2,0:0:0:0:
329,192,85013,1,0,1:0:0:0:
182,192,85013,1,0,0:0:0:0:
402,192,85286,1,0,0:0:0:0:
109,192,85286,1,2,0:0:0:0:
256,192,85558,128,0,87740:0:0:0:0:
36,192,85558,1,0,0:0:0:0:
475,192,85558,1,4,0:0:0:0:
182,192,85831,1,0,0:0:0:0:
109,192,86104,1,0,0:0:0:0:
402,192,86104,1,0,1:0:0:0:
329,192,86240,1,2,0:0:0:0:
182,192,86377,1,0,0:0:0:0:
36,192,86649,1,0,0:0:0:0:
475,192,86922,1,2,0:0:0:0:
109,192,87195,1,0,0:0:0:0:
402,192,87195,1,0,1:0:0:0:
475,192,87331,1,0,0:0:0:0:
329,192,87468,1,2,0:0:0:0:
475,192,87740,1,0,0:0:0:0:
182,192,87740,1,4,0:0:0:0:
329,192,88013,1,0,0:0:0:0:
36,192,88013,1,0,0:0:0:0:
109,192,88286,1,0,0:0:0:0:
402,192,88286,1,0,0:0:0:0:
256,192,88558,1,0,0:0:0:0:
475,192,88831,1,0,0:0:0:0:
256,192,88831,1,0,0:0:0:0:
182,192,89104,1,0,0:0:0:0:
402,192,89377,1,0,0:0:0:0:
109,192,89649,1,0,0:0:0:0:
329,192,89922,1,0,0:0:0:0:
475,192,89922,1,4,0:0:0:0:
109,192,90195,1,0,0:0:0:0:
402,192,90468,1,0,0:0:0:0:
475,192,90740,1,0,0:0:0:0:
36,192,90740,1,0,0:0:0:0:
329,192,91013,1,0,0:0:0:0:
36,192,91013,1,0,0:0:0:0:
182,192,91286,1,0,0:0:0:0:
36,192,91558,1,0,0:0:0:0:
182,192,91831,1,0,0:0:0:0:
109,192,92104,1,0,0:0:0:0:
402,192,92104,1,4,0:0:0:0:
256,192,92377,1,0,0:0:0:0:
109,192,92649,1,0,0:0:0:0:
329,192,92922,1,0,0:0:0:0:
182,192,93195,1,0,0:0:0:0:
329,192,93195,1,0,0:0:0:0:
402,192,93468,1,0,0:0:0:0:
256,192,93740,1,0,0:0:0:0:
109,192,94013,1,0,0:0:0:0:
475,192,94286,128,0,96468:0:0:0:0:
329,192,94286,1,4,0:0:0:0:
36,192,94286,1,0,0:0:0:0:
182,192,94558,1,0,0:0:0:0:
109,192,94831,1,0,0:0:0:0:
402,192,95104,1,0,0:0:0:0:
329,192,95377,1,0,0:0:0:0:
402,192,95377,1,0,0:0:0:0:
36,192,95786,1,0,0:0:0:0:
182,192,95786,1,0,0:0:0:0:
182,192,96331,1,0,0:0:0:0:
256,192,96399,1,0,0:0:0:0:
329,192,96468,1,0,0:0:0:0:
402,192,96468,1,0,0:0:0:0:
182,192,97286,1,0,0:0:0:0:
402,192,97286,1,0,0:0:0:0:
182,192,97558,1,0,0:0:0:0:
475,192,98104,1,0,0:0:0:0:
109,192,98649,128,0,100831:0:0:0:0:
329,192,98649,1,0,0:0:0:0:
256,192,99468,1,0,0:0:0:0:
402,192,99740,1,0,0:0:0:0:
256,192,99740,1,0,0:0:0:0:
329,192,100013,1,0,0:0:0:0:
475,192,100286,1,0,0:0:0:0:
36,192,100831,128,0,103013:0:0:0:0:
256,192,100831,1,0,0:0:0:0:
475,192,101377,1,0,0:0:0:0:
329,192,101649,1,0,0:0:0:0:
182,192,101649,1,0,0:0:0:0:
182,192,101922,1,0,0:0:0:0:
402,192,102195,1,0,0:0:0:0:
109,192,103013,128,0,105195:0:0:0:0:
329,192,103013,1,0,0:0:0:0:
475,192,103013,1,0,0:0:0:0:
256,192,103286,1,0,0:0:0:0:
182,192,103558,1,0,0:0:0:0:
475,192,103831,1,0,0:0:0:0:
182,192,104104,1,0,0:0:0:0:
475,192,104104,1,0,0:0:0:0:
402,192,104649,128,0,105195:0:0:0:0:
36,192,105195,1,0,0:0:0:0:
329,192,105195,1,0,0:0:0:0:
402,192,105468,1,0,0:0:0:0:
475,192,105604,1,0,0:0:0:0:
402,192,105740,1,0,0:0:0:0:
109,192,105740,1,4,0:0:0:0:
329,192,106013,1,0,0:0:0:0:
182,192,106013,1,0,0:0:0:0:
36,192,106286,1,0,0:0:0:0:
475,192,106286,1,0,0:0:0:0:
109,192,106558,1,0,0:0:0:0:
402,192,106558,1,0,0:0:0:0:
182,192,106831,1,0,0:0:0:0:
329,192,106831,1,0,0:0:0:0:
109,192,107104,1,0,0:0:0:0:
402,192,107104,1,0,0:0:0:0:
256,192,107377,1,0,0:0:0:0:
36,192,107649,1,0,0:0:0:0:
475,192,107786,1,0,0:0:0:0:
256,192,107922,1,0,0:0:0:0:
109,192,108195,1,0,0:0:0:0:
329,192,108468,1,0,0:0:0:0:
182,192,108740,1,0,0:0:0:0:
475,192,109013,1,0,0:0:0:0:
36,192,109013,1,0,0:0:0:0:
182,192,109558,128,0,111740:0:0:0:0:
329,192,109558,1,0,0:0:0:0:
402,192,109968,1,0,0:0:0:0:
475,192,110104,1,4,0:0:0:0:
256,192,110377,1,0,0:0:0:0:
36,192,110649,1,0,0:0:0:0:
329,192,110922,1,0,0:0:0:0:
109,192,111195,1,0,0:0:0:0:
402,192,111468,1,0,0:0:0:0:
256,192,111740,128,0,113922:0:0:0:0:
36,192,111740,1,0,0:0:0:0:
329,192,112013,1,0,0:0:0:0:
402,192,112149,1,0,0:0:0:0:
475,192,112286,1,0,0:0:0:0:
182,192,112558,1,0,0:0:0:0:
109,192,112695,1,0,0:0:0:0:
36,192,112831,1,0,0:0:0:0:
329,192,113104,1,0,0:0:0:0:
402,192,113922,1,0,0:0:0:0:
36,192,113922,1,0,0:0:0:0:
182,192,114195,1,0,0:0:0:0:
329,192,114331,1,0,0:0:0:0:
182,192,114468,1,0,0:0:0:0:
475,192,114468,1,4,0:0:0:0:
109,192,114740,1,0,0:0:0:0:
329,192,115013,1,0,0:0:0:0:
36,192,115286,1,0,0:0:0:0:
256,192,115558,1,0,0:0:0:0:
109,192,115831,1,0,0:0:0:0:
329,192,116104,1,0,0:0:0:0:
182,192,116377,1,0,0:0:0:0:
109,192,116513,1,0,0:0:0:0:
36,192,116649,1,0,0:0:0:0:
475,192,116649,1,0,0:0:0:0:
329,192,116922,1,0,0:0:0:0:
182,192,117058,1,0,0:0:0:0:
402,192,117195,1,0,0:0:0:0:
182,192,117468,1,0,0:0:0:0:
329,192,117740,128,0,118286:0:0:0:0:
36,192,118286,1,0,0:0:0:0:
475,192,118286,1,0,0:0:0:0:
182,192,118286,128,0,120468:0:0:0:0:
402,192,118695,1,0,0:0:0:0:
475,192,118831,1,4,0:0:0:0:
109,192,119104,1,0,0:0:0:0:
329,192,119649,1,0,0:0:0:0:
256,192,120195,1,0,0:0:0:0:
109,192,120468,1,0,0:0:0:0:
402,192,120468,1,0,0:0:0:0:
475,192,120468,128,0,122649:0:0:0:0:
256,192,120740,1,0,0:0:0:0:
329,192,120877,1,0,0:0:0:0:
109,192,121013,1,0,0:0:0:0:
182,192,121286,1,0,0:0:0:0:
256,192,121558,1,0,0:0:0:0:
329,192,121831,1,0,0:0:0:0:
182,192,121831,128,0,122649:0:0:0:0:
36,192,122649,1,0,0:0:0:0:
329,192,122649,1,2,0:0:0:0:
402,192,122922,1,0,0:0:0:0:
109,192,122922,1,2,0:0:0:0:
182,192,123058,1,2,0:0:0:0:
475,192,123195,1,0,0:0:0:0:
256,192,123195,1,0,0:0:0:0:
182,192,123468,1,2,0:0:0:0:
109,192,123604,1,2,0:0:0:0:
475,192,123740,128,0,124286:0:0:0:0:
329,192,123740,1,8,0:0:0:0:
256,192,124013,1,2,0:0:0:0:
182,192,124149,1,0,0:0:0:0:
109,192,124286,1,0,0:0:0:0:
36,192,124286,1,0,0:0:0:0:
329,192,124558,1,0,0:0:0:0:
402,192,124695,1,0,0:0:0:0:
182,192,124831,1,2,0:0:0:0:
475,192,124831,1,0,0:0:0:0:
36,192,124968,1,0,0:0:0:0:
256,192,125104,1,0,0:0:0:0:
109,192,125240,1,0,0:0:0:0:
329,192,125377,1,0,0:0:0:0:
475,192,125377,1,0,0:0:0:0:
182,192,125649,1,0,0:0:0:0:
36,192,125786,1,0,0:0:0:0:
256,192,125922,1,0,0:0:0:0:
402,192,125922,1,0,0:0:0:0:
329,192,126195,1,0,0:0:0:0:
475,192,126195,1,0,0:0:0:0:
402,192,126468,1,0,0:0:0:0:
256,192,126468,1,0,0:0:0:0:
182,192,126604,1,2,0:0:0:0:
36,192,126740,1,0,0:0:0:0:
109,192,127013,1,8,0:0:0:0:
475,192,127013,1,0,0:0:0:0:
182,192,127149,1,8,0:0:0:0:
256,192,127286,1,8,0:0:0:0:
402,192,127558,1,0,0:0:0:0:
36,192,127558,1,0,0:0:0:0:
182,192,127831,1,0,0:0:0:0:
256,192,127968,1,2,0:0:0:0:
329,192,128104,1,0,0:0:0:0:
475,192,128104,1,8,0:0:0:0:
182,192,128377,1,0,0:0:0:0:
109,192,128513,1,2,0:0:0:0:
36,192,128649,1,0,0:0:0:0:
256,192,128649,1,0,0:0:0:0:
402,192,128786,1,0,0:0:0:0:
182,192,128922,1,0,0:0:0:0:
329,192,129058,1,0,0:0:0:0:
36,192,129195,1,0,0:0:0:0:
475,192,129195,1,0,0:0:0:0:
182,192,129468,1,0,0:0:0:0:
402,192,129468,1,0,0:0:0:0:
475,192,129740,1,0,0:0:0:0:
256,192,129740,1,0,0:0:0:0:
182,192,130013,1,0,0:0:0:0:
329,192,130149,1,0,0:0:0:0:
182,192,130286,1,0,0:0:0:0:
36,192,130558,128,0,131377:0:0:0:0:
402,192,130558,1,0,0:0:0:0:
182,192,130831,128,0,131377:0:0:0:0:
402,192,130831,1,0,0:0:0:0:
329,192,130968,1,0,0:0:0:0:
475,192,131104,1,0,0:0:0:0:
109,192,131377,128,0,133558:0:0:0:0:
329,192,131377,1,0,0:0:0:0:
402,192,131649,1,0,0:0:0:0:
329,192,131786,1,0,0:0:0:0:
256,192,131922,1,0,0:0:0:0:
182,192,132195,1,0,0:0:0:0:
329,192,132331,1,0,0:0:0:0:
475,192,132468,1,8,0:0:0:0:
36,192,132468,1,0,0:0:0:0:
182,192,132740,1,0,0:0:0:0:
256,192,132877,1,0,0:0:0:0:
329,192,133013,1,0,0:0:0:0:
402,192,133286,1,0,0:0:0:0:
329,192,133422,1,0,0:0:0:0:
475,192,133558,1,0,0:0:0:0:
36,192,133558,128,0,135740:0:0:0:0:
256,192,133558,1,0,0:0:0:0:
402,192,133831,1,0,0:0:0:0:
182,192,133831,1,0,0:0:0:0:
329,192,134104,1,0,0:0:0:0:
109,192,134104,1,0,0:0:0:0:
256,192,134377,1,0,0:0:0:0:
402,192,134513,1,0,0:0:0:0:
256,192,134649,1,0,0:0:0:0:
182,192,134922,1,0,0:0:0:0:
402,192,134922,1,0,0:0:0:0:
329,192,135195,1,0,0:0:0:0:
109,192,135195,1,0,0:0:0:0:
402,192,135331,1,0,0:0:0:0:
475,192,135468,1,0,0:0:0:0:
402,192,135740,1,8,0:0:0:0:
109,192,135740,1,0,0:0:0:0:
182,192,136013,1,0,0:0:0:0:
329,192,136149,1,0,0:0:0:0:
475,192,136286,1,0,0:0:0:0:
182,192,136558,1,0,0:0:0:0:
36,192,136695,1,0,0:0:0:0:
182,192,136831,1,0,0:0:0:0:
402,192,136831,1,0,0:1:0:0:
475,192,137104,1,0,0:0:0:0:
329,192,137240,1,0,0:0:0:0:
182,192,137377,1,0,0:0:0:0:
36,192,137377,1,0,0:0:0:0:
402,192,137649,1,0,0:0:0:0:
109,192,137649,1,0,0:0:0:0:
182,192,137922,1,4,0:0:0:0:
329,192,137922,1,0,0:0:0:0:
475,192,137922,128,0,140104:0:0:0:0:
109,192,138195,1,0,0:0:0:0:
402,192,138468,1,0,0:0:0:0:
256,192,138468,1,8,0:0:0:0:
329,192,138740,1,0,0:0:0:0:
182,192,138740,1,8,0:0:0:0:
109,192,139013,1,2,0:0:0:0:
256,192,139013,1,0,0:0:0:0:
182,192,139286,1,8,0:0:0:0:
329,192,139286,1,0,0:0:0:0:
402,192,139422,1,0,0:0:0:0:
256,192,139558,1,0,0:0:0:0:
36,192,139558,1,0,1:0:0:0:
109,192,139831,1,0,0:0:0:0:
182,192,140104,1,0,0:0:0:0:
402,192,140104,1,0,0:0:0:0:
36,192,140104,128,0,142286:0:0:0:0:
329,192,140377,1,2,0:0:0:0:
109,192,140649,1,0,0:0:0:0:
256,192,140649,1,0,1:0:0:0:
402,192,140922,1,0,0:0:0:0:
182,192,141195,1,0,0:0:0:0:
475,192,141468,1,2,0:0:0:0:
256,192,141740,1,0,1:0:0:0:
109,192,141740,1,0,0:0:0:0:
402,192,142013,1,0,0:0:0:0:
329,192,142286,1,0,0:0:0:0:
182,192,142286,128,0,143377:0:0:0:0:
475,192,142558,1,2,0:0:0:0:
109,192,142831,1,0,1:0:0:0:
36,192,142831,1,0,0:0:0:0:
256,192,142968,1,2,0:0:0:0:
329,192,143104,1,0,0:0:0:0:
475,192,143377,1,2,0:0:0:0:
36,192,143377,128,0,144468:0:0:0:0:
109,192,143649,1,0,0:0:0:0:
256,192,143922,1,0,1:0:0:0:
402,192,143922,1,0,0:0:0:0:
329,192,143922,128,0,144468:0:0:0:0:
182,192,144195,1,2,0:0:0:0:
109,192,144331,1,2,0:0:0:0:
475,192,144468,128,0,146649:0:0:0:0:
256,192,144468,1,0,0:0:0:0:
182,192,144740,1,2,0:0:0:0:
36,192,145013,1,0,0:0:0:0:
402,192,145013,1,0,1:0:0:0:
329,192,145149,1,0,0:0:0:0:
256,192,145286,1,2,0:0:0:0:
109,192,145558,1,0,0:0:0:0:
329,192,145831,1,2,0:0:0:0:
182,192,146104,1,0,0:0:0:0:
402,192,146104,1,0,1:0:0:0:
36,192,146377,1,0,0:0:0:0:
182,192,146513,1,0,0:0:0:0:
109,192,146649,128,0,148831:0:0:0:0:
329,192,146649,1,0,0:0:0:0:
182,192,146922,1,0,0:0:0:0:
329,192,147058,1,0,0:0:0:0:
36,192,147195,1,0,0:0:0:0:
475,192,147195,1,0,1:0:0:0:
256,192,147468,1,2,0:0:0:0:
182,192,147740,1,0,0:0:0:0:
329,192,148013,1,2,0:0:0:0:
256,192,148286,1,0,0:0:0:0:
475,192,148286,1,0,1:0:0:0:
329,192,148422,1,2,0:0:0:0:
402,192,148558,1,0,0:0:0:0:
36,192,148831,1,0,0:0:0:0:
329,192,148831,1,0,0:0:0:0:
109,192,149104,1,0,0:0:0:0:
402,192,149104,1,0,0:0:0:0:
182,192,149377,1,0,0:0:0:0:
475,192,149377,1,0,1:0:0:0:
36,192,149649,1,2,0:0:0:0:
402,192,149922,1,0,0:0:0:0:
182,192,150195,1,2,0:0:0:0:
109,192,150468,1,0,0:0:0:0:
475,192,150468,1,0,1:0:0:0:
329,192,150740,1,0,0:0:0:0:
256,192,151013,128,0,153195:0:0:0:0:
36,192,151013,1,0,0:0:0:0:
475,192,151013,1,0,0:0:0:0:
402,192,151286,1,0,0:0:0:0:
182,192,151558,1,0,0:0:0:0:
109,192,151558,1,0,1:0:0:0:
329,192,151831,1,0,0:0:0:0:
475,192,152104,1,2,0:0:0:0:
329,192,152377,1,0,0:0:0:0:
36,192,152649,1,0,0:0:0:0:
109,192,152649,1,0,1:0:0:0:
182,192,152922,1,0,0:0:0:0:
329,192,153058,1,0,0:0:0:0:
36,192,153195,128,0,153740:0:0:0:0:
475,192,153195,1,0,0:0:0:0:
402,192,153468,1,2,0:0:0:0:
402,192,153740,1,0,0:0:0:0:
109,192,153740,1,0,1:0:0:0:
256,192,153740,128,0,154286:0:0:0:0:
329,192,154013,1,0,0:0:0:0:
475,192,154286,1,0,0:0:0:0:
182,192,154286,128,0,154831:0:0:0:0:
329,192,154558,1,2,0:0:0:0:
36,192,154831,1,0,0:0:0:0:
109,192,154831,1,0,1:0:0:0:
402,192,154831,128,0,155377:0:0:0:0:
256,192,155104,1,2,0:0:0:0:
475,192,155377,128,0,157558:0:0:0:0:
182,192,155377,1,0,0:0:0:0:
36,192,155649,1,0,0:0:0:0:
256,192,155922,1,0,0:0:0:0:
402,192,155922,1,0,1:0:0:0:
109,192,156195,1,0,0:0:0:0:
109,192,156468,1,0,0:0:0:0:
329,192,156468,1,0,0:0:0:0:
182,192,156740,1,0,0:0:0:0:
256,192,156877,1,0,0:0:0:0:
329,192,157013,1,0,0:0:0:0:
36,192,157013,1,0,0:0:0:0:
109,192,157286,1,0,0:0:0:0:
402,192,157286,1,0,1:0:0:0:
256,192,157558,128,0,159740:0:0:0:0:
182,192,157558,1,0,0:0:0:0:
329,192,157558,1,4,0:0:0:0:
109,192,157831,1,0,0:0:0:0:
329,192,158104,1,0,1:0:0:0:
475,192,158104,1,0,0:0:0:0:
402,192,158377,1,0,0:0:0:0:
109,192,158649,1,2,0:0:0:0:
402,192,158922,1,0,0:0:0:0:
182,192,159195,1,0,1:0:0:0:
36,192,159195,1,0,0:0:0:0:
402,192,159468,1,0,0:0:0:0:
329,192,159740,1,2,0:0:0:0:
109,192,159740,128,0,160831:0:0:0:0:
475,192,160013,1,0,0:0:0:0:
182,192,160286,1,0,1:0:0:0:
36,192,160286,1,0,0:0:0:0:
256,192,160422,1,2,0:0:0:0:
329,192,160558,1,0,0:0:0:0:
475,192,160831,1,0,0:0:0:0:
182,192,160831,1,2,0:0:0:0:
36,192,160831,128,0,161922:0:0:0:0:
329,192,161104,1,0,0:0:0:0:
475,192,161377,128,0,161922:0:0:0:0:
182,192,161377,1,0,1:0:0:0:
402,192,161377,1,0,0:0:0:0:
329,192,161649,1,0,0:0:0:0:
182,192,161922,1,0,0:0:0:0:
109,192,161922,128,0,162740:0:0:0:0:
256,192,162195,1,2,0:0:0:0:
182,192,162468,1,0,0:0:0:0:
329,192,162468,1,0,1:0:0:0:
402,192,162740,128,0,164104:0:0:0:0:
36,192,162740,1,2,0:0:0:0:
256,192,163013,1,0,0:0:0:0:
109,192,163286,1,2,0:0:0:0:
329,192,163558,1,0,1:0:0:0:
475,192,163558,1,0,0:0:0:0:
256,192,163695,1,2,0:0:0:0:
182,192,163831,1,0,0:0:0:0:
36,192,164104,128,0,166286:0:0:0:0:
475,192,164104,1,0,0:0:0:0:
256,192,164104,1,8,0:0:0:0:
109,192,164377,1,0,0:0:0:0:
182,192,164649,1,0,1:0:0:0:
402,192,164649,1,0,0:0:0:0:
329,192,164786,1,2,0:0:0:0:
475,192,164922,1,2,0:0:0:0:
256,192,165195,1,0,0:0:0:0:
402,192,165468,1,0,0:0:0:0:
329,192,165740,1,8,0:0:0:0:
109,192,165740,1,0,1:0:0:0:
182,192,166013,1,0,0:0:0:0:
256,192,166286,1,0,0:0:0:0:
402,192,166286,128,0,167104:0:0:0:0:
475,192,166558,1,2,0:0:0:0:
182,192,166831,1,0,1:0:0:0:
36,192,166831,1,0,0:0:0:0:
475,192,167104,1,2,0:0:0:0:
256,192,167104,128,0,167922:0:0:0:0:
109,192,167377,1,0,0:0:0:0:
402,192,167649,1,2,0:0:0:0:
475,192,167922,1,0,0:0:0:0:
182,192,167922,128,0,168468:0:0:0:0:
329,192,167922,1,0,1:0:0:0:
109,192,168195,1,0,0:0:0:0:
36,192,168468,1,0,0:0:0:0:
256,192,168468,128,0,170649:0:0:0:0:
402,192,168740,1,2,0:0:0:0:
109,192,169013,1,0,0:0:0:0:
475,192,169013,1,0,1:0:0:0:
329,192,169286,128,2,170649:0:0:0:0:
182,192,169286,128,0,170649:0:0:0:0:
402,192,169558,1,0,0:0:0:0:
109,192,169831,1,2,0:0:0:0:
36,192,170104,1,0,0:0:0:0:
475,192,170104,1,0,1:0:0:0:
109,192,170377,1,0,0:0:0:0:
475,192,170513,1,0,0:0:0:0:
402,192,170649,128,0,171195:0:0:0:0:
109,192,170649,1,0,0:0:0:0:
36,192,170922,1,2,0:0:0:0:
182,192,170922,1,0,0:0:0:0:
109,192,171195,128,0,171740:0:0:0:0:
256,192,171195,1,0,1:0:0:0:
475,192,171195,1,0,0:0:0:0:
329,192,171468,1,2,0:0:0:0:
475,192,171740,128,0,172286:0:0:0:0:
182,192,171740,1,0,0:0:0:0:
402,192,171740,1,0,0:0:0:0:
329,192,172013,1,2,0:0:0:0:
109,192,172013,1,0,0:0:0:0:
36,192,172286,1,0,0:1:0:0:
256,192,172286,1,0,1:0:0:0:
182,192,172286,128,0,172831:0:0:0:0:
402,192,172558,1,0,0:0:0:0:
109,192,172558,1,0,0:0:0:0:
329,192,172831,1,4,0:0:0:0:
36,192,172831,128,0,175013:0:0:0:0:
475,192,172831,1,0,0:0:0:0:
182,192,173104,1,2,0:0:0:0:
402,192,173104,1,0,0:0:0:0:
109,192,173377,1,0,0:0:0:0:
475,192,173377,1,0,1:0:0:0:
402,192,173513,1,0,0:0:0:0:
329,192,173649,1,2,0:0:0:0:
182,192,173922,1,2,0:0:0:0:
329,192,174195,1,2,0:0:0:0:
475,192,174468,1,0,1:0:0:0:
182,192,174468,1,0,0:0:0:0:
329,192,174740,1,2,0:0:0:0:
109,192,175013,128,0,179377:0:0:0:0:
402,192,175013,128,0,179377:0:0:0:0:
182,192,178558,128,0,179377:0:0:0:0:
329,192,178558,128,0,179377:0:0:0:0:
36,192,179377,128,0,183740:0:0:0:0:
475,192,179377,128,0,183740:0:0:0:0:
256,192,183740,128,0,187286:0:0:0:0:
109,192,183740,128,0,187286:0:0:0:0:
182,192,187286,128,0,188104:0:0:0:0:
329,192,187286,128,0,188104:0:0:0:0:
256,192,188104,128,0,190286:0:0:0:0:
402,192,188104,128,0,190286:0:0:0:0:
109,192,188377,1,0,0:0:0:0:
36,192,188649,1,0,0:0:0:0:
109,192,188922,1,0,0:0:0:0:
182,192,189195,1,0,0:0:0:0:
109,192,189468,1,0,0:0:0:0:
36,192,189740,1,0,0:0:0:0:
109,192,190013,1,0,0:0:0:0:
329,192,190286,1,0,0:0:0:0:
402,192,190558,1,0,0:0:0:0:
475,192,190831,1,0,0:0:0:0:
402,192,191104,1,0,0:0:0:0:
329,192,191377,1,0,0:0:0:0:
402,192,191649,1,0,0:0:0:0:
475,192,191922,1,0,0:0:0:0:
402,192,192195,1,0,0:0:0:0:
329,192,192468,1,0,0:0:0:0:
109,192,192468,128,0,196831:0:0:0:0:
256,192,192740,1,0,0:0:0:0:
402,192,193013,1,0,0:0:0:0:
182,192,193286,1,0,0:0:0:0:
329,192,193558,1,0,0:0:0:0:
475,192,193831,1,0,0:0:0:0:
256,192,194104,1,0,0:0:0:0:
402,192,194377,1,0,0:0:0:0:
182,192,194513,1,2,0:0:0:0:
402,192,194649,1,0,0:0:0:0:
402,192,195058,1,0,0:0:0:0:
402,192,195468,1,0,0:0:0:0:
256,192,195468,1,0,0:0:0:0:
36,192,196013,128,0,196831:0:0:0:0:
329,192,196013,1,0,0:0:0:0:
475,192,196286,1,0,0:0:0:0:
329,192,196831,1,0,0:0:0:0:
182,192,196831,1,0,0:0:0:0:
329,192,197240,1,0,0:0:0:0:
402,192,197377,1,0,0:0:0:0:
182,192,197649,1,0,0:0:0:0:
36,192,197922,1,0,0:0:0:0:
329,192,198195,1,0,0:0:0:0:
475,192,198468,1,0,0:0:0:0:
329,192,198740,1,0,0:0:0:0:
36,192,199013,128,0,201195:0:0:0:0:
402,192,199013,1,0,0:0:0:0:
329,192,199013,1,0,0:0:0:0:
182,192,199286,1,0,0:0:0:0:
475,192,199286,1,0,0:0:0:0:
329,192,199422,1,0,0:0:0:0:
256,192,199558,1,0,0:0:0:0:
402,192,199558,1,0,0:0:0:0:
182,192,199831,1,0,0:0:0:0:
329,192,199831,1,0,0:0:0:0:
109,192,200104,1,0,0:0:0:0:
256,192,200104,1,0,0:0:0:0:
329,192,200377,1,0,0:0:0:0:
182,192,200377,1,0,0:0:0:0:
402,192,200649,1,0,0:0:0:0:
256,192,200649,1,0,0:0:0:0:
182,192,200922,1,0,0:0:0:0:
329,192,200922,1,0,0:0:0:0:
402,192,201195,128,0,203377:0:0:0:0:
109,192,201195,128,0,203377:0:0:0:0:
256,192,201195,1,0,0:0:0:0:
256,192,201604,1,0,0:0:0:0:
182,192,202013,1,0,0:0:0:0:
329,192,202286,1,0,0:0:0:0:
182,192,202558,1,0,0:0:0:0:
329,192,203104,1,0,0:0:0:0:
182,192,203377,128,0,205558:0:0:0:0:
475,192,203377,128,0,205558:0:0:0:0:
329,192,203377,1,0,0:0:0:0:
329,192,203786,1,0,0:0:0:0:
256,192,204195,1,0,0:0:0:0:
329,192,204740,1,0,0:0:0:0:
109,192,205013,1,0,0:0:0:0:
256,192,205286,1,0,0:0:0:0:
402,192,205558,1,0,0:0:0:0:
36,192,205558,1,0,0:0:0:0:
109,192,205831,1,0,0:0:0:0:
182,192,205968,1,0,0:0:0:0:
329,192,206104,1,0,0:0:0:0:
182,192,206377,1,0,0:0:0:0:
402,192,206649,1,0,0:0:0:0:
256,192,206922,1,0,0:0:0:0:
475,192,207195,128,0,207468:0:0:0:0:
36,192,207468,128,0,207740:0:0:0:0:
182,192,207468,1,0,0:0:0:0:
182,192,207740,1,0,0:0:0:0:
329,192,208013,1,0,0:0:0:0:
402,192,208149,1,0,0:0:0:0:
475,192,208286,1,0,0:0:0:0:
256,192,208558,1,0,0:0:0:0:
36,192,208831,1,0,0:0:0:0:
182,192,209104,1,0,0:0:0:0:
329,192,209377,1,0,0:0:0:0:
475,192,209649,1,0,0:0:0:0:
36,192,209922,128,0,212104:0:0:0:0:
109,192,209922,128,0,212104:0:0:0:0:
182,192,209922,1,0,0:0:0:0:
256,192,210058,1,2,0:0:0:0:
329,192,210195,1,0,0:0:0:0:
402,192,210331,1,2,0:0:0:0:
475,192,210468,1,0,0:0:0:0:
256,192,210740,1,0,0:0:0:0:
402,192,211013,1,0,0:0:0:0:
182,192,211286,1,0,0:0:0:0:
329,192,211558,1,0,0:0:0:0:
182,192,211831,1,0,0:0:0:0:
402,192,212104,128,0,214286:0:0:0:0:
475,192,212104,128,0,214286:0:0:0:0:
329,192,212104,1,0,0:0:0:0:
256,192,212240,1,2,0:0:0:0:
182,192,212377,1,0,0:0:0:0:
109,192,212513,1,2,0:0:0:0:
36,192,212649,1,0,0:0:0:0:
256,192,212649,1,0,0:0:0:0:
109,192,212922,1,0,0:0:0:0:
329,192,213195,1,0,0:0:0:0:
182,192,213195,1,0,0:0:0:0:
182,192,213740,1,0,0:0:0:0:
36,192,213740,1,0,0:0:0:0:
109,192,214286,1,0,0:0:0:0:
256,192,214422,1,2,0:0:0:0:
182,192,214558,1,0,0:0:0:0:
329,192,214695,1,2,0:0:0:0:
475,192,214831,1,0,0:0:0:0:
36,192,215104,1,0,0:0:0:0:
182,192,215104,1,0,0:0:0:0:
402,192,215377,1,0,0:0:0:0:
256,192,215649,1,0,0:0:0:0:
109,192,215649,1,0,0:0:0:0:
402,192,216195,1,0,0:0:0:0:
329,192,216195,1,0,0:0:0:0:
329,192,216468,1,0,0:0:0:0:
475,192,216604,1,2,0:0:0:0:
182,192,216740,1,0,0:0:0:0:
36,192,216877,1,2,0:0:0:0:
256,192,217013,128,0,217558:0:0:0:0:
402,192,217013,1,0,0:0:0:0:
109,192,217286,1,0,0:0:0:0:
329,192,217558,128,0,218104:0:0:0:0:
182,192,217831,1,0,0:0:0:0:
402,192,218104,128,0,218649:0:0:0:0:
256,192,218377,1,0,0:0:0:0:
109,192,218649,1,0,0:0:0:0:
475,192,218649,128,0,219195:0:0:0:0:
329,192,218786,1,2,0:0:0:0:
182,192,218922,1,0,0:0:0:0:
402,192,219058,1,2,0:0:0:0:
256,192,219195,1,0,0:0:0:0:
36,192,219195,128,0,219740:0:0:0:0:
182,192,219740,1,0,0:0:0:0:
402,192,220013,1,0,0:0:0:0:
109,192,220286,128,0,220831:0:0:0:0:
256,192,220286,1,0,0:0:0:0:
329,192,220558,1,0,0:0:0:0:
329,192,220831,1,0,0:0:0:0:
475,192,220968,1,2,0:0:0:0:
182,192,221104,1,0,0:0:0:0:
36,192,221240,1,2,0:0:0:0:
329,192,221240,1,0,0:0:0:0:
256,192,221377,128,0,221922:0:0:0:0:
329,192,221649,1,0,0:0:0:0:
109,192,221922,1,0,0:0:0:0:
402,192,221922,1,0,0:0:0:0:
475,192,222195,1,0,0:0:0:0:
182,192,222468,1,0,0:0:0:0:
329,192,222468,1,0,0:0:0:0:
256,192,222740,1,0,0:0:0:0:
109,192,223013,1,0,0:0:0:0:
402,192,223149,1,2,0:0:0:0:
109,192,223286,1,0,0:0:0:0:
402,192,223422,1,2,0:0:0:0:
182,192,223558,128,0,224104:0:0:0:0:
329,192,223558,128,0,224104:0:0:0:0:
109,192,224104,128,0,224649:0:0:0:0:
402,192,224104,128,0,224649:0:0:0:0:
256,192,224649,1,0,0:0:0:0:
256,192,224922,1,0,0:0:0:0:
182,192,225195,1,0,0:0:0:0:
256,192,225195,1,0,0:0:0:0:
329,192,225331,1,2,0:0:0:0:
182,192,225468,1,0,0:0:0:0:
329,192,225604,1,2,0:0:0:0:
109,192,225740,128,0,226286:0:0:0:0:
402,192,225740,128,0,226286:0:0:0:0:
182,192,226286,1,0,0:0:0:0:
329,192,226558,1,0,0:0:0:0:
256,192,226831,1,0,0:0:0:0:
402,192,227104,1,0,0:0:0:0:
36,192,227377,1,0,0:0:0:0:
256,192,227377,1,0,0:0:0:0:
402,192,227377,1,0,0:0:0:0:
109,192,227649,1,0,0:0:0:0:
329,192,227649,1,0,0:0:0:0:
182,192,227922,1,0,0:0:0:0:
402,192,227922,1,0,0:0:0:0:
256,192,228195,128,0,228740:0:0:0:0:
475,192,228195,128,0,228740:0:0:0:0:
402,192,228740,128,0,229558:0:0:0:0:
182,192,228740,128,0,229558:0:0:0:0:
36,192,229013,1,0,0:0:0:0:
256,192,229286,1,8,0:0:0:0:
109,192,229558,128,0,229831:0:0:0:0:
256,192,229558,1,8,0:0:0:0:
329,192,229831,128,0,230104:0:0:0:0:
256,192,229968,1,8,0:0:0:0:
182,192,230104,128,0,230377:0:0:0:0:
402,192,230377,128,0,230649:0:0:0:0:
256,192,230377,1,8,0:0:0:0:
256,192,230649,128,0,230922:0:0:0:0:
109,192,230922,128,0,231195:0:0:0:0:
402,192,231195,128,0,231468:0:0:0:0:
182,192,231468,128,0,231740:0:0:0:0:
475,192,231468,1,8,0:0:0:0:
329,192,231740,128,0,233922:0:0:0:0:
475,192,231740,1,8,0:0:0:0:
402,192,232013,1,0,0:0:0:0:
109,192,232286,1,0,0:0:0:0:
36,192,232558,1,0,0:0:0:0:
256,192,232558,1,0,0:0:0:0:
109,192,233104,1,0,0:0:0:0:
256,192,233377,1,0,0:0:0:0:
475,192,233377,1,0,0:0:0:0:
182,192,233649,1,8,0:0:0:0:
402,192,233922,1,0,0:0:0:0:
182,192,233922,1,8,0:0:0:0:
109,192,234195,1,0,0:0:0:0:
182,192,234331,1,0,0:0:0:0:
256,192,234468,1,0,0:0:0:0:
182,192,234740,1,0,0:0:0:0:
402,192,234740,1,0,0:0:0:0:
256,192,235286,1,0,0:0:0:0:
475,192,235286,1,0,0:0:0:0:
329,192,235558,1,0,0:0:0:0:
109,192,235558,1,0,0:0:0:0:
402,192,235831,1,8,0:0:0:0:
182,192,235831,1,0,0:0:0:0:
36,192,236104,128,0,236649:0:0:0:0:
256,192,236104,128,0,236649:0:0:0:0:
402,192,236104,1,8,0:0:0:0:
402,192,236513,1,8,0:0:0:0:
109,192,236922,128,0,237468:0:0:0:0:
329,192,236922,128,0,237468:0:0:0:0:
402,192,236922,1,8,0:0:0:0:
182,192,237740,128,0,238286:0:0:0:0:
402,192,237740,128,0,238286:0:0:0:0:
256,192,237740,1,0,0:0:0:0:
256,192,238013,1,8,0:0:0:0:
329,192,238286,1,8,0:0:0:0:
109,192,238286,1,0,0:0:0:0:
182,192,238695,1,8,0:0:0:0:
402,192,239104,1,0,0:0:0:0:
256,192,239377,1,0,0:0:0:0:
109,192,239649,1,0,0:0:0:0:
329,192,239922,1,0,0:0:0:0:
182,192,240195,1,8,0:0:0:0:
402,192,240468,128,0,242649:0:0:0:0:
256,192,240468,1,8,0:0:0:0:
256,192,240877,1,8,0:0:0:0:
475,192,242649,128,0,244831:0:0:0:0:
36,192,242649,128,0,244831:0:0:0:0:
182,192,243740,1,0,0:0:0:0:
329,192,243740,1,0,0:0:0:0:
256,192,244149,1,0,0:0:0:0:
182,192,244558,1,0,0:0:0:0:
109,192,244831,128,0,247013:0:0:0:0:
402,192,244831,128,0,247013:0:0:0:0:
256,192,244831,1,0,0:0:0:0:
182,192,245922,128,0,247013:0:0:0:0:
329,192,245922,128,0,247013:0:0:0:0:
256,192,246468,128,0,247013:0:0:0:0:
36,192,247013,128,0,248104:0:0:0:0:
475,192,247013,128,0,248104:0:0:0:0:
182,192,247831,1,0,0:0:0:0:
329,192,248104,1,0,0:0:0:0:
182,192,248649,1,0,0:0:0:0:
36,192,248922,1,0,0:0:0:0:
256,192,249195,1,0,0:0:0:0:
475,192,249195,1,0,0:0:0:0:
109,192,250013,1,0,0:0:0:0:
256,192,250286,1,0,0:0:0:0:
475,192,250558,1,0,0:0:0:0:
402,192,250695,1,0,0:0:0:0:
329,192,250831,1,0,0:0:0:0:
109,192,251104,1,0,0:0:0:0:
182,192,251377,1,0,0:0:0:0:
36,192,251377,1,0,0:0:0:0:
256,192,251422,1,0,0:0:0:0:
402,192,251468,1,0,0:0:0:0:
182,192,251922,1,0,0:0:0:0:
329,192,251922,1,0,0:0:0:0:
256,192,252195,1,0,0:0:0:0:
402,192,252195,1,0,0:0:0:0:
329,192,253558,1,0,0:0:0:0:
475,192,253558,1,0,0:0:0:0:
182,192,254104,1,0,0:0:0:0:
402,192,254377,1,0,0:0:0:0:
256,192,255740,1,0,0:0:0:0:
36,192,255740,1,0,0:0:0:0:
109,192,256286,1,0,0:0:0:0:
329,192,256286,1,0,0:0:0:0:
182,192,256558,128,0,257377:0:0:0:0:
402,192,256558,128,0,257377:0:0:0:0:
329,192,257377,128,0,257922:0:0:0:0:
109,192,257377,128,0,257922:0:0:0:0:
256,192,257922,128,0,258468:0:0:0:0:
36,192,257922,128,0,258468:0:0:0:0:
402,192,258195,128,0,258468:0:0:0:0:
182,192,258468,1,0,0:0:0:0:
475,192,258468,1,0,0:0:0:0:
402,192,258740,1,0,0:0:0:0:
109,192,258740,1,0,0:0:0:0:
329,192,259013,1,0,0:0:0:0:
36,192,259013,1,0,0:0:0:0:
109,192,259286,1,2,0:0:0:0:
256,192,259422,1,2,0:0:0:0:
402,192,259558,1,0,1:0:0:0:
36,192,259558,1,0,0:0:0:0:
182,192,259831,1,2,0:0:0:0:
329,192,260104,1,0,0:0:0:0:
475,192,260104,1,0,0:0:0:0:
256,192,260104,128,0,262286:0:0:0:0:
182,192,260377,1,0,0:0:0:0:
36,192,260377,1,0,0:0:0:0:
402,192,260649,1,0,1:0:0:0:
109,192,260649,1,0,0:0:0:0:
329,192,260786,1,2,0:0:0:0:
475,192,260922,1,2,0:0:0:0:
109,192,261195,1,2,0:0:0:0:
475,192,261195,1,0,0:0:0:0:
36,192,261468,1,0,0:0:0:0:
182,192,261468,1,0,0:1:0:0:
329,192,261740,1,0,1:0:0:0:
475,192,261740,1,0,0:0:0:0:
182,192,262013,1,0,0:0:0:0:
402,192,262286,1,0,0:0:0:0:
36,192,262286,128,0,263104:0:0:0:0:
182,192,262558,1,0,0:0:0:0:
329,192,262831,1,0,0:0:0:0:
475,192,262831,1,0,0:1:0:0:
256,192,262968,1,0,0:0:0:0:
109,192,263104,1,0,0:0:0:0:
182,192,263104,128,0,263377:0:0:0:0:
402,192,263377,1,0,0:0:0:0:
256,192,263377,128,0,263649:0:0:0:0:
36,192,263649,1,0,0:0:0:0:
182,192,263649,128,0,263922:0:0:0:0:
329,192,263922,1,0,0:0:0:0:
475,192,263922,1,0,1:0:0:0:
109,192,263922,128,0,264468:0:0:0:0:
402,192,264195,1,0,0:0:0:0:
329,192,264331,1,0,0:0:0:0:
182,192,264468,1,0,0:0:0:0:
36,192,264468,128,0,265013:0:0:0:0:
329,192,264740,1,0,0:0:0:0:
256,192,264877,1,0,0:0:0:0:
475,192,265013,1,0,1:0:0:0:
182,192,265013,128,0,265286:0:0:0:0:
109,192,265013,1,0,0:0:0:0:
329,192,265286,128,0,265558:0:0:0:0:
475,192,265558,128,0,265831:0:0:0:0:
182,192,265558,1,0,0:0:0:0:
329,192,265831,128,0,266104:0:0:0:0:
109,192,265831,1,2,0:0:0:0:
256,192,266104,1,0,1:0:0:0:
402,192,266104,1,0,0:0:0:0:
182,192,266104,128,0,266377:0:0:0:0:
36,192,266377,128,0,266649:0:0:0:0:
475,192,266377,1,0,0:0:0:0:
402,192,266649,128,0,267468:0:0:0:0:
256,192,266649,1,0,0:0:0:0:
109,192,266649,1,0,0:0:0:0:
329,192,266922,1,2,0:0:0:0:
109,192,267195,1,0,0:0:0:0:
475,192,267195,1,0,1:0:0:0:
256,192,267468,128,0,268286:0:0:0:0:
329,192,267468,1,0,0:0:0:0:
36,192,267740,1,0,0:0:0:0:
329,192,267740,1,0,0:0:0:0:
182,192,268013,1,0,0:0:0:0:
329,192,268286,1,0,0:0:0:0:
475,192,268286,1,0,1:0:0:0:
182,192,268422,1,2,0:0:0:0:
36,192,268558,1,2,0:0:0:0:
36,192,268831,128,0,269649:0:0:0:0:
402,192,268831,1,0,0:0:0:0:
256,192,269104,1,0,0:0:0:0:
329,192,269377,1,0,1:0:0:0:
475,192,269377,1,0,0:0:0:0:
182,192,269649,1,0,0:0:0:0:
402,192,269649,128,0,270468:0:0:0:0:
256,192,269922,1,0,0:0:0:0:
182,192,269922,1,0,0:0:0:0:
109,192,270195,1,0,0:0:0:0:
182,192,270468,128,0,271013:0:0:0:0:
475,192,270468,128,0,271013:0:0:0:0:
36,192,270468,1,0,1:0:0:0:
329,192,270468,1,0,0:0:0:0:
109,192,270740,1,0,0:0:0:0:
36,192,271013,128,0,271558:0:0:0:0:
256,192,271013,128,0,271558:0:0:0:0:
329,192,271013,1,0,0:0:0:0:
402,192,271286,1,0,0:0:0:0:
109,192,271558,1,0,1:0:0:0:
475,192,271558,1,0,0:0:0:0:
182,192,271831,128,0,272377:0:0:0:0:
402,192,271831,128,0,272377:0:0:0:0:
329,192,271831,1,0,0:0:0:0:
329,192,272104,1,0,0:0:0:0:
475,192,272104,1,8,0:0:0:0:
256,192,272240,1,0,0:0:0:0:
109,192,272377,1,0,0:0:0:0:
256,192,272649,128,0,273195:0:0:0:0:
475,192,272649,128,0,273195:0:0:0:0:
329,192,272649,1,0,1:0:0:0:
182,192,272649,1,0,0:0:0:0:
36,192,272922,1,0,0:0:0:0:
109,192,273195,1,0,0:0:0:0:
402,192,273195,1,0,0:0:0:0:
182,192,273195,128,0,273740:0:0:0:0:
329,192,273468,1,0,0:0:0:0:
475,192,273740,1,0,1:0:0:0:
36,192,273740,1,0,0:0:0:0:
402,192,273740,128,0,274286:0:0:0:0:
329,192,274013,1,2,0:0:0:0:
256,192,274013,1,0,0:0:0:0:
109,192,274286,128,0,274831:0:0:0:0:
256,192,274286,1,0,0:0:0:0:
329,192,274558,1,2,0:0:0:0:
182,192,274831,128,0,275377:0:0:0:0:
475,192,274831,1,0,1:0:0:0:
36,192,274831,1,0,0:0:0:0:
256,192,275104,1,0,0:0:0:0:
402,192,275377,128,0,275922:0:0:0:0:
329,192,275377,1,2,0:0:0:0:
36,192,275377,1,0,0:0:0:0:
182,192,275649,1,0,0:0:0:0:
109,192,275922,128,0,276468:0:0:0:0:
256,192,275922,1,0,0:0:0:0:
475,192,275922,1,0,1:0:0:0:
329,192,276058,1,0,0:0:0:0:
402,192,276195,1,2,0:0:0:0:
329,192,276468,128,0,277013:0:0:0:0:
256,192,276468,1,0,0:0:0:0:
182,192,276468,1,8,0:0:0:0:
182,192,276604,1,0,0:0:0:0:
475,192,276877,1,8,0:0:0:0:
402,192,276877,1,0,0:0:0:0:
36,192,277013,128,0,277558:0:0:0:0:
402,192,277013,1,0,0:0:0:0:
109,192,277286,1,0,0:0:0:0:
329,192,277286,1,0,1:0:0:0:
475,192,277558,128,0,279740:0:0:0:0:
256,192,277558,1,0,0:0:0:0:
182,192,277831,1,2,0:0:0:0:
36,192,278104,1,0,0:0:0:0:
329,192,278104,1,0,1:0:0:0:
109,192,278377,1,2,0:0:0:0:
256,192,278649,1,0,0:0:0:0:
109,192,278649,1,0,0:0:0:0:
182,192,278922,1,2,0:0:0:0:
402,192,279195,1,0,1:0:0:0:
109,192,279195,1,0,0:0:0:0:
256,192,279468,1,2,0:0:0:0:
36,192,279740,128,0,281922:0:0:0:0:
329,192,279740,1,0,0:0:0:0:
182,192,280013,1,2,0:0:0:0:
329,192,280286,1,0,1:0:0:0:
475,192,280286,1,0,0:0:0:0:
256,192,280558,1,2,0:0:0:0:
402,192,280558,1,0,0:0:0:0:
109,192,280831,128,0,281922:0:0:0:0:
402,192,280831,1,0,0:0:0:0:
256,192,281104,1,2,0:0:0:0:
329,192,281377,1,0,1:0:0:0:
182,192,281377,1,0,0:0:0:0:
402,192,281649,1,2,0:0:0:0:
475,192,281922,128,0,284104:0:0:0:0:
329,192,281922,1,0,0:0:0:0:
256,192,282195,1,2,0:0:0:0:
36,192,282468,1,0,0:0:0:0:
182,192,282468,1,0,1:0:0:0:
329,192,282740,128,0,284104:0:0:0:0:
109,192,282740,1,2,0:0:0:0:
256,192,283013,1,0,0:0:0:0:
109,192,283013,1,0,0:0:0:0:
402,192,283286,1,2,0:0:0:0:
109,192,283558,1,0,0:0:0:0:
182,192,283558,128,0,284104:0:0:0:0:
256,192,283558,1,0,1:0:0:0:
36,192,283831,1,2,0:0:0:0:
402,192,284104,128,0,286286:0:0:0:0:
256,192,284104,1,0,0:0:0:0:
109,192,284377,1,0,0:0:0:0:
36,192,284649,1,0,1:0:0:0:
329,192,284649,1,0,0:0:0:0:
109,192,284922,1,0,0:0:0:0:
475,192,284922,1,0,0:0:0:0:
256,192,285195,128,0,286286:0:0:0:0:
182,192,285195,1,2,0:0:0:0:
475,192,285195,1,0,0:0:0:0:
109,192,285468,1,0,0:0:0:0:
36,192,285740,1,0,1:0:0:0:
475,192,285740,1,0,0:0:0:0:
109,192,286013,1,0,0:0:0:0:
475,192,286286,128,0,286558:0:0:0:0:
36,192,286286,1,0,0:0:0:0:
329,192,286558,128,0,286831:0:0:0:0:
36,192,286558,1,0,0:0:0:0:
182,192,286831,128,0,287104:0:0:0:0:
402,192,286831,1,0,0:0:0:0:
109,192,286831,1,0,1:0:0:0:
36,192,287104,128,0,288468:0:0:0:0:
475,192,287104,1,2,0:0:0:0:
256,192,287104,1,0,0:0:0:0:
256,192,287377,1,0,0:0:0:0:
329,192,287649,1,0,0:0:0:0:
475,192,287922,128,0,288468:0:0:0:0:
109,192,287922,1,0,0:0:0:0:
402,192,287922,1,0,1:0:0:0:
182,192,288195,1,0,0:0:0:0:
329,192,288468,128,0,290649:0:0:0:0:
109,192,288740,1,0,0:0:0:0:
182,192,289013,128,0,290649:0:0:0:0:
475,192,289013,1,0,1:0:0:0:
36,192,289013,1,0,0:0:0:0:
402,192,289286,1,2,0:0:0:0:
109,192,289558,128,2,290649:0:0:0:0:
402,192,289558,1,0,0:0:0:0:
475,192,289831,1,2,0:0:0:0:
402,192,290104,128,0,290649:0:0:0:0:
256,192,290104,1,0,1:0:0:0:
475,192,290377,1,2,0:0:0:0:
256,192,290513,1,0,0:0:0:0:
475,192,290649,128,0,291740:0:0:0:0:
36,192,290649,1,0,0:0:0:0:
256,192,290922,1,0,0:0:0:0:
329,192,291058,1,2,0:0:0:0:
182,192,291195,128,0,291740:0:0:0:0:
36,192,291195,1,0,1:0:0:0:
402,192,291195,1,0,0:0:0:0:
256,192,291468,1,2,0:0:0:0:
109,192,291468,1,0,0:0:0:0:
402,192,291740,128,0,292831:0:0:0:0:
329,192,291740,1,0,0:0:0:0:
109,192,291740,1,0,0:0:0:0:
182,192,292013,1,2,0:0:0:0:
109,192,292286,128,0,292831:0:0:0:0:
36,192,292286,1,0,1:0:0:0:
475,192,292286,1,0,0:0:0:0:
329,192,292422,1,2,0:0:0:0:
256,192,292558,1,2,0:0:0:0:
182,192,292831,128,0,295013:0:0:0:0:
36,192,292831,1,0,0:0:0:0:
256,192,293104,1,2,0:0:0:0:
329,192,293377,1,0,0:0:0:0:
475,192,293377,1,0,1:0:0:0:
109,192,293649,1,2,0:0:0:0:
402,192,293649,1,0,0:0:0:0:
36,192,293922,1,8,0:0:0:0:
402,192,293922,1,0,0:0:0:0:
402,192,294195,1,8,0:0:0:0:
329,192,294331,1,8,0:0:0:0:
109,192,294468,1,0,0:0:0:0:
475,192,294468,1,0,1:0:0:0:
256,192,294740,1,0,0:0:0:0:
329,192,295013,128,0,297195:0:0:0:0:
36,192,295013,128,0,297195:0:0:0:0:
475,192,295013,1,0,0:0:0:0:
