osu file format v12

[General]
AudioFilename: 01 Melee [Game Size].mp3
AudioLeadIn: 500
PreviewTime: 70510
Countdown: 0
SampleSet: Soft
StackLeniency: 1
Mode: 0
LetterboxInBreaks: 0
WidescreenStoryboard: 1

[Editor]
DistanceSpacing: 1.2
BeatDivisor: 6
GridSize: 4
TimelineZoom: 1

[Metadata]
Title:melee
TitleUnicode:melee
Artist:yanaginagi
ArtistUnicode:やなぎなぎ
Creator:Kiiwa
Version:Normal
Source:NORN9 ノルン+ノネット
Tags:otome Garven PSP
BeatmapID:320474
BeatmapSetID:126024

[Difficulty]
HPDrainRate:3
CircleSize:3
OverallDifficulty:4
ApproachRate:4
SliderMultiplier:1.9
SliderTickRate:3

[Events]
//Background and Video events
0,0,"bg.png",0,0
//Break Periods
//Storyboard Layer 0 (Background)
//Storyboard Layer 1 (Fail)
//Storyboard Layer 2 (Pass)
//Storyboard Layer 3 (Foreground)
//Storyboard Sound Samples
//Background Colour Transformations
3,100,163,162,255

[TimingPoints]
7320,800,4,2,1,44,1,0
45720,-95.2380952380952,4,3,0,57,0,0
58520,-92.5925925925926,4,3,0,60,0,0
61720,-90.0900900900901,4,3,0,63,0,0
64920,-87.719298245614,4,3,0,66,0,0
66520,-85.4700854700855,4,3,0,67,0,0
68120,-83.3333333333333,4,1,0,30,0,0
68386,-83.3333333333333,4,3,0,48,0,0
68653,-83.3333333333333,4,3,0,52,0,0
68920,-83.3333333333333,4,3,0,56,0,0
69186,-83.3333333333333,4,3,0,60,0,0
69453,-83.3333333333333,4,3,0,64,0,0
69720,-83.3333333333333,4,3,0,68,0,0
70520,-83.3333333333333,4,1,0,60,0,0
71320,-76.9230769230769,4,1,0,60,0,1
77186,-76.9230769230769,4,1,0,45,0,1
77720,-76.9230769230769,4,1,0,60,0,1
83986,-76.9230769230769,4,1,0,60,0,0
84120,-76.9230769230769,4,1,0,60,0,1
96786,-76.9230769230769,4,1,0,60,0,0
96920,-90.9090909090909,4,1,0,62,0,1
97053,-90.9090909090909,4,1,0,62,0,0

[Colours]
Combo1 : 228,244,250
Combo2 : 218,142,251
Combo3 : 140,132,242
Combo4 : 98,137,240

[HitObjects]
89,281,7320,6,0,L|85:138,1,126.666666666667,2|0,0:0|0:0,0:0:0:0:
81,72,8120,1,8,0:0:0:0:
281,197,9986,5,0,0:0:0:0:
221,260,10253,1,0,0:0:0:0:
300,282,10520,2,0,P|387:289|433:258,1,126.666666666667,2|0,0:0|0:0,0:0:0:0:
433,189,11320,2,0,L|440:38,1,126.666666666667,8|0,0:0|0:0,0:0:0:0:
362,32,12120,5,2,0:0:0:0:
282,50,12386,1,0,0:0:0:0:
210,90,12653,1,2,0:0:0:0:
164,158,12920,1,0,0:0:0:0:
164,158,13720,6,0,P|161:233|112:278,1,126.666666666667,2|0,0:0|0:0,0:0:0:0:
208,249,14520,1,0,0:0:0:0:
289,241,14786,1,0,0:0:0:0:
363,276,15053,1,0,0:0:0:0:
400,349,15320,5,2,0:0:0:0:
443,203,16120,1,2,0:0:0:0:
486,57,16920,1,2,0:0:0:0:
170,86,17986,5,0,0:0:0:0:
183,167,18253,1,0,0:0:0:0:
196,248,18520,1,2,0:0:0:0:
256,124,20120,6,0,P|234:70|256:0,1,126.666666666667,4|0,0:0|0:0,0:0:0:0:
321,62,20920,2,0,L|449:58,1,126.666666666667,8|0,0:0|0:0,0:0:0:0:
497,123,21720,1,0,0:0:0:0:
497,123,22520,1,2,0:0:0:0:
395,252,23053,5,0,0:0:0:0:
452,311,23320,2,0,P|394:333|322:289,1,126.666666666667,4|0,0:0|0:0,0:0:0:0:
264,271,24120,2,0,P|206:247|149:269,1,126.666666666667,8|0,0:0|0:0,0:0:0:0:
82,317,24920,2,0,P|19:315|16:193,1,190,2|8,0:0|0:0,0:0:0:0:
113,90,26253,5,0,0:0:0:0:
51,34,26520,2,0,L|204:43,1,126.666666666667,4|0,0:0|0:0,0:0:0:0:
224,112,27320,2,0,L|377:121,1,126.666666666667,8|0,0:0|0:0,0:0:0:0:
350,119,28120,6,0,P|342:59|380:-9,1,126.666666666667,2|2,0:0|0:0,0:0:0:0:
449,20,28920,2,0,P|457:80|419:148,1,126.666666666667,8|0,0:0|0:0,0:0:0:0:
376,200,29720,6,0,P|361:269|461:356,1,190,4|8,0:0|0:0,0:0:0:0:
351,331,30786,2,0,P|294:324|268:338,1,63.3333333333333
208,338,31320,2,0,P|140:353|61:336,1,126.666666666667,2|0,0:0|0:0,0:0:0:0:
10,309,32120,1,8,0:0:0:0:
137,97,32920,6,0,B|145:47|145:47|228:20,1,126.666666666667,4|0,0:0|0:0,0:0:0:0:
299,26,33720,2,0,P|372:29|430:2,1,126.666666666667,8|0,0:0|0:0,0:0:0:0:
502,18,34520,2,0,L|490:157,1,126.666666666667,2|0,0:0|0:0,0:0:0:0:
491,144,35320,1,8,0:0:0:0:
377,263,35853,5,2,0:0:0:0:
301,230,36120,2,0,P|223:215|150:237,1,126.666666666667,4|0,0:0|0:0,0:0:0:0:
95,233,36920,2,0,P|34:233|10:218,2,63.3333333333333,8|0|0,0:0|0:0|0:0,0:0:0:0:
177,224,37720,2,0,P|218:193|228:108,1,126.666666666667,2|0,0:0|0:0,0:0:0:0:
209,42,38520,1,8,0:0:0:0:
153,102,38786,5,2,0:0:0:0:
232,122,39053,1,0,0:0:0:0:
310,95,39320,2,0,L|452:91,1,126.666666666667,4|0,0:0|0:0,0:0:0:0:
507,140,40120,2,0,P|511:201|473:279,1,126.666666666667,8|0,0:0|0:0,0:0:0:0:
443,330,40920,5,2,0:0:0:0:
371,288,41186,1,0,0:0:0:0:
289,279,41453,1,0,0:0:0:0:
207,293,41720,1,8,0:0:0:0:
127,312,41986,1,0,0:0:0:0:
49,283,42253,1,2,0:0:0:0:
49,283,42520,6,0,B|12:249|23:168|92:164|92:164|126:122|111:54|43:44,1,316.666666666667,4|0,0:0|0:0,0:0:0:0:
46,44,44120,1,8,0:0:0:0:
152,244,44920,6,0,P|160:276|111:361,1,126.666666666667,4|0,0:0|0:0,0:0:0:0:
72,280,45720,6,0,P|60:192|88:144,1,132.999995941162,4|0,2:0|0:0,0:0:0:0:
78,154,46520,2,0,L|232:152,1,132.999995941162,8|0,0:0|0:0,0:0:0:0:
265,85,47320,2,0,L|486:77,1,199.499993911743,0|8,0:0|0:0,0:0:0:0:
478,164,48386,1,0,0:0:0:0:
450,245,48653,1,0,0:0:0:0:
387,305,48920,6,0,P|325:354|264:352,1,132.999995941162
276,268,49720,2,0,L|285:130,1,132.999995941162,8|0,0:0|0:0,0:0:0:0:
291,49,50520,2,0,P|221:27|108:82,1,199.499993911743,0|8,0:0|0:0,0:0:0:0:
77,157,51586,5,0,0:0:0:0:
163,147,51853,1,0,0:0:0:0:
111,77,52120,2,0,P|32:84|6:208,1,199.499993911743,4|0,2:0|0:0,0:0:0:0:
99,324,53453,5,0,0:0:0:0:
183,343,53720,2,0,L|335:336,1,132.999995941162,8|0,0:0|0:0,0:0:0:0:
402,333,54520,2,0,P|486:313|510:211,1,199.499993911743,8|4,0:0|2:0,0:0:0:0:
408,73,55853,5,0,0:0:0:0:
354,7,56120,2,0,P|321:66|345:128,1,132.999995941162,8|0,0:0|0:0,0:0:0:0:
408,73,56920,2,0,L|497:66,1,66.4999979705811,8|2,0:0|0:0,0:0:0:0:
495,151,57453,5,0,0:0:0:0:
427,204,57720,1,8,0:0:0:0:
340,205,57986,1,8,0:0:0:0:
265,161,58253,1,8,0:0:0:0:
243,74,58520,6,0,L|94:69,1,136.800003339844,4|0,2:0|0:0,0:0:0:0:
106,69,59320,2,0,P|83:133|112:220,1,136.800003339844,8|0,0:0|0:0,0:0:0:0:
141,275,60120,2,0,P|209:333|350:344,1,205.200005009766,0|8,0:0|0:0,0:0:0:0:
409,339,61186,1,0,0:0:0:0:
402,250,61453,1,0,0:0:0:0:
395,158,61720,6,0,P|354:124|247:113,1,140.600003432617,4|0,2:0|0:0,0:0:0:0:
179,124,62520,2,0,L|187:283,1,140.600003432617,8|0,0:0|0:0,0:0:0:0:
185,355,63320,2,0,P|133:368|-5:273,1,210.900005148926,0|8,0:0|0:0,0:0:0:0:
7,203,64386,1,0,0:0:0:0:
51,123,64653,1,0,0:0:0:0:
139,92,64920,5,4,2:0:0:0:
139,92,65720,1,0,0:0:0:0:
199,163,65986,1,0,0:0:0:0:
292,175,66253,1,0,0:0:0:0:
381,140,66520,5,4,2:0:0:0:
381,140,67320,1,0,0:0:0:0:
386,235,67586,1,0,0:0:0:0:
336,317,67853,1,0,0:0:0:0:
241,346,68120,6,0,P|179:356|83:313,1,151.999995361328
47,239,68920,1,0,0:0:0:0:
22,143,69186,1,0,0:0:0:0:
118,118,69453,1,0,0:0:0:0:
156,228,69720,1,4,2:0:0:0:
156,228,70520,5,4,0:0:0:0:
156,228,71320,6,0,P|240:193|330:222,1,164.666659128825,4|0,2:0|0:0,0:0:0:0:
395,271,72120,2,0,P|311:306|221:277,1,164.666659128825,8|0,3:0|0:0,0:0:0:0:
309,209,72920,2,0,L|297:85,2,123.499994346619,0|0|8,0:0|0:0|3:0,0:0:0:0:
396,270,73986,5,0,0:0:0:0:
309,209,74253,1,0,0:0:0:0:
408,170,74520,2,0,P|434:135|407:20,1,164.666659128825,4|0,2:0|0:0,0:0:0:0:
313,63,75320,2,0,P|287:98|314:213,1,164.666659128825,8|0,3:0|0:0,0:0:0:0:
396,270,76120,6,0,P|354:343|183:327,1,246.999988693238,0|8,0:0|3:0,0:0:0:0:
99,327,77186,2,0,L|51:385,2,41.1666647822063
4,275,77720,6,0,L|114:137,1,164.666659128825,4|0,2:0|0:0,0:0:0:0:
84,41,78520,1,8,3:0:0:0:
162,239,79053,1,0,0:0:0:0:
107,146,79320,6,0,P|176:134|262:206,1,164.666659128825,4|0,2:0|0:0,0:0:0:0:
251,183,80120,2,0,L|439:175,1,164.666659128825,8|0,3:0|0:0,0:0:0:0:
495,247,80920,5,2,2:0:0:0:
415,176,81186,1,2,2:0:0:0:
337,249,81453,1,0,0:0:0:0:
416,320,81720,2,0,P|345:353|247:308,1,164.666659128825,8|0,3:0|0:0,0:0:0:0:
165,288,82520,2,0,P|89:263|16:297,1,164.666659128825,4|0,2:0|0:0,0:0:0:0:
95,368,83320,1,8,3:0:0:0:
246,222,83853,1,0,0:0:0:0:
246,222,84120,6,0,L|263:45,1,164.666659128825,4|0,2:0|0:0,0:0:0:0:
176,123,84920,2,0,P|252:155|334:138,1,164.666659128825,8|0,3:0|0:0,0:0:0:0:
262,58,85720,2,0,P|186:26|104:43,1,164.666659128825
18,98,86520,5,8,3:0:0:0:
3,203,86786,1,0,0:0:0:0:
36,304,87053,1,0,0:0:0:0:
133,349,87320,2,0,P|208:357|297:309,1,164.666659128825,4|0,2:0|0:0,0:0:0:0:
338,172,88120,2,0,P|293:232|290:334,1,164.666659128825,8|0,3:0|0:0,0:0:0:0:
338,379,88920,2,0,P|322:344|279:317,1,82.3333295644126
188,269,89453,5,0,0:0:0:0:
207,157,89720,1,8,3:0:0:0:
317,142,89986,1,0,0:0:0:0:
367,243,90253,1,0,0:0:0:0:
287,320,90520,5,4,0:0:0:0:
287,320,91320,1,4,2:0:0:0:
225,64,92120,5,4,0:0:0:0:
225,64,92920,1,4,2:0:0:0:
256,192,93720,12,4,96920,1:0:0:0:
