osu file format v12

[General]
AudioFilename: Zoetrope.mp3
AudioLeadIn: 1500
PreviewTime: 62531
Countdown: 0
SampleSet: Normal
StackLeniency: 0.7
Mode: 1
LetterboxInBreaks: 0
WidescreenStoryboard: 0

[Editor]
DistanceSpacing: 0.1
BeatDivisor: 4
GridSize: 32

[Metadata]
Title:Zoetrope (TV Size)
TitleUnicode:Zoetrope (TV Size)
Artist:yanaginagi
ArtistUnicode:やなぎなぎ
Creator:shikyu
Version:Oni
Source:AMNESIA
Tags:taiko opening
BeatmapID:217301
BeatmapSetID:77392

[Difficulty]
HPDrainRate:6
CircleSize:4
OverallDifficulty:6
ApproachRate:5
SliderMultiplier:1.4
SliderTickRate:1

[Events]
//Background and Video events
0,0,"BG.jpg",0,50
//Break Periods
//Storyboard Layer 0 (Background)
//Storyboard Layer 1 (Fail)
//Storyboard Layer 2 (Pass)
//Storyboard Layer 3 (Foreground)
//Storyboard Sound Samples
//Background Colour Transformations
3,100,163,162,255

[TimingPoints]
957,722.89156626506,4,1,0,40,1,0
18306,750,4,1,0,40,1,0
19806,800,4,1,0,40,1,0
21406,652.173913043478,4,1,0,40,1,0
22710,750,4,1,0,40,1,8
24210,800,4,1,0,40,1,8
25010,1000,4,1,0,40,1,8
26010,326.086956521739,4,1,0,80,1,0
57640,-133.333333333333,4,1,0,40,0,0
59923,-66.6666666666667,4,1,0,80,0,0
61879,-100,4,1,0,80,0,0
62531,-100,4,1,0,80,0,1
83401,-100,4,1,0,80,0,0

[Colours]
Combo1 : 2,2,106
Combo2 : 121,0,0

[HitObjects]
256,192,595,21,8,0:0:0:0:
256,192,957,5,4,0:0:0:0:
256,192,1318,1,0,0:0:0:0:
256,192,1499,1,8,0:0:0:0:
256,192,2041,5,8,0:0:0:0:
256,192,2402,5,0,0:0:0:0:
256,192,2764,1,0,0:0:0:0:
256,192,3125,5,8,0:0:0:0:
256,192,3487,5,0,0:0:0:0:
256,192,3848,1,8,0:0:0:0:
256,192,4390,5,0,0:0:0:0:
256,192,4932,1,0,0:0:0:0:
256,192,5294,5,8,0:0:0:0:
256,192,5655,1,0,0:0:0:0:
256,192,5836,5,8,0:0:0:0:
256,192,6378,1,0,0:0:0:0:
256,192,6559,1,0,0:0:0:0:
256,192,6740,5,8,0:0:0:0:
256,192,7101,1,0,0:0:0:0:
256,192,7282,1,8,0:0:0:0:
256,192,7824,1,0,0:0:0:0:
256,192,8185,1,8,0:0:0:0:
256,192,8547,5,0,0:0:0:0:
256,192,8908,5,8,0:0:0:0:
256,192,9270,5,8,0:0:0:0:
256,192,9631,5,0,0:0:0:0:
256,192,10173,1,0,0:0:0:0:
256,192,10354,5,8,0:0:0:0:
256,192,10896,1,8,0:0:0:0:
256,192,11077,5,0,0:0:0:0:
256,192,11438,1,0,0:0:0:0:
256,192,11619,5,8,0:0:0:0:
256,192,11800,1,8,0:0:0:0:
256,192,12161,1,8,0:0:0:0:
256,192,12342,5,0,0:0:0:0:
256,192,12523,5,8,0:0:0:0:
256,192,12884,5,0,0:0:0:0:
256,192,13065,1,8,0:0:0:0:
256,192,13607,1,0,0:0:0:0:
256,192,13969,5,8,0:0:0:0:
256,192,14330,1,8,0:0:0:0:
256,192,14691,1,8,0:0:0:0:
256,192,15053,5,0,0:0:0:0:
256,192,15414,5,8,0:0:0:0:
256,192,15776,5,0,0:0:0:0:
256,192,16137,5,8,0:0:0:0:
256,192,16499,5,0,0:0:0:0:
256,192,16679,1,8,0:0:0:0:
256,192,17222,1,0,0:0:0:0:
256,192,17583,5,8,0:0:0:0:
256,192,17944,5,0,0:0:0:0:
256,192,18125,1,0,0:0:0:0:
256,192,18306,5,8,0:0:0:0:
256,192,18681,5,0,0:0:0:0:
256,192,18868,1,0,0:0:0:0:
256,192,19431,1,0,0:0:0:0:
256,192,19618,1,0,0:0:0:0:
256,192,19806,5,8,0:0:0:0:
256,192,20206,5,0,0:0:0:0:
256,192,20605,1,8,0:0:0:0:
256,192,21005,1,0,0:0:0:0:
256,192,21406,12,0,25760,0:0:0:0:
256,192,26010,5,4,0:0:0:0:
256,192,26336,5,0,0:0:0:0:
256,192,26499,1,0,0:0:0:0:
256,192,26662,5,8,0:0:0:0:
256,192,26988,5,0,0:0:0:0:
256,192,27151,5,8,0:0:0:0:
256,192,27314,5,0,0:0:0:0:
256,192,27477,5,8,0:0:0:0:
256,192,27640,5,0,0:0:0:0:
256,192,27803,1,0,0:0:0:0:
256,192,27885,1,0,0:0:0:0:
256,192,27966,5,8,0:0:0:0:
256,192,28292,5,0,0:0:0:0:
256,192,28455,5,8,0:0:0:0:
256,192,28618,5,0,0:0:0:0:
256,192,28944,1,0,0:0:0:0:
256,192,29270,5,8,0:0:0:0:
256,192,29596,5,0,0:0:0:0:
256,192,29760,5,8,0:0:0:0:
256,192,29923,5,0,0:0:0:0:
256,192,30086,5,8,0:0:0:0:
256,192,30167,5,0,0:0:0:0:
256,192,30249,5,8,0:0:0:0:
256,192,30412,5,0,0:0:0:0:
256,192,30575,5,8,0:0:0:0:
256,192,30656,5,0,0:0:0:0:
256,192,30738,1,0,0:0:0:0:
256,192,30819,1,0,0:0:0:0:
256,192,30901,5,8,0:0:0:0:
256,192,31064,1,8,0:0:0:0:
256,192,31227,5,0,0:0:0:0:
256,192,31553,1,0,0:0:0:0:
256,192,31879,5,8,0:0:0:0:
256,192,32205,5,0,0:0:0:0:
256,192,32368,5,8,0:0:0:0:
256,192,32531,5,0,0:0:0:0:
256,192,32694,5,8,0:0:0:0:
256,192,32776,5,0,0:0:0:0:
256,192,32857,5,8,0:0:0:0:
256,192,33020,5,0,0:0:0:0:
256,192,33183,5,8,0:0:0:0:
256,192,33346,5,0,0:0:0:0:
256,192,33428,1,0,0:0:0:0:
256,192,33510,1,0,0:0:0:0:
256,192,33673,5,8,0:0:0:0:
256,192,33836,5,0,0:0:0:0:
256,192,34162,1,0,0:0:0:0:
256,192,34488,5,8,0:0:0:0:
256,192,34814,5,0,0:0:0:0:
256,192,34977,5,8,0:0:0:0:
256,192,35058,1,8,0:0:0:0:
256,192,35140,5,0,0:0:0:0:
256,192,35303,5,8,0:0:0:0:
256,192,35466,1,8,0:0:0:0:
256,192,35548,1,8,0:0:0:0:
256,192,35629,5,0,0:0:0:0:
256,192,35792,5,8,0:0:0:0:
256,192,35955,5,0,0:0:0:0:
256,192,36037,5,8,0:0:0:0:
256,192,36118,1,8,0:0:0:0:
256,192,36281,1,8,0:0:0:0:
256,192,36444,5,4,0:0:0:0:
256,192,36770,1,0,0:0:0:0:
256,192,36933,1,0,0:0:0:0:
256,192,37096,5,8,0:0:0:0:
256,192,37260,5,0,0:0:0:0:
256,192,37423,5,0,0:0:0:0:
256,192,37586,1,8,0:0:0:0:
256,192,37912,1,8,0:0:0:0:
256,192,38075,5,0,0:0:0:0:
256,192,38401,5,8,0:0:0:0:
256,192,38727,1,0,0:0:0:0:
256,192,38890,5,0,0:0:0:0:
256,192,38971,1,0,0:0:0:0:
256,192,39053,1,8,0:0:0:0:
256,192,39216,1,0,0:0:0:0:
256,192,39379,1,0,0:0:0:0:
256,192,39705,5,8,0:0:0:0:
256,192,39868,5,8,0:0:0:0:
256,192,40031,1,0,0:0:0:0:
256,192,40194,5,0,0:0:0:0:
256,192,40520,1,0,0:0:0:0:
256,192,40683,5,8,0:0:0:0:
256,192,41009,5,8,0:0:0:0:
256,192,41336,1,8,0:0:0:0:
256,192,41499,5,0,0:0:0:0:
256,192,41580,1,0,0:0:0:0:
256,192,41662,5,8,0:0:0:0:
256,192,41825,5,0,0:0:0:0:
256,192,41988,1,0,0:0:0:0:
256,192,42314,5,8,0:0:0:0:
256,192,42477,5,0,0:0:0:0:
256,192,42640,5,8,0:0:0:0:
256,192,42803,5,0,0:0:0:0:
256,192,43129,5,8,0:0:0:0:
256,192,43292,5,0,0:0:0:0:
256,192,43618,5,8,0:0:0:0:
256,192,43781,1,8,0:0:0:0:
256,192,43863,1,8,0:0:0:0:
256,192,43944,5,0,0:0:0:0:
256,192,44107,5,8,0:0:0:0:
256,192,44270,1,8,0:0:0:0:
256,192,44596,5,0,0:0:0:0:
256,192,44759,1,0,0:0:0:0:
256,192,44923,5,8,0:0:0:0:
256,192,45249,5,0,0:0:0:0:
256,192,45412,5,8,0:0:0:0:
256,192,45575,5,0,0:0:0:0:
256,192,45738,5,8,0:0:0:0:
256,192,45819,5,0,0:0:0:0:
256,192,45901,1,0,0:0:0:0:
256,192,46064,5,8,0:0:0:0:
256,192,46227,1,8,0:0:0:0:
256,192,46390,5,0,0:0:0:0:
256,192,46471,1,0,0:0:0:0:
256,192,46553,5,8,0:0:0:0:
256,192,46716,5,0,0:0:0:0:
256,192,46879,5,8,0:0:0:0:
256,192,47205,5,0,0:0:0:0:
256,192,47531,1,0,0:0:0:0:
256,192,47694,1,0,0:0:0:0:
256,192,47857,1,0,0:0:0:0:
256,192,48183,1,0,0:0:0:0:
256,192,48509,1,0,0:0:0:0:
256,192,48836,1,0,0:0:0:0:
256,192,48999,1,0,0:0:0:0:
256,192,49162,5,8,0:0:0:0:
256,192,49488,1,8,0:0:0:0:
256,192,49814,5,0,0:0:0:0:
256,192,49977,1,0,0:0:0:0:
256,192,50140,1,0,0:0:0:0:
256,192,50303,1,0,0:0:0:0:
256,192,50466,1,0,0:0:0:0:
256,192,50792,1,0,0:0:0:0:
256,192,51118,1,0,0:0:0:0:
256,192,51444,1,0,0:0:0:0:
256,192,51607,1,0,0:0:0:0:
256,192,51770,1,8,0:0:0:0:
256,192,51933,1,0,0:0:0:0:
256,192,52015,1,0,0:0:0:0:
256,192,52096,5,8,0:0:0:0:
256,192,52423,5,0,0:0:0:0:
256,192,52749,1,8,0:0:0:0:
256,192,53075,1,0,0:0:0:0:
256,192,53238,1,8,0:0:0:0:
256,192,53401,1,8,0:0:0:0:
256,192,53564,1,0,0:0:0:0:
256,192,53727,1,0,0:0:0:0:
256,192,53890,1,0,0:0:0:0:
256,192,54053,1,8,0:0:0:0:
256,192,54216,1,0,0:0:0:0:
256,192,54379,5,8,0:0:0:0:
256,192,54705,1,8,0:0:0:0:
256,192,54868,5,0,0:0:0:0:
256,192,54950,1,0,0:0:0:0:
256,192,55031,1,0,0:0:0:0:
256,192,55194,5,8,0:0:0:0:
256,192,55357,5,0,0:0:0:0:
256,192,55520,1,0,0:0:0:0:
256,192,55683,5,8,0:0:0:0:
256,192,55846,5,0,0:0:0:0:
256,192,56009,5,8,0:0:0:0:
256,192,56173,5,0,0:0:0:0:
256,192,56254,1,0,0:0:0:0:
256,192,56336,5,8,0:0:0:0:
256,192,56499,5,0,0:0:0:0:
256,192,56662,5,8,0:0:0:0:
256,192,56743,5,0,0:0:0:0:
256,192,56825,1,0,0:0:0:0:
256,192,56906,1,0,0:0:0:0:
256,192,56988,1,8,0:0:0:0:
256,192,57151,1,0,0:0:0:0:
256,192,57314,5,8,0:0:0:0:
256,192,57640,5,0,0:0:0:0:
256,192,57803,5,8,0:0:0:0:
256,192,57966,1,8,0:0:0:0:
256,192,58129,5,0,0:0:0:0:
256,192,58292,1,0,0:0:0:0:
256,192,58455,5,8,0:0:0:0:
256,192,58618,1,8,0:0:0:0:
256,192,58781,5,0,0:0:0:0:
256,192,58944,1,0,0:0:0:0:
256,192,59107,5,8,0:0:0:0:
256,192,59270,1,8,0:0:0:0:
256,192,59433,5,0,0:0:0:0:
256,192,59596,1,0,0:0:0:0:
256,192,59759,5,8,0:0:0:0:
256,192,59923,1,12,0:0:0:0:
256,192,60086,1,12,0:0:0:0:
256,192,60249,5,4,0:0:0:0:
256,192,60412,5,12,0:0:0:0:
256,192,60901,1,12,0:0:0:0:
256,192,61064,5,4,0:0:0:0:
256,192,61227,5,12,0:0:0:0:
256,192,61390,5,4,0:0:0:0:
256,192,61879,5,8,0:0:0:0:
256,192,61961,1,8,0:0:0:0:
256,192,62042,5,0,0:0:0:0:
256,192,62205,5,8,0:0:0:0:
256,192,62287,1,8,0:0:0:0:
256,192,62368,1,8,0:0:0:0:
256,192,62450,1,8,0:0:0:0:
256,192,62531,5,0,0:0:0:0:
256,192,62694,1,0,0:0:0:0:
256,192,62857,5,8,0:0:0:0:
256,192,63020,5,0,0:0:0:0:
256,192,63102,1,0,0:0:0:0:
256,192,63183,5,8,0:0:0:0:
256,192,63346,1,0,0:0:0:0:
256,192,63509,1,8,0:0:0:0:
256,192,63591,5,0,0:0:0:0:
256,192,63673,5,8,0:0:0:0:
256,192,63836,5,0,0:0:0:0:
256,192,63999,5,8,0:0:0:0:
256,192,64080,1,8,0:0:0:0:
256,192,64162,5,0,0:0:0:0:
256,192,64325,5,8,0:0:0:0:
256,192,64488,5,0,0:0:0:0:
256,192,64651,1,0,0:0:0:0:
256,192,64732,5,8,0:0:0:0:
256,192,64814,1,8,0:0:0:0:
256,192,64977,5,8,0:0:0:0:
256,192,65140,1,0,0:0:0:0:
256,192,65303,5,0,0:0:0:0:
256,192,65384,1,0,0:0:0:0:
256,192,65466,5,8,0:0:0:0:
256,192,65548,5,0,0:0:0:0:
256,192,65629,5,8,0:0:0:0:
256,192,65792,5,0,0:0:0:0:
256,192,65955,1,0,0:0:0:0:
256,192,66037,1,0,0:0:0:0:
256,192,66118,5,8,0:0:0:0:
256,192,66281,1,8,0:0:0:0:
256,192,66444,5,0,0:0:0:0:
256,192,66607,1,0,0:0:0:0:
256,192,66689,1,0,0:0:0:0:
256,192,66770,5,8,0:0:0:0:
256,192,66933,5,0,0:0:0:0:
256,192,67015,1,0,0:0:0:0:
256,192,67096,5,8,0:0:0:0:
256,192,67178,5,0,0:0:0:0:
256,192,67259,5,8,0:0:0:0:
256,192,67423,5,0,0:0:0:0:
256,192,67586,5,8,0:0:0:0:
256,192,67667,5,0,0:0:0:0:
256,192,67749,1,0,0:0:0:0:
256,192,67912,1,0,0:0:0:0:
256,192,67993,1,0,0:0:0:0:
256,192,68075,5,8,0:0:0:0:
256,192,68238,5,0,0:0:0:0:
256,192,68319,1,0,0:0:0:0:
256,192,68401,5,8,0:0:0:0:
256,192,68482,5,0,0:0:0:0:
256,192,68564,1,0,0:0:0:0:
256,192,68645,1,0,0:0:0:0:
256,192,68727,5,8,0:0:0:0:
256,192,68890,1,8,0:0:0:0:
256,192,69053,5,0,0:0:0:0:
256,192,69216,1,0,0:0:0:0:
256,192,69298,1,0,0:0:0:0:
256,192,69379,5,8,0:0:0:0:
256,192,69542,1,8,0:0:0:0:
256,192,69624,1,8,0:0:0:0:
256,192,69705,5,0,0:0:0:0:
256,192,69868,1,0,0:0:0:0:
256,192,70031,5,8,0:0:0:0:
256,192,70194,1,0,0:0:0:0:
256,192,70276,1,0,0:0:0:0:
256,192,70357,5,8,0:0:0:0:
256,192,70520,5,0,0:0:0:0:
256,192,70683,5,8,0:0:0:0:
256,192,70846,5,0,0:0:0:0:
256,192,70928,1,0,0:0:0:0:
256,192,71009,5,8,0:0:0:0:
256,192,71173,5,0,0:0:0:0:
256,192,71336,5,8,0:0:0:0:
256,192,71499,1,8,0:0:0:0:
256,192,71662,5,0,0:0:0:0:
256,192,71825,1,0,0:0:0:0:
256,192,71906,1,0,0:0:0:0:
256,192,71988,5,8,0:0:0:0:
256,192,72151,5,0,0:0:0:0:
256,192,72232,1,0,0:0:0:0:
256,192,72314,5,8,0:0:0:0:
256,192,72395,1,8,0:0:0:0:
256,192,72477,5,0,0:0:0:0:
256,192,72558,1,0,0:0:0:0:
256,192,72640,5,8,0:0:0:0:
256,192,72721,5,0,0:0:0:0:
256,192,72803,5,8,0:0:0:0:
256,192,72966,5,4,0:0:0:0:
256,192,73129,1,0,0:0:0:0:
256,192,73211,1,0,0:0:0:0:
256,192,73292,5,8,0:0:0:0:
256,192,73455,1,8,0:0:0:0:
256,192,73618,5,0,0:0:0:0:
256,192,73781,1,0,0:0:0:0:
256,192,73863,1,0,0:0:0:0:
256,192,73944,5,8,0:0:0:0:
256,192,74107,1,8,0:0:0:0:
256,192,74270,5,0,0:0:0:0:
256,192,74433,1,0,0:0:0:0:
256,192,74515,1,0,0:0:0:0:
256,192,74596,5,8,0:0:0:0:
256,192,74759,1,8,0:0:0:0:
256,192,74841,1,8,0:0:0:0:
256,192,74923,5,0,0:0:0:0:
256,192,75086,1,0,0:0:0:0:
256,192,75249,5,8,0:0:0:0:
256,192,75412,5,0,0:0:0:0:
256,192,75493,1,0,0:0:0:0:
256,192,75575,5,8,0:0:0:0:
256,192,75656,1,8,0:0:0:0:
256,192,75738,5,0,0:0:0:0:
256,192,75901,5,8,0:0:0:0:
256,192,75982,5,0,0:0:0:0:
256,192,76064,1,0,0:0:0:0:
256,192,76145,1,0,0:0:0:0:
256,192,76227,5,8,0:0:0:0:
256,192,76390,5,0,0:0:0:0:
256,192,76553,1,8,0:0:0:0:
256,192,76634,1,0,0:0:0:0:
256,192,76716,1,8,0:0:0:0:
256,192,76879,5,0,0:0:0:0:
256,192,77042,1,0,0:0:0:0:
256,192,77124,1,0,0:0:0:0:
256,192,77205,5,8,0:0:0:0:
256,192,77368,1,8,0:0:0:0:
256,192,77450,5,0,0:0:0:0:
256,192,77531,1,0,0:0:0:0:
256,192,77694,1,0,0:0:0:0:
256,192,77857,5,8,0:0:0:0:
256,192,77939,5,0,0:0:0:0:
256,192,78020,1,0,0:0:0:0:
256,192,78102,1,0,0:0:0:0:
256,192,78183,5,8,0:0:0:0:
256,192,78346,5,0,0:0:0:0:
256,192,78428,1,0,0:0:0:0:
256,192,78509,5,8,0:0:0:0:
256,192,78673,1,8,0:0:0:0:
256,192,78836,5,0,0:0:0:0:
256,192,78917,1,0,0:0:0:0:
256,192,78999,5,8,0:0:0:0:
256,192,79080,5,0,0:0:0:0:
256,192,79162,5,8,0:0:0:0:
256,192,79325,5,0,0:0:0:0:
256,192,79488,1,0,0:0:0:0:
256,192,79651,1,0,0:0:0:0:
256,192,79732,1,0,0:0:0:0:
256,192,79814,5,8,0:0:0:0:
256,192,79977,1,8,0:0:0:0:
256,192,80140,5,0,0:0:0:0:
256,192,80303,1,0,0:0:0:0:
256,192,80466,5,8,0:0:0:0:
256,192,80629,5,0,0:0:0:0:
256,192,80711,1,0,0:0:0:0:
256,192,80792,5,8,0:0:0:0:
256,192,80955,1,8,0:0:0:0:
256,192,81118,5,0,0:0:0:0:
256,192,81281,5,8,0:0:0:0:
256,192,81444,1,8,0:0:0:0:
256,192,81607,5,0,0:0:0:0:
256,192,81689,1,0,0:0:0:0:
256,192,81770,5,8,0:0:0:0:
256,192,81933,5,0,0:0:0:0:
256,192,82096,5,8,0:0:0:0:
256,192,82259,5,0,0:0:0:0:
256,192,82341,1,0,0:0:0:0:
256,192,82423,5,8,0:0:0:0:
256,192,82586,5,0,0:0:0:0:
256,192,82749,5,8,0:0:0:0:
256,192,82912,5,0,0:0:0:0:
256,192,82993,1,0,0:0:0:0:
256,192,83075,5,8,0:0:0:0:
256,192,83238,1,8,0:0:0:0:
256,192,83401,5,4,0:0:0:0:
256,192,83564,1,0,0:0:0:0:
256,192,83727,5,8,0:0:0:0:
256,192,83890,5,0,0:0:0:0:
256,192,84053,5,8,0:0:0:0:
256,192,84216,1,8,0:0:0:0:
256,192,84379,5,0,0:0:0:0:
256,192,84542,5,8,0:0:0:0:
256,192,84705,5,4,0:0:0:0:
256,192,84868,1,0,0:0:0:0:
256,192,85031,5,8,0:0:0:0:
256,192,85194,1,8,0:0:0:0:
256,192,85357,5,0,0:0:0:0:
256,192,85520,5,8,0:0:0:0:
256,192,85683,5,0,0:0:0:0:
256,192,85846,5,8,0:0:0:0:
256,192,86009,5,4,0:0:0:0:
256,192,86173,1,0,0:0:0:0:
256,192,86499,5,8,0:0:0:0:
256,192,86825,1,8,0:0:0:0:
256,192,86988,5,0,0:0:0:0:
256,192,87151,5,8,0:0:0:0:
256,192,87314,5,4,0:0:0:0:
256,192,87477,1,0,0:0:0:0:
256,192,87803,5,8,0:0:0:0:
256,192,88129,1,8,0:0:0:0:
256,192,88292,5,0,0:0:0:0:
256,192,88455,5,12,0:0:0:0:
