osu file format v12

[General]
AudioFilename: Zoetrope.mp3
AudioLeadIn: 1500
PreviewTime: 62531
Countdown: 0
SampleSet: Normal
StackLeniency: 0.7
Mode: 1
LetterboxInBreaks: 0
WidescreenStoryboard: 0

[Editor]
DistanceSpacing: 0.1
BeatDivisor: 2
GridSize: 32

[Metadata]
Title:Zoetrope (TV Size)
TitleUnicode:Zoetrope (TV Size)
Artist:yanaginagi
ArtistUnicode:やなぎなぎ
Creator:shikyu
Version:Kantan
Source:AMNESIA
Tags:taiko opening
BeatmapID:217299
BeatmapSetID:77392

[Difficulty]
HPDrainRate:4
CircleSize:3
OverallDifficulty:4
ApproachRate:5
SliderMultiplier:1.2
SliderTickRate:1

[Events]
//Background and Video events
0,0,"BG.jpg",0,50
//Break Periods
//Storyboard Layer 0 (Background)
//Storyboard Layer 1 (Fail)
//Storyboard Layer 2 (Pass)
//Storyboard Layer 3 (Foreground)
//Storyboard Sound Samples
//Background Colour Transformations
3,100,163,162,255

[TimingPoints]
957,722.89156626506,4,1,0,40,1,0
18306,750,4,1,0,40,1,0
19806,800,4,1,0,40,1,0
21406,652.173913043478,4,1,0,40,1,0
22710,750,4,1,0,40,1,8
24210,800,4,1,0,40,1,8
25010,1000,4,1,0,40,1,8
26010,326.086956521739,4,1,0,80,1,0
57314,-100,4,1,0,40,0,0
59923,-100,4,1,0,80,0,0
62531,-100,4,1,0,80,0,1
83401,-100,4,1,0,80,0,0

[Colours]
Combo1 : 2,2,106
Combo2 : 121,0,0

[HitObjects]
256,192,957,1,0,0:0:0:0:
256,192,2402,1,0,0:0:0:0:
256,192,3848,1,8,0:0:0:0:
256,192,5294,1,0,0:0:0:0:
256,192,6017,1,0,0:0:0:0:
256,192,6740,1,0,0:0:0:0:
256,192,8185,1,0,0:0:0:0:
256,192,9631,1,8,0:0:0:0:
256,192,11077,1,0,0:0:0:0:
256,192,11800,1,0,0:0:0:0:
256,192,12523,1,0,0:0:0:0:
256,192,13969,1,0,0:0:0:0:
256,192,15414,1,8,0:0:0:0:
256,192,16137,1,0,0:0:0:0:
256,192,16860,1,8,0:0:0:0:
256,192,18306,1,0,0:0:0:0:
256,192,19806,1,0,0:0:0:0:
256,192,21406,12,0,25510,0:0:0:0:
256,192,26010,5,4,0:0:0:0:
256,192,27314,5,0,0:0:0:0:
256,192,27966,5,0,0:0:0:0:
256,192,28618,5,0,0:0:0:0:
256,192,29923,5,8,0:0:0:0:
256,192,30575,5,8,0:0:0:0:
256,192,31227,5,0,0:0:0:0:
256,192,32531,5,0,0:0:0:0:
256,192,33183,5,0,0:0:0:0:
256,192,33836,5,0,0:0:0:0:
256,192,35140,5,0,0:0:0:0:
256,192,35792,5,0,0:0:0:0:
256,192,36444,5,8,0:0:0:0:
256,192,37749,1,0,0:0:0:0:
256,192,39053,1,0,0:0:0:0:
256,192,40357,1,0,0:0:0:0:
256,192,41009,5,8,0:0:0:0:
256,192,41662,5,0,0:0:0:0:
256,192,42966,1,0,0:0:0:0:
256,192,44270,1,0,0:0:0:0:
256,192,44923,5,8,0:0:0:0:
256,192,45575,5,0,0:0:0:0:
256,192,46227,1,0,0:0:0:0:
256,192,46879,1,0,0:0:0:0:
256,192,48183,1,0,0:0:0:0:
256,192,48836,1,0,0:0:0:0:
256,192,49488,5,8,0:0:0:0:
256,192,50792,5,0,0:0:0:0:
256,192,51444,1,0,0:0:0:0:
256,192,52096,5,8,0:0:0:0:
256,192,53401,5,0,0:0:0:0:
256,192,54053,1,0,0:0:0:0:
256,192,54705,1,0,0:0:0:0:
256,192,56009,1,0,0:0:0:0:
256,192,56662,5,8,0:0:0:0:
256,192,57314,12,0,59596,0:0:0:0:
256,192,59923,1,0,0:0:0:0:
256,192,60412,5,8,0:0:0:0:
256,192,60901,5,0,0:0:0:0:
256,192,61390,5,8,0:0:0:0:
256,192,61879,5,0,0:0:0:0:
256,192,62205,1,0,0:0:0:0:
256,192,62531,1,4,0:0:0:0:
256,192,62857,5,8,0:0:0:0:
256,192,63183,5,0,0:0:0:0:
256,192,63836,1,0,0:0:0:0:
256,192,64488,5,8,0:0:0:0:
256,192,65140,5,0,0:0:0:0:
256,192,65466,5,8,0:0:0:0:
256,192,65792,1,8,0:0:0:0:
256,192,66118,1,8,0:0:0:0:
256,192,66444,5,0,0:0:0:0:
256,192,67096,5,8,0:0:0:0:
256,192,67749,5,0,0:0:0:0:
256,192,68075,1,0,0:0:0:0:
256,192,68401,5,8,0:0:0:0:
256,192,68727,5,0,0:0:0:0:
256,192,69053,1,0,0:0:0:0:
256,192,69705,5,8,0:0:0:0:
256,192,70357,1,8,0:0:0:0:
256,192,70683,1,8,0:0:0:0:
256,192,71009,1,8,0:0:0:0:
256,192,71336,1,8,0:0:0:0:
256,192,71662,1,8,0:0:0:0:
256,192,72314,5,8,0:0:0:0:
256,192,72966,1,0,0:0:0:0:
256,192,73292,5,8,0:0:0:0:
256,192,73618,5,0,0:0:0:0:
256,192,74270,1,0,0:0:0:0:
256,192,74923,5,8,0:0:0:0:
256,192,75575,5,0,0:0:0:0:
256,192,75901,1,8,0:0:0:0:
256,192,76227,5,8,0:0:0:0:
256,192,76553,1,8,0:0:0:0:
256,192,76879,5,0,0:0:0:0:
256,192,77531,5,8,0:0:0:0:
256,192,78183,1,8,0:0:0:0:
256,192,78509,1,8,0:0:0:0:
256,192,78836,1,8,0:0:0:0:
256,192,79488,5,0,0:0:0:0:
256,192,79814,1,0,0:0:0:0:
256,192,80140,1,0,0:0:0:0:
256,192,80792,5,8,0:0:0:0:
256,192,81444,5,8,0:0:0:0:
256,192,82096,1,8,0:0:0:0:
256,192,82749,1,8,0:0:0:0:
256,192,83401,1,0,0:0:0:0:
256,192,84053,5,0,0:0:0:0:
256,192,84379,1,0,0:0:0:0:
256,192,84705,5,8,0:0:0:0:
256,192,85357,5,0,0:0:0:0:
256,192,85683,1,0,0:0:0:0:
256,192,86009,5,8,0:0:0:0:
256,192,86662,5,0,0:0:0:0:
256,192,87314,5,8,0:0:0:0:
256,192,87803,5,0,0:0:0:0:
256,192,88129,1,0,0:0:0:0:
256,192,88455,1,12,0:0:0:0:
