osu file format v13

[General]
AudioFilename: Zoetrope.mp3
AudioLeadIn: 0
PreviewTime: 36770
Countdown: 0
SampleSet: Soft
StackLeniency: 0.7
Mode: 2
LetterboxInBreaks: 0
WidescreenStoryboard: 0

[Editor]
DistanceSpacing: 1.6
BeatDivisor: 4
GridSize: 4
TimelineZoom: 1

[Metadata]
Title:Zoetrope (TV Size)
TitleUnicode:Zoetrope (TV Size)
Artist:yanaginagi
ArtistUnicode:yanaginagi
Creator:Kyuare
Version:Rain
Source:Amnesia
Tags:opening Geneon Universal Entertainment Shinya Saito shoujo bishonens otome anime Takuneru
BeatmapID:463360
BeatmapSetID:195257

[Difficulty]
HPDrainRate:6
CircleSize:4
OverallDifficulty:9
ApproachRate:9
SliderMultiplier:2
SliderTickRate:1

[Events]
//Background and Video events
0,0,"Amnesia-BG.jpg",0,0
//Break Periods
//Storyboard Layer 0 (Background)
//Storyboard Layer 1 (Fail)
//Storyboard Layer 2 (Pass)
//Storyboard Layer 3 (Foreground)
//Storyboard Sound Samples

[TimingPoints]
950,759.493670886076,4,2,0,45,1,0
1724,722.89156626506,4,2,0,45,1,0
3891,705.882352941176,4,2,0,45,1,0
4752,-100,4,2,0,25,0,0
5258,722.89156626506,4,2,0,45,1,0
6197,-100,4,2,0,30,0,0
6703,789.473684210526,4,2,0,45,1,0
6703,-100,4,2,0,50,0,0
7097,722.89156626506,4,2,0,45,1,0
7458,722.89156626506,4,2,0,45,1,0
7824,-100,4,2,0,55,0,0
9626,722.89156626506,4,2,0,45,1,0
9631,-100,4,2,0,60,0,0
10535,-100,4,2,0,40,0,0
11115,705.882352941176,4,2,0,45,1,0
11800,-100,4,2,0,45,0,0
12527,722.89156626506,4,2,0,45,1,0
12703,-100,4,2,0,40,0,0
17921,-100,4,2,0,55,0,0
17921,-100,4,2,0,35,0,0
18313,769.230769230769,4,2,0,45,1,0
19853,800,4,2,0,50,1,0
21206,-66.6666666666667,4,2,0,25,0,0
21444,666.666666666667,4,2,0,45,1,0
22058,-100,4,2,0,20,0,0
22069,625,4,2,0,55,1,0
22740,750,4,2,0,20,1,0
23443,800,4,2,0,20,1,0
24243,689.655172413793,4,2,0,45,1,0
24933,1069.51871657754,4,2,0,45,1,0
25760,-100,4,2,0,5,0,0
25998,-100,4,2,0,60,0,0
26038,326.086956521739,4,2,0,60,1,0
27994,315.789473684211,4,2,0,55,1,0
28606,-133.333333333333,4,2,0,60,0,0
28625,326.086956521739,4,2,0,60,1,0
28932,-100,4,2,0,60,0,0
36411,-100,4,2,0,50,0,0
38367,-133.333333333333,4,2,0,50,0,0
38693,-100,4,2,0,50,0,0
40976,-80,4,2,0,50,0,0
41302,-100,4,2,0,50,0,0
43584,-100,4,2,0,30,0,0
44237,-100,4,2,0,65,0,0
44889,-100,4,2,0,60,0,0
45541,-200,4,2,0,50,0,0
46193,-76.9230769230769,4,2,0,50,0,0
46356,-76.9230769230769,4,2,0,45,0,0
46519,-76.9230769230769,4,2,0,40,0,0
46682,-76.9230769230769,4,2,0,55,0,0
46845,-100,4,2,0,60,0,0
49128,-200,4,2,0,50,0,0
49454,-90.9090909090909,4,2,0,60,0,0
51737,-200,4,2,0,50,0,0
52063,-80,4,2,0,60,0,0
54264,-100,4,2,0,50,0,0
54671,-66.6666666666667,4,2,0,50,0,0
55650,-100,4,2,0,50,0,0
55976,-200,4,2,0,50,0,0
56709,-100,4,2,0,45,0,0
57199,-100,4,2,0,40,0,0
57362,-100,4,2,0,50,0,0
59596,-100,4,2,0,5,0,0
59678,-66.6666666666667,4,2,0,60,0,0
60867,-100,4,2,0,65,0,0
61193,-66.6666666666667,4,2,0,45,0,0
61471,-100,4,2,0,50,0,0
62498,-76.9230769230769,4,2,0,70,0,1
65106,-100,4,2,0,55,0,1
65269,-76.9230769230769,4,2,0,70,0,1
66411,-76.9230769230769,4,1,0,70,0,1
66526,-76.9230769230769,4,2,0,70,0,1
70487,-76.9230769230769,4,2,0,60,0,1
70976,-76.9230769230769,4,2,0,50,0,1
72851,-100,4,2,0,70,0,0
72932,-100,4,2,0,70,0,1
76193,-100,4,1,0,70,0,1
76356,-100,4,2,0,70,0,1
83367,-100,4,2,0,60,0,0
84671,-90.9090909090909,4,2,0,65,0,0
85813,-90.9090909090909,4,2,0,65,0,0
85976,-66.6666666666667,4,2,0,70,0,0
86954,-66.6666666666667,4,2,0,75,0,0
88258,-50,4,2,0,70,0,0

[Colours]
Combo1 : 159,9,31
Combo2 : 173,18,46
Combo3 : 252,236,186
Combo4 : 39,44,99

[HitObjects]
328,80,950,6,0,P|280:88|212:148,1,100,4|0,0:3|0:3,0:0:0:0:
416,228,1519,2,0,P|404:168|328:128,1,150,2|0,0:0|0:0,0:0:0:0:
248,80,2446,1,0,0:0:0:0:
104,156,2808,1,2,0:0:0:0:
360,156,3169,2,0,L|272:244,1,100,0|2,0:0|0:0,0:0:0:0:
168,176,3892,6,0,B|252:228|252:228|324:228,1,150,2|0,0:0|0:0,0:0:0:0:
168,176,4949,1,0,0:0:0:0:
292,228,5258,2,0,B|206:228|206:228|160:148,1,166.666666666667,2|0,0:0|0:0,0:0:0:0:
304,96,6342,5,4,3:0:0:0:
24,272,6703,2,0,P|64:216|96:204,1,100,2|0,0:0|0:0,0:0:0:0:
288,192,7277,2,0,P|240:148|152:140,1,150,0|2,0:0|0:0,0:0:0:0:
332,52,8180,1,0,0:0:0:0:
456,132,8542,1,0,0:0:0:0:
332,180,8903,1,2,0:0:0:0:
216,232,9265,1,0,0:0:0:0:
20,200,9626,6,0,P|80:160|184:140,1,150,2|0,0:0|0:0,0:0:0:0:
216,232,10348,1,0,0:0:0:0:
312,272,10710,1,0,0:0:0:0:
216,188,11071,1,2,0:0:0:0:
404,220,11467,1,0,0:0:0:0:
192,88,11820,1,2,0:0:0:0:
464,120,12173,6,0,P|392:96|348:108,1,100,2|4,0:0|0:3,0:0:0:0:
192,192,12888,1,0,0:0:0:0:
360,232,13069,2,0,P|316:176|240:128,1,150,2|0,0:0|0:0,0:0:0:0:
380,128,13972,2,0,L|480:128,1,100,2|0,0:0|0:0,0:0:0:0:
220,64,14695,2,0,L|320:64,1,100,2|0,0:0|0:0,0:0:0:0:
224,144,15418,6,0,B|216:92|216:92|152:92,2,100,2|0|0,0:0|0:0|0:0,0:0:0:0:
0,160,16503,1,0,0:0:0:0:
176,136,16683,2,0,B|96:96|96:96|124:44|124:44|16:44,1,250
220,144,17948,1,0,3:0:0:0:
336,148,18129,1,0,0:0:0:0:
488,148,18313,6,0,P|440:100|400:76,1,100,4|0,0:3|0:0,0:0:0:0:
284,156,18889,2,0,P|344:132|424:76,1,150,2|0,0:0|0:0,0:0:0:0:
252,56,19659,1,0,0:0:0:0:
132,100,19851,5,2,0:0:0:0:
204,216,20253,1,0,0:0:0:0:
352,260,20653,1,2,0:0:0:0:
468,184,21053,1,0,0:0:0:0:
228,296,21453,2,0,P|144:256|140:192,1,150,2|2,0:0|0:0,0:0:0:0:
256,192,22069,12,0,25467,0:0:0:0:
188,120,26038,6,0,B|128:120|128:120|80:152,1,100,8|0,0:3|0:0,0:0:0:0:
256,184,26364,1,0,0:0:0:0:
388,184,26527,1,8,3:0:0:0:
192,248,26690,2,0,L|116:168,1,100,2|0,0:3|0:3,0:0:0:0:
380,280,27179,6,0,B|380:228|380:228|308:224,1,100,8|0,0:3|0:0,0:0:0:0:
192,224,27505,2,0,L|296:224,1,100,2|0,0:3|0:0,0:0:0:0:
444,148,27831,1,8,3:0:0:0:
320,144,27993,1,0,1:0:0:0:
192,148,28151,2,0,L|260:240,1,100,8|0,0:3|0:0,0:0:0:0:
352,232,28467,1,0,0:0:0:0:
252,228,28625,1,4,3:0:0:0:
476,148,28788,1,0,0:0:0:0:
372,232,28951,6,0,L|256:256,1,100,8|0,0:3|0:0,0:0:0:0:
96,308,29277,2,0,L|216:308,1,100,0|8,0:1|0:3,0:0:0:0:
252,228,29603,2,0,L|153:246,1,100,0|8,0:0|0:3,0:0:0:0:
44,184,29929,6,0,L|144:144,1,100,0|0,0:0|0:1,0:0:0:0:
412,144,30255,2,0,B|364:144|364:144|304:176,1,100,0|8,0:0|0:3,0:0:0:0:
224,224,30581,1,2,3:0:0:0:
272,224,30663,2,0,L|344:224,1,50,0|8,0:0|0:3,0:0:0:0:
480,224,30907,2,0,L|372:224,1,100
80,232,31233,6,0,P|236:112|348:92,1,300,8|8,0:3|0:3,0:0:0:0:
456,92,31885,1,2,3:0:0:0:
368,172,32048,1,0,0:0:0:0:
268,172,32211,2,0,L|376:172,1,100,0|8,0:0|0:3,0:0:0:0:
228,236,32538,6,0,L|156:316,1,100,0|2,0:0|0:3,0:0:0:0:
260,312,32864,2,0,L|140:312,1,100,0|8,0:0|0:3,0:0:0:0:
280,312,33190,1,2,0:3:0:0:
140,312,33353,1,8,0:3:0:0:
208,192,33516,2,0,L|316:232,1,100,2|0,0:0|0:1,0:0:0:0:
36,68,33842,6,0,L|140:80,1,100,4|0,0:3|0:0,0:0:0:0:
280,140,34168,2,0,L|168:140,1,100,4|0,0:3|0:0,0:0:0:0:
328,200,34494,1,0,1:0:0:0:
108,196,34657,2,0,L|48:296,1,100,8|0,0:3|0:0,0:0:0:0:
308,276,34983,6,0,B|284:176|284:176|180:116,1,200,2|2,0:0|0:3,0:0:0:0:
444,100,35472,1,0,0:0:0:0:
388,168,35635,1,8,0:3:0:0:
288,168,35798,2,0,L|408:168,1,100,2|8,0:3|0:3,0:0:0:0:
284,96,36125,1,0,0:0:0:0:
124,96,36288,1,0,0:0:0:0:
388,168,36451,1,4,1:0:0:0:
332,168,36777,6,0,L|220:168,1,100,2|0,0:0|0:1,0:0:0:0:
308,232,37103,2,0,L|196:236,1,100,0|8,0:1|0:3,0:0:0:0:
96,232,37429,1,2,0:0:0:0:
388,168,37592,2,0,P|332:88|204:88,1,200,2|0,0:3|0:1,0:0:0:0:
440,232,38081,1,2,0:0:0:0:
264,184,38407,1,0,1:0:0:0:
440,180,38733,1,0,1:0:0:0:
368,104,38896,1,0,0:0:0:0:
208,104,39059,1,0,0:0:0:0:
216,184,39385,2,0,L|328:184,1,100,2|0,0:0|0:0,0:0:0:0:
168,232,39711,2,0,L|284:260,1,100,0|8,0:1|0:3,0:0:0:0:
168,232,40038,1,0,0:0:0:0:
112,60,40201,6,0,B|156:88|156:88|208:88,1,100
452,92,40527,2,0,L|392:184,1,100,0|2,0:1|0:0,0:0:0:0:
328,204,40853,1,8,0:3:0:0:
256,224,41016,6,0,P|364:288|492:296,1,250,0|0,0:1|0:1,0:0:0:0:
260,232,41505,2,0,L|140:232,1,100,0|4,0:0|0:0,0:0:0:0:
304,84,41994,6,0,L|416:84,1,100,2|8,0:0|0:3,0:0:0:0:
304,84,42320,1,0,1:0:0:0:
208,84,42483,1,8,3:0:0:0:
336,144,42646,1,2,0:0:0:0:
164,192,42809,1,4,3:0:0:0:
292,256,42972,5,0,0:0:0:0:
208,220,43135,1,2,3:0:0:0:
348,144,43258,2,0,L|264:224,1,100,0|0,0:0|0:0,0:0:0:0:
228,256,43543,1,0,0:0:0:0:
64,200,43624,6,0,P|40:112|92:136,1,200
88,68,44277,2,0,P|100:164|212:220,1,200,2|2,0:3|0:0,0:0:0:0:
234,219,44766,1,8,3:0:0:0:
400,220,44929,2,0,L|300:220,1,100,2|8,0:3|0:3,0:0:0:0:
148,64,45255,6,0,B|100:64|100:64|60:96,1,100,2|2,0:0|0:3,0:0:0:0:
176,152,45581,2,0,L|240:152,1,50,8|2,0:3|0:3,0:0:0:0:
85,152,45907,1,0,0:0:0:0:
16,152,46070,1,0,0:0:0:0:
180,220,46233,6,0,L|248:184,1,64.9999970245363,2|0,0:3|0:0,0:0:0:0:
324,212,46396,2,0,L|252:252,1,64.9999970245363,0|0,0:1|0:0,0:0:0:0:
168,284,46559,1,4,0:3:0:0:
288,284,46722,1,0,0:1:0:0:
56,284,46885,5,4,0:0:0:0:
292,176,47211,2,0,L|404:176,1,100,2|0,0:0|0:0,0:0:0:0:
236,184,47538,2,0,L|116:184,1,100,8|2,0:3|0:0,0:0:0:0:
360,244,47864,2,0,L|452:192,1,100,8|2,0:3|0:0,0:0:0:0:
172,144,48190,6,0,B|272:144|272:144|340:240,1,200,4|8,0:3|0:3,0:0:0:0:
488,216,48679,1,0,0:0:0:0:
360,244,48842,1,8,3:0:0:0:
424,228,49005,2,0,L|504:128,1,100,0|4,0:0|0:3,0:0:0:0:
172,144,49331,2,0,L|100:144,1,50,0|4,0:0|0:1,0:0:0:0:
356,116,49820,6,0,L|440:32,1,110.000003356934,8|2,0:3|0:0,0:0:0:0:
356,116,50146,1,2,0:3:0:0:
180,120,50309,2,0,L|96:44,1,110.000003356934,2|8,0:0|0:3,0:0:0:0:
436,40,50635,6,0,P|444:144|352:196,1,220.000006713867,8|0,0:3|0:0,0:0:0:0:
180,120,51124,2,0,L|48:120,1,110.000003356934,2|0,0:0|0:0,0:0:0:0:
324,196,51451,1,0,0:0:0:0:
476,196,51614,1,0,0:0:0:0:
348,180,51777,1,4,3:0:0:0:
180,120,52103,6,0,B|88:204|88:204|92:272,1,187.5,8|0,0:3|0:0,0:0:0:0:
288,160,52429,2,0,B|380:244|380:244|376:312,1,187.5,8|0,0:3|0:0,0:0:0:0:
272,224,52755,2,0,P|172:160|200:44,1,250,2|8,0:0|0:3,0:0:0:0:
376,72,53244,2,0,L|272:176,1,125,2|8,0:0|0:3,0:0:0:0:
180,140,53570,6,0,L|292:244,1,125,2|8,0:0|0:3,0:0:0:0:
428,148,53896,2,0,P|320:292|256:308,2,250,2|2|2,0:0|0:0|0:0,0:0:0:0:
360,120,54711,5,0,1:0:0:0:
220,120,54874,1,0,0:0:0:0:
288,120,55038,1,0,0:3:0:0:
360,120,55119,1,8,0:3:0:0:
428,148,55201,1,0,0:3:0:0:
188,192,55364,1,2,0:0:0:0:
72,192,55527,1,0,0:0:0:0:
212,192,55690,2,0,L|124:260,1,100,2|0,0:3|0:0,0:0:0:0:
308,264,56016,5,2,3:0:0:0:
428,148,56179,2,0,L|478:148,2,50,0|0|0,0:0|0:0|0:0,0:0:0:0:
168,252,56668,1,0,1:0:0:0:
128,148,56791,1,8,0:3:0:0:
172,104,56913,1,0,0:0:0:0:
232,100,56994,2,0,L|288:100,1,50,8|0,0:3|0:0,0:0:0:0:
232,100,57157,1,8,3:0:0:0:
172,104,57239,1,0,0:0:0:0:
96,104,57320,1,4,0:0:0:0:
256,192,57646,12,0,59766,0:0:0:0:
172,144,59929,6,0,L|16:144,1,150.000005722046,0|4,0:1|0:3,0:0:0:0:
336,92,60255,2,0,L|496:92,1,150.000005722046,0|4,0:3|0:3,0:0:0:0:
152,144,60907,2,0,L|32:160,1,100,0|4,0:1|0:3,0:0:0:0:
344,240,61233,2,0,L|504:240,1,150.000005722046,4|0,0:3|0:1,0:0:0:0:
140,232,61885,5,0,3:0:0:0:
88,180,61967,1,0,0:0:0:0:
124,124,62048,1,8,3:0:0:0:
344,240,62211,2,0,P|408:168|384:72,1,200,8|4,0:3|0:0,0:0:0:0:
192,236,62701,6,0,L|116:112,2,129.999994049073,0|2|2,0:0|0:3|0:0,0:0:0:0:
344,240,63190,2,0,P|424:176|400:32,1,259.999988098145,2|0,0:3|0:0,0:0:0:0:
228,80,63679,1,0,0:0:0:0:
360,80,63842,6,0,L|504:80,1,129.999994049073,0|2,0:0|0:0,0:0:0:0:
360,80,64168,1,8,0:3:0:0:
196,80,64331,2,0,B|112:96|112:96|60:208,1,194.999991073609,2|0,0:0|0:0,0:0:0:0:
248,180,64657,2,0,B|320:184|320:184|372:216,1,129.999994049073,0|2,0:0|0:3,0:0:0:0:
64,192,64983,6,0,B|16:144|16:144|88:112,1,129.999994049073,2|8,0:0|0:3,0:0:0:0:
160,120,65309,1,0,0:0:0:0:
96,80,65472,2,0,L|240:80,1,129.999994049073,2|0,0:3|0:0,0:0:0:0:
120,120,65798,1,0,1:0:0:0:
396,204,66124,2,0,L|464:72,1,129.999994049073,2|0,0:0|0:0,0:0:0:0:
144,272,66451,6,0,P|80:236|24:64,1,259.999988098145,0|0,0:1|0:0,0:0:0:0:
96,80,66940,2,0,B|168:80|168:80|264:172,1,194.999991073609,4|0,0:3|0:0,0:0:0:0:
396,80,67266,2,0,B|324:80|324:80|216:152,1,194.999991073609,2|0,0:0|0:0,0:0:0:0:
156,148,67592,1,0,0:0:0:0:
92,148,67673,1,0,1:0:0:0:
360,188,67755,1,4,3:1:0:0:
380,188,68081,6,0,L|516:188,2,129.999994049073,2|0|0,0:3|0:0|0:3,0:0:0:0:
244,188,68570,1,0,0:0:0:0:
92,148,68733,6,0,L|-12:256,1,129.999994049073,2|0,0:0|0:0,0:0:0:0:
360,212,69059,2,0,B|472:152|472:152|480:-20,1,259.999988098145,4|0,0:3|0:1,0:0:0:0:
360,188,69548,1,2,0:0:0:0:
264,184,69711,2,0,P|192:132|160:76,1,129.999994049073,0|8,0:0|0:3,0:0:0:0:
408,200,70038,6,0,P|460:156|476:92,2,129.999994049073,2|0|0,0:3|0:3|0:1,0:0:0:0:
240,180,70527,1,8,3:0:0:0:
372,184,70690,1,0,1:0:0:0:
252,236,70853,1,0,0:3:0:0:
396,240,71016,1,0,0:1:0:0:
252,236,71179,6,0,L|376:320,2,129.999994049073,0|0|2,0:0|0:3|0:0,0:0:0:0:
324,208,71668,1,0,1:0:0:0:
404,184,71831,1,8,3:0:0:0:
456,152,71913,1,0,0:0:0:0:
512,116,71994,2,0,L|376:116,1,129.999994049073,2|2,0:3|0:0,0:0:0:0:
308,116,72239,1,0,3:0:0:0:
136,160,72320,1,0,0:0:0:0:
112,108,72402,5,0,1:0:0:0:
324,208,72483,1,0,3:0:0:0:
404,184,72565,1,0,0:0:0:0:
456,152,72646,6,0,B|408:196|408:196|256:188,1,194.999991073609,2|0,0:3|0:0,0:0:0:0:
64,104,72972,2,0,B|12:104|12:104|64:104,1,100,0|0,0:0|0:0,0:0:0:0:
328,148,73298,2,0,L|412:220,1,100,0|0,0:1|0:0,0:0:0:0:
232,176,73624,2,0,P|136:160|95:122,1,150,2|0,0:0|0:0,0:0:0:0:
152,60,73951,6,0,L|60:108,1,100,2|0,0:3|0:1,0:0:0:0:
216,168,74277,1,0,0:3:0:0:
368,220,74440,2,0,L|480:220,1,100,2|0,0:0|0:3,0:0:0:0:
152,224,74766,2,0,L|32:224,1,100,0|0,0:1|0:0,0:0:0:0:
140,292,75092,2,0,L|268:292,2,100,0|2|0,0:1|0:3|0:0,0:0:0:0:
360,288,75581,6,0,B|432:216|432:216|392:100,1,200,4|0,0:3|0:1,0:0:0:0:
268,112,76070,2,0,L|368:124,1,100,0|0,0:0|0:1,0:0:0:0:
236,116,76396,1,0,3:0:0:0:
108,120,76559,6,0,L|-20:120,1,100,2|0,0:3|0:0,0:0:0:0:
300,124,76885,2,0,L|412:124,1,100,4|0,0:3|0:0,0:0:0:0:
368,124,77211,1,2,3:0:0:0:
496,216,77374,2,0,L|376:216,1,100,4|0,0:3|0:0,0:0:0:0:
280,216,77701,1,8,3:0:0:0:
120,216,77864,6,0,L|52:216,1,50,2|0,0:3|0:0,0:0:0:0:
0,180,78027,2,0,L|64:180,1,50,2|0,0:3|0:3,0:0:0:0:
248,216,78190,2,0,P|336:184|328:88,1,200,4|2,0:3|0:0,0:0:0:0:
172,92,78679,2,0,B|72:108|72:108|188:156,1,200,0|8,0:3|0:3,0:0:0:0:
320,188,79168,2,0,L|436:124,1,100,2|0,0:3|0:0,0:0:0:0:
328,188,79494,5,8,3:0:0:0:
200,224,79657,1,2,0:0:0:0:
64,232,79820,2,0,B|92:136|16:96|16:96|56:64,1,200,2|0,0:3|0:0,0:0:0:0:
232,160,80309,6,0,L|352:160,1,100,2|2,0:0|0:3,0:0:0:0:
304,160,80635,1,0,1:0:0:0:
0,256,80798,1,4,0:3:0:0:
56,256,80880,1,0,0:0:0:0:
120,256,80961,2,0,B|172:256|172:256|228:284,1,100,4|2,0:3|0:0,0:0:0:0:
480,196,81288,2,0,L|532:132,1,50,0|0,0:3|0:0,0:0:0:0:
212,284,81451,6,0,B|184:248|184:248|216:204,1,100,8|2,0:3|0:0,0:0:0:0:
480,196,81777,1,2,0:3:0:0:
380,196,81940,2,0,L|492:196,1,100,4|2,0:3|0:3,0:0:0:0:
380,196,82266,1,8,3:0:0:0:
224,204,82429,1,0,0:0:0:0:
80,204,82592,1,0,0:0:0:0:
196,204,82755,1,2,3:0:0:0:
324,208,82918,6,0,L|444:208,1,100,0|0,0:3|0:1,0:0:0:0:
324,208,83244,2,0,L|220:208,1,100,2|0,0:0|0:1,0:0:0:0:
324,208,83570,1,0,3:0:0:0:
224,208,83733,1,2,3:0:0:0:
336,172,83896,1,8,3:0:0:0:
188,172,84059,1,0,1:0:0:0:
324,208,84222,2,0,L|432:208,1,100,2|4,0:3|0:3,0:0:0:0:
336,172,84548,1,0,3:0:0:0:
184,132,84711,5,0,1:0:0:0:
256,68,84874,2,0,L|380:68,1,110.000003356934,4|2,0:3|0:3,0:0:0:0:
240,124,85201,1,0,3:0:0:0:
336,124,85364,1,0,1:0:0:0:
396,188,85527,2,0,L|316:272,1,110.000003356934,2|0,0:3|1:1,0:0:0:0:
356,232,85853,1,2,0:0:0:0:
260,188,86016,5,0,1:0:0:0:
324,156,86097,1,0,0:0:0:0:
396,188,86179,1,4,3:0:0:0:
308,244,86260,1,0,0:0:0:0:
132,168,86342,1,0,0:0:0:0:
60,168,86423,5,0,0:0:0:0:
96,168,86505,2,0,P|180:116|240:92,1,150.000005722046,0|0,1:0|0:0,0:0:0:0:
296,188,86831,1,2,0:0:0:0:
212,168,86994,2,0,L|48:168,1,150.000005722046,2|2,0:3|0:0,0:0:0:0:
500,116,87320,5,0,1:0:0:0:
424,188,87483,1,2,3:0:0:0:
360,188,87565,1,0,0:0:0:0:
296,188,87646,1,4,0:3:0:0:
100,88,87809,1,0,1:0:0:0:
160,148,87891,5,0,0:0:0:0:
220,148,87972,1,4,3:0:0:0:
276,148,88054,1,0,0:0:0:0:
240,148,88135,5,0,1:0:0:0:
324,176,88298,1,0,0:0:0:0:
68,88,88461,1,4,0:0:0:0:
