osu file format v13

[General]
AudioFilename: Amnesia_-_Zoetrope.mp3
AudioLeadIn: 0
PreviewTime: 62880
Countdown: 0
SampleSet: Normal
StackLeniency: 0.7
Mode: 1
LetterboxInBreaks: 0
WidescreenStoryboard: 0

[Editor]
DistanceSpacing: 0.8
BeatDivisor: 4
GridSize: 4
TimelineZoom: 2.2

[Metadata]
Title:Zoetrope
TitleUnicode:Zoetrope
Artist:yanaginagi
ArtistUnicode:やなぎ なぎ
Creator:Senritsu
Version:Oni
Source:AMNESIA
Tags:
BeatmapID:459630
BeatmapSetID:193457

[Difficulty]
HPDrainRate:5
CircleSize:5
OverallDifficulty:5
ApproachRate:5
SliderMultiplier:1.4
SliderTickRate:1

[Events]
//Background and Video events
0,0,"amnesia-1553784.jpg",0,0
//Break Periods
//Storyboard Layer 0 (Background)
//Storyboard Layer 1 (Fail)
//Storyboard Layer 2 (Pass)
//Storyboard Layer 3 (Foreground)
//Storyboard Sound Samples
//Background Colour Transformations
3,100,163,162,255

[TimingPoints]
1294,722.89156626506,4,1,0,50,1,0
18643,750,4,1,0,50,1,0
20143,800,4,1,0,50,1,0
21743,652.173913043478,4,1,0,50,1,0
23047,750,4,1,0,50,1,0
24547,800,4,1,0,50,1,0
25347,1000,4,1,0,50,1,0
26359,326.086956521739,4,1,0,100,1,0
62880,-100,4,1,0,100,0,1
83750,-100,4,1,0,100,0,0

[HitObjects]
212,176,932,5,8,0:0:0:0:
212,176,1294,1,0,0:0:0:0:
201,179,1655,1,0,0:0:0:0:
201,179,1836,1,0,0:0:0:0:
201,179,2378,1,8,0:0:0:0:
201,179,2739,1,0,0:0:0:0:
206,180,3101,1,0,0:0:0:0:
206,180,3462,1,8,0:0:0:0:
206,180,3824,1,0,0:0:0:0:
206,180,4185,1,8,0:0:0:0:
206,180,4547,1,0,0:0:0:0:
206,180,4727,1,0,0:0:0:0:
200,176,5631,1,8,0:0:0:0:
144,168,5992,1,0,0:0:0:0:
136,176,6173,1,0,0:0:0:0:
173,183,6715,1,0,0:0:0:0:
181,181,7077,1,0,0:0:0:0:
200,182,7438,1,8,0:0:0:0:
200,182,7619,1,8,0:0:0:0:
179,183,8161,1,0,0:0:0:0:
181,181,8522,1,8,0:0:0:0:
179,183,8884,1,0,0:0:0:0:
179,183,9245,1,0,0:0:0:0:
179,183,9607,1,8,0:0:0:0:
181,181,9968,1,8,0:0:0:0:
179,183,10510,1,0,0:0:0:0:
179,183,10691,1,0,0:0:0:0:
182,172,11414,1,8,0:0:0:0:
181,172,11956,1,0,0:0:0:0:
181,172,12137,1,0,0:0:0:0:
179,183,12498,1,0,0:0:0:0:
179,183,12860,1,0,0:0:0:0:
179,183,13221,1,8,0:0:0:0:
179,183,13402,1,0,0:0:0:0:
179,183,13944,1,0,0:0:0:0:
179,183,14306,1,8,0:0:0:0:
179,183,14667,1,8,0:0:0:0:
179,183,15028,1,0,0:0:0:0:
179,183,15390,1,8,0:0:0:0:
179,183,15751,1,0,0:0:0:0:
179,183,16113,1,0,0:0:0:0:
179,183,16474,1,8,0:0:0:0:
179,183,16836,1,8,0:0:0:0:
179,183,17016,1,0,0:0:0:0:
179,183,18281,1,0,0:0:0:0:
179,183,18462,1,0,0:0:0:0:
179,183,18643,1,8,0:0:0:0:
179,183,19018,1,0,0:0:0:0:
179,183,19205,1,8,0:0:0:0:
179,183,19768,1,0,0:0:0:0:
179,183,19955,1,0,0:0:0:0:
179,183,20143,1,8,0:0:0:0:
179,183,20543,1,0,0:0:0:0:
179,183,20943,1,0,0:0:0:0:
179,183,21343,1,8,0:0:0:0:
179,183,21743,1,0,0:0:0:0:
179,183,22232,1,0,0:0:0:0:
256,192,22395,12,0,25597,0:0:0:0:
209,167,26359,5,4,0:0:0:0:
208,159,26685,1,0,0:0:0:0:
208,159,26848,1,0,0:0:0:0:
195,171,27011,1,8,0:0:0:0:
207,159,27174,1,0,0:0:0:0:
207,159,27500,1,0,0:0:0:0:
209,167,27826,1,8,0:0:0:0:
176,160,28152,1,0,0:0:0:0:
176,160,28234,1,0,0:0:0:0:
207,162,28315,1,8,0:0:0:0:
195,171,28478,1,0,0:0:0:0:
188,156,28641,1,0,0:0:0:0:
203,163,28804,1,8,0:0:0:0:
196,160,28967,1,0,0:0:0:0:
205,163,29130,1,0,0:0:0:0:
176,160,29212,1,0,0:0:0:0:
205,163,29293,1,0,0:0:0:0:
176,160,29456,1,0,0:0:0:0:
205,163,29619,1,8,0:0:0:0:
176,160,29701,1,8,0:0:0:0:
176,160,29782,1,0,0:0:0:0:
218,164,29945,1,0,0:0:0:0:
203,163,30109,1,0,0:0:0:0:
203,163,30435,1,8,0:0:0:0:
208,176,30761,1,0,0:0:0:0:
176,160,30842,1,8,0:0:0:0:
208,176,30924,1,8,0:0:0:0:
208,176,31087,1,0,0:0:0:0:
208,176,31250,1,8,0:0:0:0:
176,160,31331,1,8,0:0:0:0:
208,176,31413,1,0,0:0:0:0:
208,176,31576,1,0,0:0:0:0:
224,176,31902,1,0,0:0:0:0:
212,176,31984,1,0,0:0:0:0:
208,176,32065,1,0,0:0:0:0:
208,176,32228,1,8,0:0:0:0:
208,176,32391,1,0,0:0:0:0:
204,180,32717,1,8,0:0:0:0:
200,176,32880,1,0,0:0:0:0:
200,176,32962,1,0,0:0:0:0:
204,180,33043,1,8,0:0:0:0:
200,176,33206,1,8,0:0:0:0:
228,188,33369,1,0,0:0:0:0:
224,188,33532,1,8,0:0:0:0:
228,172,33695,1,0,0:0:0:0:
200,176,33859,1,0,0:0:0:0:
228,172,34022,1,8,0:0:0:0:
228,172,34185,1,0,0:0:0:0:
228,172,34511,1,0,0:0:0:0:
200,176,34674,1,0,0:0:0:0:
200,176,34755,1,8,0:0:0:0:
220,176,34837,1,8,0:0:0:0:
220,176,35000,1,0,0:0:0:0:
200,176,35163,1,8,0:0:0:0:
220,172,35326,1,0,0:0:0:0:
208,180,35407,1,0,0:0:0:0:
208,176,35489,1,0,0:0:0:0:
220,172,35652,1,8,0:0:0:0:
200,176,35815,1,0,0:0:0:0:
192,180,35897,1,8,0:0:0:0:
212,176,35978,1,0,0:0:0:0:
212,176,36141,1,8,0:0:0:0:
184,176,36223,1,0,0:0:0:0:
212,176,36304,1,0,0:0:0:0:
212,176,36467,1,8,0:0:0:0:
192,172,36549,1,8,0:0:0:0:
212,176,36630,1,8,0:0:0:0:
204,172,36793,1,0,0:0:0:0:
184,172,37119,1,0,0:0:0:0:
184,164,37201,1,0,0:0:0:0:
184,172,37282,1,0,0:0:0:0:
184,172,37445,1,8,0:0:0:0:
184,172,37609,1,0,0:0:0:0:
176,164,37772,1,0,0:0:0:0:
176,164,37935,1,8,0:0:0:0:
184,168,38016,1,0,0:0:0:0:
192,172,38098,1,8,0:0:0:0:
180,164,38261,1,0,0:0:0:0:
180,164,38424,1,8,0:0:0:0:
180,164,38587,1,0,0:0:0:0:
184,168,38668,1,0,0:0:0:0:
184,164,38750,1,8,0:0:0:0:
184,168,38831,1,8,0:0:0:0:
184,168,38913,1,0,0:0:0:0:
180,164,39076,1,8,0:0:0:0:
184,168,39239,1,0,0:0:0:0:
184,168,39320,1,0,0:0:0:0:
184,168,39402,1,0,0:0:0:0:
184,168,39728,1,8,0:0:0:0:
184,168,39891,1,0,0:0:0:0:
172,164,39973,1,0,0:0:0:0:
184,168,40054,1,8,0:0:0:0:
184,168,40217,1,0,0:0:0:0:
184,168,40380,1,8,0:0:0:0:
184,168,40543,1,0,0:0:0:0:
184,168,40625,1,0,0:0:0:0:
184,168,40706,1,0,0:0:0:0:
184,168,40869,1,0,0:0:0:0:
184,168,41032,1,8,0:0:0:0:
184,168,41195,1,0,0:0:0:0:
184,168,41358,1,8,0:0:0:0:
184,168,41440,1,8,0:0:0:0:
184,168,41522,1,0,0:0:0:0:
184,168,41603,1,0,0:0:0:0:
184,168,41685,1,8,0:0:0:0:
180,160,41848,1,8,0:0:0:0:
180,160,42011,1,0,0:0:0:0:
180,168,42337,1,8,0:0:0:0:
180,168,42500,1,0,0:0:0:0:
172,168,42581,1,0,0:0:0:0:
180,168,42663,1,8,0:0:0:0:
180,168,42826,1,0,0:0:0:0:
180,168,42989,1,8,0:0:0:0:
180,168,43152,1,0,0:0:0:0:
180,168,43478,1,8,0:0:0:0:
180,168,43641,1,0,0:0:0:0:
172,172,43804,1,8,0:0:0:0:
192,168,43886,1,0,0:0:0:0:
180,168,43967,1,8,0:0:0:0:
172,168,44130,1,8,0:0:0:0:
196,168,44212,1,0,0:0:0:0:
180,168,44293,1,0,0:0:0:0:
172,168,44456,1,8,0:0:0:0:
180,168,44619,1,0,0:0:0:0:
176,168,44782,1,0,0:0:0:0:
176,168,44864,1,0,0:0:0:0:
176,168,44945,1,8,0:0:0:0:
176,168,45108,1,8,0:0:0:0:
176,168,45190,1,8,0:0:0:0:
180,168,45272,1,0,0:0:0:0:
176,168,45435,1,0,0:0:0:0:
176,168,45516,1,8,0:0:0:0:
180,168,45598,1,0,0:0:0:0:
180,176,45761,1,0,0:0:0:0:
168,176,45842,1,0,0:0:0:0:
180,168,45924,1,8,0:0:0:0:
176,176,46087,1,8,0:0:0:0:
176,176,46250,1,8,0:0:0:0:
176,176,46413,1,8,0:0:0:0:
176,172,46576,1,8,0:0:0:0:
176,172,46739,1,8,0:0:0:0:
164,172,46820,1,8,0:0:0:0:
160,168,46902,1,8,0:0:0:0:
164,172,47065,1,8,0:0:0:0:
164,172,47228,1,0,0:0:0:0:
168,176,47554,1,0,0:0:0:0:
160,176,47717,1,8,0:0:0:0:
168,176,47880,1,0,0:0:0:0:
160,176,48043,1,0,0:0:0:0:
184,192,48125,1,0,0:0:0:0:
168,176,48206,1,0,0:0:0:0:
160,176,48369,1,8,0:0:0:0:
168,176,48532,1,0,0:0:0:0:
160,176,48695,1,8,0:0:0:0:
168,176,48858,1,0,0:0:0:0:
168,176,49022,1,8,0:0:0:0:
148,184,49103,1,0,0:0:0:0:
168,176,49185,1,0,0:0:0:0:
160,176,49266,1,0,0:0:0:0:
168,176,49348,1,8,0:0:0:0:
168,176,49511,1,0,0:0:0:0:
148,184,49674,1,8,0:0:0:0:
168,176,49837,1,0,0:0:0:0:
168,176,50163,1,0,0:0:0:0:
156,176,50326,1,8,0:0:0:0:
168,176,50489,1,0,0:0:0:0:
156,176,50652,1,8,0:0:0:0:
168,176,50815,1,0,0:0:0:0:
156,176,50978,1,8,0:0:0:0:
124,172,51060,1,0,0:0:0:0:
168,176,51141,1,0,0:0:0:0:
156,176,51304,1,8,0:0:0:0:
168,176,51467,1,0,0:0:0:0:
156,176,51630,1,8,0:0:0:0:
132,176,51712,1,8,0:0:0:0:
168,176,51793,1,0,0:0:0:0:
152,184,51956,1,8,0:0:0:0:
168,176,52119,1,0,0:0:0:0:
80,172,52201,1,0,0:0:0:0:
152,184,52282,1,8,0:0:0:0:
168,176,52445,1,0,0:0:0:0:
144,184,52772,1,0,0:0:0:0:
120,176,52935,1,8,0:0:0:0:
144,184,53098,1,0,0:0:0:0:
124,176,53261,1,8,0:0:0:0:
124,176,53342,1,8,0:0:0:0:
144,184,53424,1,0,0:0:0:0:
124,176,53587,1,8,0:0:0:0:
144,184,53750,1,0,0:0:0:0:
124,176,53913,1,8,0:0:0:0:
124,176,53994,1,0,0:0:0:0:
144,184,54076,1,0,0:0:0:0:
124,176,54239,1,8,0:0:0:0:
144,184,54402,1,0,0:0:0:0:
124,176,54565,1,0,0:0:0:0:
124,176,54647,1,0,0:0:0:0:
144,184,54728,1,8,0:0:0:0:
124,176,54891,1,0,0:0:0:0:
144,184,55054,1,8,0:0:0:0:
144,184,55217,1,0,0:0:0:0:
144,184,55299,1,0,0:0:0:0:
144,184,55380,1,0,0:0:0:0:
144,184,55543,1,8,0:0:0:0:
144,184,55706,1,0,0:0:0:0:
144,184,55788,1,0,0:0:0:0:
144,184,55869,1,0,0:0:0:0:
144,184,56032,1,8,0:0:0:0:
156,176,56195,1,0,0:0:0:0:
152,176,56277,1,0,0:0:0:0:
152,176,56358,1,8,0:0:0:0:
152,176,56522,1,0,0:0:0:0:
144,176,56685,1,8,0:0:0:0:
144,176,56766,1,0,0:0:0:0:
144,176,56848,1,8,0:0:0:0:
144,176,57011,1,8,0:0:0:0:
144,176,57174,1,8,0:0:0:0:
136,176,57255,1,8,0:0:0:0:
136,176,57337,1,0,0:0:0:0:
136,176,57418,1,0,0:0:0:0:
136,176,57500,1,0,0:0:0:0:
136,176,57581,1,0,0:0:0:0:
136,176,57663,1,8,0:0:0:0:
124,176,57989,1,0,0:0:0:0:
124,176,58152,1,8,0:0:0:0:
124,176,58315,1,0,0:0:0:0:
124,176,58641,1,8,0:0:0:0:
124,176,58804,1,8,0:0:0:0:
124,176,58967,1,0,0:0:0:0:
124,176,59293,1,0,0:0:0:0:
124,176,59456,1,0,0:0:0:0:
124,176,59619,1,8,0:0:0:0:
88,180,59782,1,0,0:0:0:0:
124,176,59945,1,0,0:0:0:0:
124,176,60272,1,4,0:0:0:0:
124,176,60435,1,4,0:0:0:0:
124,176,60598,1,4,0:0:0:0:
124,176,60761,1,4,0:0:0:0:
132,180,61250,1,12,0:0:0:0:
132,180,61413,1,12,0:0:0:0:
132,180,61576,1,12,0:0:0:0:
132,180,61739,1,12,0:0:0:0:
116,168,62228,1,0,0:0:0:0:
116,168,62310,1,0,0:0:0:0:
116,168,62391,1,0,0:0:0:0:
116,168,62473,1,0,0:0:0:0:
116,168,62554,1,8,0:0:0:0:
116,168,62636,1,8,0:0:0:0:
116,168,62717,1,8,0:0:0:0:
116,168,62799,1,8,0:0:0:0:
116,168,62880,1,0,0:0:0:0:
120,168,63043,1,0,0:0:0:0:
120,168,63125,1,0,0:0:0:0:
120,168,63206,1,8,0:0:0:0:
96,168,63369,1,0,0:0:0:0:
96,168,63532,1,0,0:0:0:0:
100,168,63695,1,0,0:0:0:0:
80,164,63777,1,0,0:0:0:0:
96,168,63858,1,8,0:0:0:0:
100,168,64022,1,8,0:0:0:0:
96,168,64185,1,0,0:0:0:0:
96,168,64348,1,0,0:0:0:0:
96,168,64511,1,8,0:0:0:0:
84,152,64592,1,0,0:0:0:0:
96,168,64674,1,0,0:0:0:0:
144,180,64837,1,0,0:0:0:0:
80,164,65000,1,0,0:0:0:0:
80,164,65163,1,8,0:0:0:0:
136,172,65326,1,0,0:0:0:0:
136,172,65407,1,0,0:0:0:0:
88,160,65489,1,0,0:0:0:0:
92,160,65815,1,8,0:0:0:0:
112,160,65978,1,0,0:0:0:0:
140,200,66060,1,0,0:0:0:0:
104,160,66141,1,0,0:0:0:0:
132,168,66304,1,0,0:0:0:0:
112,168,66467,1,8,0:0:0:0:
128,172,66630,1,0,0:0:0:0:
128,172,66712,1,0,0:0:0:0:
128,172,66793,1,8,0:0:0:0:
128,168,66956,1,0,0:0:0:0:
128,168,67119,1,8,0:0:0:0:
128,168,67282,1,0,0:0:0:0:
136,148,67608,1,0,0:0:0:0:
136,148,67772,1,8,0:0:0:0:
136,148,67935,1,8,0:0:0:0:
136,148,68016,1,8,0:0:0:0:
140,160,68098,1,0,0:0:0:0:
140,160,68261,1,0,0:0:0:0:
140,160,68424,1,8,0:0:0:0:
140,160,68750,1,0,0:0:0:0:
140,160,68913,1,0,0:0:0:0:
140,160,69076,1,8,0:0:0:0:
156,168,69239,1,0,0:0:0:0:
196,172,69320,1,0,0:0:0:0:
140,160,69402,1,0,0:0:0:0:
140,160,69565,1,0,0:0:0:0:
140,160,69728,1,8,0:0:0:0:
140,160,69891,1,0,0:0:0:0:
156,168,70054,1,0,0:0:0:0:
156,168,70136,1,8,0:0:0:0:
140,160,70217,1,0,0:0:0:0:
140,160,70380,1,8,0:0:0:0:
140,160,70543,1,0,0:0:0:0:
140,160,70625,1,0,0:0:0:0:
140,160,70706,1,8,0:0:0:0:
152,160,70869,1,0,0:0:0:0:
140,160,71032,1,8,0:0:0:0:
152,160,71195,1,0,0:0:0:0:
152,160,71358,1,8,0:0:0:0:
120,172,71440,1,0,0:0:0:0:
152,160,71522,1,0,0:0:0:0:
152,160,71685,1,8,0:0:0:0:
144,168,71848,1,0,0:0:0:0:
144,168,72011,1,8,0:0:0:0:
140,152,72092,1,8,0:0:0:0:
144,168,72174,1,8,0:0:0:0:
140,152,72337,1,0,0:0:0:0:
140,152,72500,1,8,0:0:0:0:
112,152,72581,1,0,0:0:0:0:
140,152,72663,1,8,0:0:0:0:
140,152,72826,1,0,0:0:0:0:
140,152,72907,1,8,0:0:0:0:
140,152,72989,1,8,0:0:0:0:
140,152,73070,1,8,0:0:0:0:
140,152,73152,1,8,0:0:0:0:
140,152,73233,1,8,0:0:0:0:
140,152,73315,1,0,0:0:0:0:
120,152,73478,1,0,0:0:0:0:
120,152,73560,1,0,0:0:0:0:
120,152,73641,1,8,0:0:0:0:
120,152,73804,1,0,0:0:0:0:
120,152,73967,1,0,0:0:0:0:
116,156,74130,1,0,0:0:0:0:
116,156,74212,1,0,0:0:0:0:
92,168,74293,1,8,0:0:0:0:
84,156,74456,1,0,0:0:0:0:
84,156,74538,1,0,0:0:0:0:
84,156,74619,1,0,0:0:0:0:
84,156,74782,1,0,0:0:0:0:
92,168,74945,1,8,0:0:0:0:
96,160,75108,1,0,0:0:0:0:
96,160,75435,1,0,0:0:0:0:
92,168,75598,1,8,0:0:0:0:
96,160,75761,1,8,0:0:0:0:
96,160,75842,1,8,0:0:0:0:
96,160,75924,1,0,0:0:0:0:
96,160,76087,1,0,0:0:0:0:
92,168,76250,1,8,0:0:0:0:
88,160,76413,1,0,0:0:0:0:
84,168,76494,1,0,0:0:0:0:
88,160,76576,1,0,0:0:0:0:
88,160,76739,1,0,0:0:0:0:
92,168,76902,1,8,0:0:0:0:
88,160,77065,1,0,0:0:0:0:
88,160,77147,1,8,0:0:0:0:
108,176,77228,1,8,0:0:0:0:
80,144,77391,1,0,0:0:0:0:
92,168,77554,1,8,0:0:0:0:
100,172,77717,1,0,0:0:0:0:
80,164,78043,1,0,0:0:0:0:
92,168,78206,1,8,0:0:0:0:
80,168,78369,1,8,0:0:0:0:
80,168,78451,1,0,0:0:0:0:
80,168,78532,1,0,0:0:0:0:
136,184,78695,1,0,0:0:0:0:
20,168,78858,1,8,0:0:0:0:
136,164,79022,1,0,0:0:0:0:
96,176,79185,1,0,0:0:0:0:
88,184,79348,1,0,0:0:0:0:
112,168,79429,1,8,0:0:0:0:
20,168,79511,1,8,0:0:0:0:
124,176,79674,1,0,0:0:0:0:
100,176,79837,1,0,0:0:0:0:
100,176,80000,1,0,0:0:0:0:
112,176,80081,1,0,0:0:0:0:
20,168,80163,1,8,0:0:0:0:
100,176,80326,1,0,0:0:0:0:
100,176,80652,1,0,0:0:0:0:
20,168,80815,1,8,0:0:0:0:
112,176,80978,1,0,0:0:0:0:
112,176,81141,1,12,0:0:0:0:
104,176,81304,1,0,0:0:0:0:
104,176,81467,1,0,0:0:0:0:
104,176,81630,1,12,0:0:0:0:
96,176,81793,1,0,0:0:0:0:
96,176,81875,1,0,0:0:0:0:
96,176,81956,1,8,0:0:0:0:
92,168,82038,1,0,0:0:0:0:
84,160,82119,1,0,0:0:0:0:
88,172,82282,1,8,0:0:0:0:
88,172,82445,1,0,0:0:0:0:
88,172,82608,1,0,0:0:0:0:
96,168,82690,1,0,0:0:0:0:
88,172,82772,1,8,0:0:0:0:
88,172,82935,1,0,0:0:0:0:
24,168,83098,1,8,0:0:0:0:
20,172,83179,1,8,0:0:0:0:
24,168,83261,1,0,0:0:0:0:
20,172,83342,1,0,0:0:0:0:
20,172,83424,1,8,0:0:0:0:
20,172,83505,1,8,0:0:0:0:
20,172,83587,1,8,0:0:0:0:
20,172,83668,1,0,0:0:0:0:
20,172,83750,1,0,0:0:0:0:
