osu file format v12

[General]
AudioFilename: Yuktoki.mp3
AudioLeadIn: 2000
PreviewTime: 56440
Countdown: 0
SampleSet: Soft
StackLeniency: 0.7
Mode: 0
LetterboxInBreaks: 0

[Editor]
DistanceSpacing: 1.4
BeatDivisor: 4
GridSize: 4

[Metadata]
Title:Yukitoki (TV Size)
TitleUnicode:ユキトキ (TV Size)
Artist:yanaginagi
ArtistUnicode:やなぎなぎ
Creator:xChippy
Version:Insane
Source:Yahari Ore no Seishun Love Come wa Machigatteiru.
Tags:Oregairu Icemixxa Opening My Youth Romantic Comedy Is Wrong As I Expected Machigatte Iru Brains Base
BeatmapID:254001
BeatmapSetID:87616

[Difficulty]
HPDrainRate:7
CircleSize:4
OverallDifficulty:8
ApproachRate:8
SliderMultiplier:1.4
SliderTickRate:1

[Events]
//Background and Video events
Video,0,"Yukitoki MV.avi"
0,0,"Yukino and Yui.jpg",0,0
//Break Periods
//Storyboard Layer 0 (Background)
//Storyboard Layer 1 (Fail)
//Storyboard Layer 2 (Pass)
//Storyboard Layer 3 (Foreground)
//Storyboard Sound Samples
//Background Colour Transformations
3,100,163,162,255

[TimingPoints]
445,364.741641337386,4,2,1,50,1,0
4821,362.537764350453,4,2,1,50,1,0
6271,363.636363636364,4,2,1,50,1,0
7361,-100,4,2,1,30,0,0
7725,361.44578313253,4,2,1,50,1,0
12063,364.741641337386,4,2,1,50,1,0
18993,-100,4,1,1,5,0,0
19904,-100,4,2,1,55,0,0
20087,364.741641337386,4,2,1,50,1,0
24463,358.208955223881,4,2,1,50,1,0
25895,364.741641337386,4,2,1,50,1,0
30271,363.636363636364,4,2,1,50,1,0
31725,-100,4,2,1,65,0,0
34634,362.537764350453,4,2,1,50,1,0
43334,364.741641337386,4,2,1,50,1,0
43334,-133.333333333333,4,2,1,55,0,0
43972,-100,4,2,1,55,0,0
45887,-133.333333333333,4,2,1,55,0,0
46707,-100,4,2,1,55,0,0
47710,-133.333333333333,4,2,1,55,0,0
48531,-100,4,2,1,55,0,0
49169,-133.333333333333,4,2,1,55,0,0
51814,-100,4,2,1,55,0,0
52089,359.281437125748,4,2,1,50,1,0
53526,365.853658536585,4,2,1,50,1,0
54989,387.096774193548,4,2,1,50,1,0
55376,363.636363636364,4,2,1,50,1,0
55739,333.333333333333,4,2,1,50,1,0
56072,363.636363636364,4,2,1,50,1,0
56072,-100,4,2,1,40,0,0
56435,364.741641337386,4,2,1,50,1,0
56435,-100,4,2,1,55,0,1
59352,363.636363636364,4,2,1,50,1,1
62261,362.537764350453,4,2,1,50,1,1
65161,361.44578313253,4,2,1,50,1,1
66606,364.188163884674,4,2,1,50,1,1
68062,-100,4,2,1,70,0,1
76803,363.636363636364,4,2,1,50,1,1
76803,-100,4,1,0,30,0,1
76984,-100,4,1,0,35,0,1
77166,-100,4,1,0,40,0,1
77348,-100,4,1,0,45,0,1
77530,-100,4,1,0,50,0,1
77712,-100,4,1,0,55,0,1
77893,-100,4,1,0,60,0,1
78075,-100,4,2,1,65,0,1
78166,-100,4,1,0,70,0,1
78439,-100,4,1,0,50,0,1
80439,-100,4,1,0,50,0,0
81166,359.281437125748,4,2,1,50,1,0
81884,-100,4,1,0,5,0,0
82243,-100,4,1,0,41,0,0
82603,365.853658536585,4,1,0,50,1,0
84798,-100,4,1,0,41,0,0
85895,-100,4,1,0,35,0,0
86627,-100,4,1,0,30,0,0
87359,-100,4,1,0,25,0,0
87724,-100,4,2,1,5,0,0

[Colours]
Combo1 : 141,220,124
Combo2 : 226,172,227
Combo3 : 150,233,237
Combo4 : 237,158,158
Combo5 : 211,105,252
Combo6 : 228,225,120

[HitObjects]
137,253,445,2,0,P|195:292|221:289,1,70,2|0,0:0|0:0,0:0:0:0:
202,194,809,2,0,P|205:181|244:142,1,70,2|0,0:0|0:0,0:0:0:0:
338,170,1174,1,2,0:0:0:0:
199,308,1539,1,2,0:0:0:0:
293,281,1721,2,0,P|332:242|332:197,1,70,0|2,0:0|0:0,0:0:0:0:
337,130,2086,2,0,P|261:133|192:173,2,140,0|2|0,0:0|0:0|0:0,0:0:0:0:
286,215,2998,2,0,P|296:267|263:301,1,70,2|0,0:0|0:0,0:0:0:0:
188,215,3362,5,2,0:0:0:0:
139,299,3545,1,0,0:0:0:0:
188,384,3727,1,2,0:0:0:0:
286,384,3910,1,0,0:0:0:0:
335,299,4092,2,0,P|376:298|402:287,1,70,2|0,0:0|0:0,0:0:0:0:
437,195,4457,1,2,0:0:0:0:
414,99,4639,1,0,0:0:0:0:
323,59,4821,5,2,0:0:0:0:
235,101,5002,2,0,P|235:195|195:234,2,140,0|2|0,0:0|0:0|0:0,0:0:0:0:
157,41,5908,1,2,0:0:0:0:
56,104,6089,1,0,0:0:0:0:
107,212,6271,1,2,0:0:0:0:
256,192,6361,12,4,7361,0:0:0:0:
66,104,7725,6,0,P|93:77|139:77,1,70,12|0,0:0|0:0,0:0:0:0:
210,117,8086,1,0,0:0:0:0:
242,209,8267,2,0,P|215:236|169:236,1,70,12|0,0:0|0:0,0:0:0:0:
87,247,8628,2,0,P|87:312|109:334,1,70,0|8,0:0|0:0,0:0:0:0:
183,338,8990,1,0,0:0:0:0:
281,338,9170,6,0,P|321:338|359:323,2,70,0|8|8,0:0|0:0|0:0,0:0:0:0:
225,257,9712,1,0,0:0:0:0:
321,239,9893,2,0,P|339:234|374:199,1,70,8|0,0:0|0:0,0:0:0:0:
401,103,10255,1,8,0:0:0:0:
220,70,10616,6,0,P|154:70|130:94,1,70,4|0,0:0|0:0,0:0:0:0:
83,140,10978,1,0,0:0:0:0:
57,234,11158,2,0,P|87:270|123:286,1,70,8|0,0:0|0:0,0:0:0:0:
203,303,11520,2,0,P|251:303|286:286,1,70,0|8,0:0|0:0,0:0:0:0:
352,240,11881,1,0,0:0:0:0:
431,183,12063,6,0,P|391:143|353:140,1,70
331,124,12336,1,0,0:0:0:0:
282,122,12427,2,0,P|248:125|211:109,1,70,8|0,0:0|0:0,0:0:0:0:
186,132,12701,1,0,0:0:0:0:
161,156,12792,1,8,0:0:0:0:
136,180,12883,1,0,0:0:0:0:
111,204,12974,1,0,0:0:0:0:
86,228,13066,1,0,0:0:0:0:
61,252,13157,1,8,0:0:0:0:
56,57,13521,6,0,P|22:91|22:143,1,70,4|0,0:0|0:0,0:0:0:0:
159,46,13886,1,8,0:0:0:0:
256,57,14069,2,0,P|290:91|290:143,1,70,0|8,0:0|0:0,0:0:0:0:
301,209,14433,1,0,0:0:0:0:
301,307,14616,2,0,P|295:327|261:361,1,70,8|0,0:0|0:0,0:0:0:0:
301,209,14980,5,8,0:0:0:0:
220,153,15163,2,0,P|202:123|195:89,1,70,0|8,0:0|0:0,0:0:0:0:
293,89,15528,2,0,P|318:64|333:33,2,70,0|8|0,0:0|0:0|0:0,0:0:0:0:
318,184,16075,2,0,P|333:215|366:236,1,70,8|0,0:0|0:0,0:0:0:0:
453,268,16439,1,4,0:0:0:0:
256,192,16531,12,0,19357,0:0:0:0:
111,136,19904,5,0,0:0:0:0:
196,86,20087,2,0,P|268:86|316:134,1,140,2|0,0:0|0:0,0:0:0:0:
314,229,20634,1,0,0:0:0:0:
244,298,20817,2,0,P|172:298|124:250,1,140,0|0,0:0|0:0,0:0:0:0:
117,156,21363,1,0,0:0:0:0:
202,109,21545,6,0,P|289:110|354:122,1,140,2|0,0:0|0:0,0:0:0:0:
381,208,22093,1,0,0:0:0:0:
311,277,22275,2,0,P|224:276|159:264,1,140,0|0,0:0|0:0,0:0:0:0:
182,71,23004,6,0,P|101:71|47:118,1,140,2|0,0:0|0:0,0:0:0:0:
7,190,23552,1,0,0:0:0:0:
76,259,23734,2,0,P|157:259|199:219,1,140,0|0,0:0|0:0,0:0:0:0:
243,134,24281,1,0,0:0:0:0:
313,63,24463,6,0,P|394:63|436:103,1,140,2|0,0:0|0:0,0:0:0:0:
459,195,25000,1,0,0:0:0:0:
389,264,25179,2,0,P|308:264|266:224,1,140,0|0,0:0|0:0,0:0:0:0:
478,113,25895,6,0,P|478:208|428:258,1,140,2|0,0:0|0:0,0:0:0:0:
371,296,26442,1,0,0:0:0:0:
274,314,26624,2,0,P|178:314|105:289,1,140,0|0,0:0|0:0,0:0:0:0:
110,207,27171,1,0,0:0:0:0:
143,114,27353,6,0,P|225:107|294:122,1,140,2|0,0:0|0:0,0:0:0:0:
377,139,27901,1,0,0:0:0:0:
426,225,28083,2,0,P|474:171|469:100,1,140,0|0,0:0|0:0,0:0:0:0:
279,56,28812,6,0,P|213:35|140:63,1,140,2|0,0:0|0:0,0:0:0:0:
215,128,29360,1,0,0:0:0:0:
148,201,29542,2,0,P|213:223|279:202,1,140,0|0,0:0|0:0,0:0:0:0:
422,64,30271,6,0,P|436:81|436:193,1,140,2|0,0:0|0:0,0:0:0:0:
385,276,30816,1,0,0:0:0:0:
305,334,30998,2,0,P|285:343|172:323,1,140,2|8,0:0|0:0,0:0:0:0:
104,254,31543,1,0,0:0:0:0:
123,156,31725,6,0,L|267:156,1,140,4|8,0:0|0:0,0:0:0:0:
349,101,32271,1,0,0:0:0:0:
298,223,32452,1,2,0:0:0:0:
441,185,32634,1,0,0:0:0:0:
423,306,32816,2,0,L|353:306,1,70,8|0,0:0|0:0,0:0:0:0:
158,223,33180,6,0,L|262:223|298:223,1,140,2|8,0:0|0:0,0:0:0:0:
349,101,33725,1,0,0:0:0:0:
298,223,33907,1,2,0:0:0:0:
441,184,34089,1,0,0:0:0:0:
353,306,34271,2,0,L|425:306,1,70,8|0,0:0|0:0,0:0:0:0:
441,184,34634,6,0,P|393:136|313:136,1,140,2|8,0:0|0:0,0:0:0:0:
231,163,35177,1,0,0:0:0:0:
192,253,35359,2,0,P|192:309|248:365,1,140,2|8,0:0|0:0,0:0:0:0:
346,365,35902,1,0,0:0:0:0:
444,365,36084,6,0,P|492:317|492:237,1,140,2|8,0:0|0:0,0:0:0:0:
467,114,36627,1,0,0:0:0:0:
317,163,36809,1,2,0:0:0:0:
467,212,36990,1,0,0:0:0:0:
374,84,37171,1,8,0:0:0:0:
374,243,37353,1,0,0:0:0:0:
375,244,37534,6,0,L|295:244|231:244,1,140,2|8,0:0|0:0,0:0:0:0:
142,177,38078,1,0,0:0:0:0:
139,317,38259,1,2,0:0:0:0:
27,233,38440,1,0,0:0:0:0:
142,177,38621,2,0,L|214:177,1,70,8|0,0:0|0:0,0:0:0:0:
64,48,38984,6,0,L|168:48|208:48,1,140,2|8,0:0|0:0,0:0:0:0:
345,49,39528,1,0,0:0:0:0:
272,156,39709,1,2,0:0:0:0:
412,156,39890,1,0,0:0:0:0:
362,249,40072,2,0,L|266:249,1,70,8|0,0:0|0:0,0:0:0:0:
272,156,40434,6,0,P|168:156|144:180,1,140,2|8,0:0|0:0,0:0:0:0:
98,261,40978,1,0,0:0:0:0:
153,342,41159,2,0,P|257:342|281:318,1,140,2|8,0:0|0:0,0:0:0:0:
278,223,41703,1,0,0:0:0:0:
278,124,41884,6,0,L|374:124,1,70,2|8,0:0|0:0,0:0:0:0:
384,214,42247,1,0,0:0:0:0:
341,302,42428,1,0,0:0:0:0:
254,256,42609,1,8,0:0:0:0:
188,329,42791,1,0,0:0:0:0:
188,329,42881,1,0,0:0:0:0:
188,329,42972,2,0,L|92:329,1,70,8|0,0:0|0:0,0:0:0:0:
51,244,43334,6,0,L|51:132,1,105.000004005432,4|0,0:0|0:0,0:0:0:0:
236,74,44063,2,0,L|317:74,1,70,8|0,0:0|0:0,0:0:0:0:
234,151,44428,2,0,L|154:151,2,70,0|2|0,0:0|0:0|0:0,0:0:0:0:
332,112,44975,5,0,0:0:0:0:
373,199,45157,1,0,0:0:0:0:
303,268,45340,1,0,0:0:0:0:
373,199,45522,2,0,L|453:199,1,70,8|0,0:0|0:0,0:0:0:0:
447,311,45887,6,0,L|323:311,2,105.000004005432,0|2|0,0:0|0:0|0:0,0:0:0:0:
464,214,46799,1,0,0:0:0:0:
382,161,46981,2,0,L|294:161,1,70,8|0,0:0|0:0,0:0:0:0:
160,160,47346,2,0,L|232:160,1,70,0|2,0:0|0:0,0:0:0:0:
272,78,47710,6,0,L|395:78,2,105.000004005432,0|0|8,0:0|0:0|0:0,0:0:0:0:
329,162,48622,2,0,L|401:162,1,70
241,158,48987,1,0,0:0:0:0:
206,158,49078,1,0,0:0:0:0:
180,158,49169,6,0,L|60:158,1,105.000004005432,4|0,0:0|0:0,0:0:0:0:
115,298,49899,2,0,L|179:298,1,52.5000020027161,8|0,0:0|0:0,0:0:0:0:
240,313,50264,1,0,0:0:0:0:
312,328,50446,2,0,L|424:328|424:328,1,105.000004005432
417,254,50993,2,0,L|312:254,2,105.000004005432,0|8|0,0:0|0:0|0:0,0:0:0:0:
156,112,52089,5,4,0:0:0:0:
186,264,52268,1,0,0:0:0:0:
272,136,52448,1,8,0:0:0:0:
308,286,52627,2,0,L|384:286,1,70,8|8,0:0|0:0,0:0:0:0:
397,132,52987,1,8,0:0:0:0:
377,286,53166,1,8,0:0:0:0:
276,170,53346,1,8,0:0:0:0:
224,315,53526,6,0,L|144:315,1,70,0|2,0:0|0:0,0:0:0:0:
112,167,53891,1,0,0:0:0:0:
32,299,54074,1,4,0:0:0:0:
256,192,54257,12,8,56072,0:0:0:0:
194,76,56435,2,0,P|137:134|137:147,1,70,4|0,0:0|0:0,0:0:0:0:
145,214,56799,1,8,0:0:0:0:
207,290,56982,1,0,0:0:0:0:
305,288,57164,2,0,P|362:230|362:217,1,70,2|0,0:0|0:0,0:0:0:0:
336,72,57529,1,8,0:0:0:0:
232,216,57711,1,0,0:0:0:0:
144,72,57893,5,2,0:0:0:0:
336,72,58076,1,0,0:0:0:0:
232,216,58258,1,8,0:0:0:0:
144,71,58441,1,0,0:0:0:0:
90,153,58623,2,0,P|90:210|114:233,1,70,2|0,0:0|0:0,0:0:0:0:
88,317,58988,2,0,P|97:311|154:311,1,70,8|0,0:0|0:0,0:0:0:0:
249,338,59352,6,0,P|305:282|305:226,1,140,2|8,0:0|0:0,0:0:0:0:
279,130,59897,1,0,0:0:0:0:
198,74,60079,2,0,P|141:74|118:50,1,70,2|0,0:0|0:0,0:0:0:0:
63,137,60442,2,0,P|63:194|39:217,1,70,8|0,0:0|0:0,0:0:0:0:
126,272,60806,5,2,0:0:0:0:
210,322,60988,2,0,P|219:299|219:244,1,70,0|8,0:0|0:0,0:0:0:0:
196,159,61352,1,0,0:0:0:0:
196,159,61443,1,0,0:0:0:0:
196,159,61533,1,2,0:0:0:0:
99,176,61715,1,0,0:0:0:0:
53,89,61897,1,8,0:0:0:0:
122,19,62079,1,0,0:0:0:0:
210,62,62261,6,0,P|252:56|308:76,2,70,4|0|8,0:0|0:0|0:0,0:0:0:0:
247,152,62804,2,0,P|251:187|239:229,1,70,0|2,0:0|0:0,0:0:0:0:
153,180,63167,1,0,0:0:0:0:
184,87,63348,2,0,P|149:83|107:95,1,70,8|0,0:0|0:0,0:0:0:0:
36,149,63711,5,2,0:0:0:0:
60,244,63892,2,0,P|100:285|132:285,1,70,0|8,0:0|0:0,0:0:0:0:
197,240,64254,2,0,P|237:199|269:199,2,70,0|2|0,0:0|0:0|0:0,0:0:0:0:
154,328,64798,1,8,0:0:0:0:
246,361,64980,1,0,0:0:0:0:
336,324,65161,6,0,L|408:324,2,70,2|0|8,0:0|0:0|0:0,0:0:0:0:
374,233,65703,2,0,P|374:153|332:111,2,140,2|2|4,0:0|0:0|0:0,0:0:0:0:
381,37,66788,6,0,L|311:37,1,70,0|8,0:0|0:0,0:0:0:0:
241,106,67152,1,0,0:0:0:0:
178,183,67334,2,0,L|128:233,1,70,8|0,0:0|0:0,0:0:0:0:
217,274,67698,2,0,L|268:223,1,70,8|0,0:0|0:0,0:0:0:0:
56,184,68062,6,0,P|40:144|40:104,2,70,4|0|8,0:0|0:0|0:0,0:0:0:0:
136,240,68609,1,0,0:0:0:0:
232,216,68791,1,2,0:0:0:0:
144,72,68973,1,0,0:0:0:0:
336,72,69155,1,8,0:0:0:0:
232,216,69337,1,0,0:0:0:0:
144,71,69519,5,2,0:0:0:0:
336,72,69701,1,0,0:0:0:0:
244,106,69883,2,0,P|243:112|201:154,1,70,8|0,0:0|0:0,0:0:0:0:
77,204,70247,2,0,P|78:198|120:156,1,70,2|0,0:0|0:0,0:0:0:0:
170,241,70612,1,8,0:0:0:0:
269,243,70794,1,0,0:0:0:0:
338,173,70976,6,0,P|374:245|349:299,1,140,2|8,0:0|0:0,0:0:0:0:
285,368,71522,1,0,0:0:0:0:
223,292,71704,2,0,P|222:285|180:243,1,70,2|0,0:0|0:0,0:0:0:0:
83,222,72068,2,0,P|83:215|125:173,1,70,8|0,0:0|0:0,0:0:0:0:
222,173,72433,5,2,0:0:0:0:
222,173,72615,2,0,L|294:173,1,70,0|8,0:0|0:0,0:0:0:0:
256,81,72979,1,0,0:0:0:0:
161,54,73161,2,0,L|81:54,2,70,2|0|8,0:0|0:0|0:0,0:0:0:0:
91,123,73707,1,0,0:0:0:0:
91,123,73889,6,0,L|91:195,1,70,4|0,0:0|0:0,0:0:0:0:
143,276,74253,1,8,0:0:0:0:
235,307,74436,2,0,P|307:307|355:259,1,140,2|0,0:0|0:0,0:0:0:0:
284,192,74982,2,0,P|283:185|241:143,1,70,8|0,0:0|0:0,0:0:0:0:
144,162,75346,5,2,0:0:0:0:
144,162,75528,2,0,P|143:168|101:210,1,70,0|8,0:0|0:0,0:0:0:0:
117,306,75892,2,0,P|65:301|5:241,1,140,2|0,0:0|0:0,0:0:0:0:
48,152,76439,1,8,0:0:0:0:
117,221,76621,1,0,0:0:0:0:
213,203,76803,6,0,L|301:203,2,70
213,203,77348,1,0,0:0:0:0:
168,112,77530,1,0,0:0:0:0:
340,112,77712,1,0,0:0:0:0:
340,280,77894,1,0,0:0:0:0:
168,280,78076,1,4,0:0:0:0:
168,280,78439,6,0,P|216:328|248:328,2,70
263,256,78984,1,4,0:0:0:0:
439,169,79348,1,0,0:0:0:0:
256,192,79712,12,0,81884,0:0:0:0:
96,264,82243,5,0,0:0:0:0:
120,264,82334,1,0,0:0:0:0:
144,264,82423,1,0,0:0:0:0:
242,264,82603,6,0,L|330:264,2,70,0|0|0,0:0|0:0|0:0,0:0:0:0:
156,175,83151,1,0,0:0:0:0:
256,77,83334,1,0,0:0:0:0:
354,175,83517,1,0,0:0:0:0:
354,175,83700,2,0,L|430:175,2,70
254,274,84249,6,0,L|254:346,2,70
254,238,84706,1,0,0:0:0:0:
254,203,84798,1,0,0:0:0:0:
169,118,84981,1,0,0:0:0:0:
169,118,85072,1,0,0:0:0:0:
169,117,85163,1,0,0:0:0:0:
258,35,85346,1,4,0:0:0:0:
256,192,85529,12,4,87907,0:0:0:0:
