osu file format v12

[General]
AudioFilename: Yuktoki.mp3
AudioLeadIn: 2000
PreviewTime: 56440
Countdown: 0
SampleSet: Soft
StackLeniency: 0.7
Mode: 0
LetterboxInBreaks: 0

[Editor]
DistanceSpacing: 1.2
BeatDivisor: 4
GridSize: 4

[Metadata]
Title:Yukitoki (TV Size)
TitleUnicode:ユキトキ (TV Size)
Artist:yanaginagi
ArtistUnicode:やなぎなぎ
Creator:xChippy
Version:Hard
Source:Yahari Ore no Seishun Love Come wa Machigatteiru.
Tags:Oregairu Icemixxa Opening My Youth Romantic Comedy Is Wrong As I Expected Machigatte Iru Brains Base
BeatmapID:254000
BeatmapSetID:87616

[Difficulty]
HPDrainRate:5
CircleSize:4
OverallDifficulty:5
ApproachRate:6
SliderMultiplier:1.2
SliderTickRate:1

[Events]
//Background and Video events
Video,0,"Yukitoki MV.avi"
0,0,"Yukino and Yui.jpg",0,0
//Break Periods
//Storyboard Layer 0 (Background)
//Storyboard Layer 1 (Fail)
//Storyboard Layer 2 (Pass)
//Storyboard Layer 3 (Foreground)
//Storyboard Sound Samples
//Background Colour Transformations
3,100,163,162,255

[TimingPoints]
445,364.741641337386,4,2,1,50,1,0
4821,362.537764350453,4,2,1,50,1,0
6271,363.636363636364,4,2,1,50,1,0
7725,361.44578313253,4,2,1,50,1,0
7725,-100,4,2,1,60,0,0
9351,-100,4,1,1,60,0,0
9622,-100,4,2,1,60,0,0
9893,-100,4,1,1,60,0,0
10616,-100,4,2,1,60,0,0
11158,-100,4,1,1,60,0,0
11339,-100,4,2,1,60,0,0
11520,-100,4,1,1,60,0,0
12063,364.741641337386,4,2,1,50,1,0
12427,-100,4,1,1,60,0,0
12610,-100,4,2,1,60,0,0
18993,-100,4,2,1,5,0,0
19904,-100,4,2,2,50,0,0
20087,364.741641337386,4,2,1,50,1,0
24463,358.208955223881,4,2,1,50,1,0
25895,364.741641337386,4,2,1,50,1,0
30271,363.636363636364,4,2,1,50,1,0
34634,362.537764350453,4,2,1,50,1,0
42066,-100,4,1,0,55,0,0
42519,-100,4,2,1,55,0,0
43334,364.741641337386,4,2,1,50,1,0
52089,359.281437125748,4,2,1,50,1,0
53526,365.853658536585,4,2,1,50,1,0
54989,387.096774193548,4,2,1,50,1,0
55376,363.636363636364,4,2,1,50,1,0
55739,333.333333333333,4,2,1,50,1,0
56072,363.636363636364,4,2,1,50,1,0
56435,364.741641337386,4,2,1,50,1,1
59352,363.636363636364,4,2,1,50,1,1
62261,362.537764350453,4,2,1,50,1,1
65161,361.44578313253,4,2,1,50,1,1
66606,364.188163884674,4,2,1,50,1,1
66788,-100,4,1,1,70,0,1
68062,-100,4,2,1,70,0,1
76803,363.636363636364,4,2,1,50,1,1
80439,-100,4,2,1,50,0,0
81166,359.281437125748,4,2,1,50,1,0
82603,365.853658536585,4,2,1,35,1,0
86261,-100,4,2,1,35,0,0
86993,-100,4,2,1,24,0,0
87359,-100,4,2,1,20,0,0
87724,-100,4,2,1,15,0,0
87907,-100,4,2,1,5,0,0

[Colours]
Combo1 : 141,220,124
Combo2 : 226,172,227
Combo3 : 150,233,237
Combo4 : 237,158,158
Combo5 : 211,105,252
Combo6 : 228,225,120

[HitObjects]
114,112,445,2,0,L|57:169,2,60,2|0|2,0:0|0:0|0:0,0:0:0:0:
165,60,992,1,0,0:0:0:0:
216,111,1174,2,0,P|216:155|188:185,1,60,2|0,0:0|0:0,0:0:0:0:
177,233,1539,1,0,0:0:0:0:
117,273,1721,2,0,P|146:301|179:302,1,60,2|0,0:0|0:0,0:0:0:0:
232,281,2086,1,0,0:0:0:0:
313,162,2451,1,2,0:0:0:0:
181,106,2815,1,0,0:0:0:0:
116,74,2998,1,2,0:0:0:0:
20,182,3362,5,2,0:0:0:0:
42,250,3545,1,0,0:0:0:0:
73,315,3727,2,0,P|110:315|133:292,1,60,2|0,0:0|0:0,0:0:0:0:
136,224,4092,2,0,P|196:269|200:336,1,120,2|2,0:0|0:0,0:0:0:0:
263,353,4639,2,0,L|326:353,1,60,0|2,0:0|0:0,0:0:0:0:
388,322,5002,6,0,P|416:272|414:211,2,120,0|0|0,0:0|0:0|0:0,0:0:0:0:
328,281,5908,1,2,0:0:0:0:
256,192,6271,12,4,7361,0:0:0:0:
294,275,7725,2,0,P|311:238|325:225,1,60,4|0,0:0|0:0,0:0:0:0:
389,192,8086,1,8,0:0:0:0:
455,220,8267,1,4,0:0:0:0:
442,290,8447,2,0,P|425:327|411:340,1,60,0|0,0:0|0:0,0:0:0:0:
339,350,8809,2,0,P|284:359|215:359,1,120,8|0,0:0|0:0,0:0:0:0:
148,352,9351,6,0,P|102:346|76:328,1,60,0|0,0:0|0:0,1:0:0:0:
46,283,9712,1,0,0:0:0:0:
26,213,9893,1,0,0:0:0:0:
162,166,10255,1,0,0:0:0:0:
82,46,10616,6,0,L|163:46,1,60,4|0,0:0|0:0,0:0:0:0:
215,46,10978,1,8,0:0:0:0:
287,46,11158,2,0,P|324:46|352:60,2,60,0|0|0,0:0|0:0|0:0,0:0:0:0:
303,116,11700,1,0,0:0:0:0:
345,253,12063,2,0,P|302:272|230:249,1,120
128,156,12792,2,0,L|4:156,2,120,8|8|4,3:0|0:0|0:0,0:0:0:0:
328,120,13886,6,0,P|329:122|329:180,2,60,2|0|0,0:0|0:0|0:0,0:0:0:0:
276,68,14433,1,0,0:0:0:0:
203,68,14616,1,8,0:0:0:0:
151,119,14798,2,0,P|150:121|154:176,1,60
205,227,15163,1,0,0:0:0:0:
266,264,15345,2,0,P|302:255|331:255,1,60,8|0,0:0|0:0,0:0:0:0:
393,231,15710,1,0,0:0:0:0:
461,254,15892,2,0,P|462:288|456:322,2,60,0|8|0,0:0|0:0|0:0,0:0:0:0:
453,182,16439,5,4,0:0:0:0:
256,192,16531,12,0,19357,0:0:0:0:
117,59,19904,5,0,0:0:0:0:
96,128,20087,2,0,P|86:199|110:252,2,120,2|0|0,0:0|0:0|0:0,0:0:0:0:
311,166,21363,1,0,0:0:0:0:
338,231,21545,2,0,P|348:302|324:355,2,120,2|0|0,0:0|0:0|0:0,0:0:0:0:
61,308,23004,6,0,P|87:336|166:335,1,120,2|0,0:0|0:0,0:0:0:0:
125,275,23552,1,0,0:0:0:0:
186,238,23734,2,0,P|229:199|257:132,1,120
203,92,24281,1,0,0:0:0:0:
129,92,24463,2,0,P|86:131|58:198,1,120,2|0,0:0|0:0,0:0:0:0:
83,254,25000,1,0,0:0:0:0:
154,254,25179,2,0,P|206:244|283:258,1,120
422,166,25895,6,0,P|422:238|376:284,1,120,2|0,0:0|0:0,0:0:0:0:
332,312,26442,1,0,0:0:0:0:
268,346,26624,2,0,L|145:346,1,120,0|0,0:0|0:0,0:0:0:0:
72,224,27353,2,0,P|53:195|53:111,1,120,2|0,0:0|0:0,0:0:0:0:
103,60,27901,1,0,0:0:0:0:
173,44,28083,2,0,L|307:44,1,120,0|0,0:0|0:0,0:0:0:0:
411,127,28812,6,0,P|432:198|403:298,1,180,2|0,0:0|0:0,0:0:0:0:
342,335,29542,2,0,L|208:335,1,120,0|0,0:0|0:0,0:0:0:0:
120,232,30271,1,2,0:0:0:0:
72,96,30998,1,2,0:0:0:0:
72,96,31361,1,8,0:0:0:0:
72,96,31725,6,0,P|128:60|188:56,1,120,4|8,0:0|0:0,0:0:0:0:
252,54,32271,2,0,L|334:54,2,60,0|2|0,0:0|0:0|0:0,0:0:0:0:
225,121,32816,2,0,P|233:169|237:197,1,60,8|0,0:0|0:0,0:0:0:0:
260,248,33180,2,0,P|308:280|372:276,1,120,2|8,0:0|0:0,0:0:0:0:
423,229,33725,2,0,L|490:229,2,60,0|2|0,0:0|0:0|0:0,0:0:0:0:
356,201,34271,1,8,0:0:0:0:
254,99,34634,6,0,P|197:80|144:102,2,120,2|8|2,0:0|0:0|0:0,0:0:0:0:
288,162,35540,2,0,L|346:220,2,60,0|8|0,0:0|0:0|0:0,0:0:0:0:
237,212,36084,2,0,P|195:212|163:203,1,60,2|0,0:0|0:0,0:0:0:0:
110,179,36446,2,0,L|28:284,2,120,8|2|8,0:0|0:0|0:0,0:0:0:0:
254,179,37534,6,0,P|249:184|249:289,2,120,2|8|2,0:0|0:0|0:0,0:0:0:0:
314,139,38440,2,0,L|380:139,2,60,0|8|0,0:0|0:0|0:0,0:0:0:0:
262,87,38984,2,0,P|207:94|134:84,1,120,2|8,0:0|0:0,0:0:0:0:
104,147,39528,1,0,0:0:0:0:
89,221,39709,2,0,P|127:259|196:259,1,120,2|8,0:0|0:0,0:0:0:0:
270,140,40434,6,0,P|326:146|370:205,1,120,2|8,0:0|0:0,0:0:0:0:
352,263,40978,1,0,0:0:0:0:
301,313,41159,2,0,P|232:342|171:330,2,120,2|8|2,0:0|0:0|0:0,0:0:0:0:
277,244,42066,2,0,L|251:167,2,60
301,313,42609,1,2,0:0:0:0:
170,313,42972,1,0,0:0:0:0:
39,313,43334,5,4,0:0:0:0:
103,182,43698,1,0,0:0:0:0:
170,313,44063,2,0,P|175:312|212:275,1,60,8|0,0:0|0:0,0:0:0:0:
261,221,44428,1,0,0:0:0:0:
311,271,44610,2,0,P|348:308|416:308,1,120,0|0,0:0|0:0,0:0:0:0:
466,261,45157,1,0,0:0:0:0:
397,239,45340,2,0,L|377:158,1,60,0|8,0:0|0:0,0:0:0:0:
321,142,45704,2,0,P|270:133|203:144,1,120
203,217,46251,6,0,P|253:225|320:214,2,120,2|0|8,0:0|0:0|0:0,0:0:0:0:
309,118,47346,1,0,0:0:0:0:
451,137,47710,2,0,P|446:209|408:255,2,120,0|0|8,0:0|0:0|0:0,0:0:0:0:
309,118,48805,1,0,0:0:0:0:
220,231,49169,5,4,0:0:0:0:
135,114,49534,1,0,0:0:0:0:
275,80,49899,2,0,P|335:140|335:170,1,120,8|0,0:0|0:0,0:0:0:0:
335,243,50446,2,0,P|274:303|242:303,1,120
171,303,50993,2,0,L|115:303|40:303,2,120,0|8|0,0:0|0:0|0:0,0:0:0:0:
172,164,52089,6,0,P|289:129|404:170,1,240,4|8,0:0|0:0,0:0:0:0:
471,284,53166,2,0,L|419:328,1,60
358,348,53526,1,0,0:0:0:0:
322,285,53708,2,0,P|256:266|191:297,1,120,0|4,0:0|0:0,0:0:0:0:
72,327,54440,2,0,L|38:277,1,60,0|2,0:0|0:0,0:0:0:0:
256,192,54806,12,8,56072,0:0:0:0:
138,88,56435,6,0,P|138:158|175:191,1,120,4|8,0:0|0:0,0:0:0:0:
202,124,56982,1,0,0:0:0:0:
202,51,57164,2,0,P|272:64|334:54,1,120,2|8,0:0|0:0,0:0:0:0:
382,20,57711,2,0,P|390:77|351:121,1,120,2|0,0:0|0:0,0:0:0:0:
378,188,58258,2,0,P|331:191|319:187,1,60,8|0,0:0|0:0,0:0:0:0:
351,121,58623,1,2,0:0:0:0:
255,228,58988,1,8,0:0:0:0:
153,127,59352,6,0,P|206:113|263:76,1,120,2|8,0:0|0:0,0:0:0:0:
325,109,59897,1,0,0:0:0:0:
375,159,60079,1,2,0:0:0:0:
375,302,60442,2,0,P|306:289|259:302,2,120,8|2|8,0:0|0:0|0:0,0:0:0:0:
251,373,61533,1,2,0:0:0:0:
125,306,61897,1,8,0:0:0:0:
125,306,62079,1,0,0:0:0:0:
114,232,62261,6,0,P|99:200|114:164,2,60,4|0|8,0:0|0:0|0:0,0:0:0:0:
175,192,62804,2,0,P|275:192|305:220,1,120,2|0,0:0|0:0,0:0:0:0:
320,265,63348,1,8,0:0:0:0:
391,278,63529,1,0,0:0:0:0:
366,210,63711,6,0,P|366:170|350:146,2,60,2|0|8,0:0|0:0|0:0,0:0:0:0:
320,265,64254,2,0,P|263:275|201:234,1,120,2|0,0:0|0:0,0:0:0:0:
250,186,64798,1,8,0:0:0:0:
320,170,64980,1,0,0:0:0:0:
271,116,65161,6,0,P|241:75|209:70,2,60,2|0|8,0:0|0:0|0:0,0:0:0:0:
201,135,65703,2,0,P|164:164|83:190,2,120,2|2|4,0:0|0:0|0:0,0:0:0:0:
92,40,66788,6,0,L|49:82,2,60
164,52,67334,1,0,0:0:0:0:
64,152,67698,1,0,0:0:0:0:
64,152,68062,6,0,B|183:200|183:200,1,120,4|8,0:0|0:0,0:0:0:0:
239,229,68609,1,0,0:0:0:0:
308,248,68791,1,2,0:0:0:0:
339,108,69155,2,0,B|220:60|220:60,2,120,8|2|8,0:0|0:0|0:0,0:0:0:0:
268,233,70247,1,2,0:0:0:0:
136,174,70612,1,8,0:0:0:0:
8,106,70976,6,0,P|67:86|109:39,1,120,2|8,0:0|0:0,0:0:0:0:
175,26,71522,1,0,0:0:0:0:
245,40,71704,1,2,0:0:0:0:
250,186,72068,2,0,P|191:166|152:124,2,120,8|2|8,0:0|0:0|0:0,0:0:0:0:
193,318,73161,1,2,0:0:0:0:
77,232,73525,1,8,0:0:0:0:
116,171,73707,1,0,0:0:0:0:
160,112,73889,6,0,P|145:80|160:44,2,60,4|0|8,0:0|0:0|0:0,0:0:0:0:
189,179,74436,2,0,P|289:179|319:207,1,120,2|0,0:0|0:0,0:0:0:0:
336,250,74982,1,8,0:0:0:0:
400,215,75164,1,0,0:0:0:0:
450,164,75346,6,0,P|452:126|433:94,2,60,2|0|8,0:0|0:0|0:0,0:0:0:0:
380,144,75892,2,0,P|317:137|263:120,1,120,2|0,0:0|0:0,0:0:0:0:
205,77,76439,1,8,0:0:0:0:
142,111,76621,1,0,0:0:0:0:
180,171,76803,5,2,0:0:0:0:
127,221,76984,2,0,B|179:265|242:217,2,120,2|0|2,0:0|0:0|0:0,0:0:0:0:
249,141,78075,1,4,0:0:0:0:
387,179,78439,6,8,L|335:234,1,60,8|0,0:0|0:0,0:0:0:0:
305,282,78803,1,0,0:0:0:0:
254,332,78984,2,0,P|179:321|121:340,1,120
34,229,79712,5,4,0:0:0:0:
112,108,80075,1,0,0:0:0:0:
176,76,80257,2,0,P|227:88|300:72,1,120,4|0,0:0|0:0,0:0:0:0:
358,45,80803,1,4,0:0:0:0:
256,192,80984,12,0,82243,0:0:0:0:
57,30,82603,5,4,0:0:0:0:
126,48,82785,1,0,0:0:0:0:
74,99,82969,1,0,0:0:0:0:
143,116,83151,2,0,P|172:135|184:178,2,60,4|0|0,0:0|0:0|0:0,0:0:0:0:
113,182,83700,1,4,0:0:0:0:
257,182,84066,1,8,0:0:0:0:
183,305,84432,1,0,0:0:0:0:
183,305,84798,2,0,L|183:239,2,60,8|0|0,0:0|0:0|0:0,0:0:0:0:
183,377,85346,1,4,0:0:0:0:
256,192,85529,12,2,87907,0:0:0:0:
