osu file format v12

[General]
AudioFilename: Yuktoki.mp3
AudioLeadIn: 2000
PreviewTime: 56440
Countdown: 0
SampleSet: Soft
StackLeniency: 0.7
Mode: 0
LetterboxInBreaks: 0

[Editor]
DistanceSpacing: 1
BeatDivisor: 4
GridSize: 4

[Metadata]
Title:Yukitoki (TV Size)
TitleUnicode:ユキトキ (TV Size)
Artist:yanaginagi
ArtistUnicode:やなぎなぎ
Creator:xChippy
Version:Easy
Source:Yahari Ore no Seishun Love Come wa Machigatteiru.
Tags:Oregairu Icemixxa Opening My Youth Romantic Comedy Is Wrong As I Expected Machigatte Iru Brains Base
BeatmapID:253967
BeatmapSetID:87616

[Difficulty]
HPDrainRate:2
CircleSize:3
OverallDifficulty:2
ApproachRate:3
SliderMultiplier:0.8
SliderTickRate:1

[Events]
//Background and Video events
Video,0,"Yukitoki MV.avi"
0,0,"Yukino and Yui.jpg",0,0
//Break Periods
//Storyboard Layer 0 (Background)
//Storyboard Layer 1 (Fail)
//Storyboard Layer 2 (Pass)
//Storyboard Layer 3 (Foreground)
//Storyboard Sound Samples
//Background Colour Transformations
3,100,163,162,255

[TimingPoints]
445,364.741641337386,4,2,1,50,1,0
4821,362.537764350453,4,2,1,50,1,0
5546,-100,4,2,1,40,0,0
6271,363.636363636364,4,2,1,60,1,0
7725,361.44578313253,4,2,1,60,1,0
9349,-100,4,1,1,60,0,0
10435,-100,4,2,1,60,0,0
12063,364.741641337386,4,2,1,50,1,0
12427,-100,4,1,1,60,0,0
12974,-100,4,2,1,60,0,0
18993,-100,4,2,1,5,0,0
20087,364.741641337386,4,2,1,50,1,0
24463,358.208955223881,4,2,1,50,1,0
25895,364.741641337386,4,2,1,50,1,0
30271,363.636363636364,4,2,1,50,1,0
31725,-100,4,2,1,45,0,0
33543,-100,4,2,3,45,0,0
33634,-100,4,2,1,45,0,0
34634,362.537764350453,4,2,1,50,1,0
36446,-100,4,2,3,50,0,0
36537,-100,4,2,1,50,0,0
37896,-100,4,2,3,50,0,0
37987,-100,4,2,1,50,0,0
42609,-100,4,2,3,50,0,0
42700,-100,4,2,1,50,0,0
43334,364.741641337386,4,2,1,50,1,0
52089,359.281437125748,4,2,1,50,1,0
53526,365.853658536585,4,2,1,50,1,0
54989,387.096774193548,4,2,1,50,1,0
55376,363.636363636364,4,2,1,50,1,0
55739,333.333333333333,4,2,1,50,1,0
56072,363.636363636364,4,2,1,50,1,0
56435,364.741641337386,4,2,1,50,1,1
57529,-100,4,2,3,50,0,1
57711,-100,4,2,1,50,0,1
59352,363.636363636364,4,2,1,50,1,1
59715,-100,4,2,3,50,0,1
59806,-100,4,2,1,50,0,1
62261,362.537764350453,4,2,1,50,1,1
62623,-100,4,2,3,50,0,1
62714,-100,4,2,1,50,0,1
64073,-100,4,2,3,50,0,1
64164,-100,4,2,1,50,0,1
65161,361.44578313253,4,2,1,60,1,1
66606,364.188163884674,4,2,1,50,1,1
67334,-100,4,1,1,70,0,1
67880,-100,4,2,1,70,0,1
69883,-100,4,2,3,70,0,1
69974,-100,4,2,1,70,0,1
72797,-100,4,2,3,70,0,1
72888,-100,4,2,1,70,0,1
74253,-100,4,2,3,70,0,1
74344,-100,4,2,1,70,0,1
75710,-100,4,2,3,70,0,1
75801,-100,4,2,1,70,0,1
76803,363.636363636364,4,2,1,50,1,1
80439,-100,4,2,1,45,0,0
81166,359.281437125748,4,2,1,50,1,0
81884,-100,4,2,1,45,0,0
82603,365.853658536585,4,2,1,50,1,0
83151,-100,4,2,0,35,0,0
83700,-100,4,2,1,35,0,0
84066,-100,4,2,0,35,0,0
84798,-100,4,2,1,35,0,0
86261,-100,4,2,1,40,0,0
86993,-100,4,2,1,30,0,0
87359,-100,4,2,1,24,0,0
87724,-100,4,2,1,10,0,0
87907,-100,4,2,1,5,0,0

[Colours]
Combo1 : 141,220,124
Combo2 : 226,172,227
Combo3 : 150,233,237
Combo4 : 237,158,158
Combo5 : 211,105,252
Combo6 : 228,225,120

[HitObjects]
92,94,445,2,0,P|48:138|48:178,2,80,2|0|0,0:0|0:0|0:0,0:0:0:0:
164,59,1539,1,0,0:0:0:0:
235,94,1903,2,0,P|279:138|282:166,1,80,2|0,0:0|0:0,0:0:0:0:
202,165,2633,2,0,P|202:238|220:256,1,80,0|0,0:0|0:0,0:0:0:0:
274,278,3362,6,0,P|315:288|357:274,2,80,2|0|0,0:0|0:0|0:0,0:0:0:0:
311,207,4457,1,0,0:0:0:0:
272,136,4821,2,0,P|309:125|350:134,1,80,2|0,0:0|0:0,0:0:0:0:
405,190,5546,2,0,L|450:270|450:270,1,80,0|2,0:0|0:0,0:0:0:0:
476,332,6271,1,0,0:0:0:0:
164,104,7725,6,0,P|125:173|134:208,2,120,4|8|8,0:0|0:0|0:0,0:0:0:0:
240,79,9170,2,0,L|250:36,2,40
276,150,9893,1,0,0:0:0:0:
334,205,10255,1,0,0:0:0:0:
412,187,10616,6,0,P|451:118|432:69,2,120,4|8|8,0:0|0:0|0:0,0:0:0:0:
370,119,12063,2,0,P|329:78|275:78,2,80,8|0|8,0:0|0:0|3:0,0:0:0:0:
309,171,13157,1,0,0:0:0:0:
229,177,13521,1,4,0:0:0:0:
162,133,13886,6,0,P|155:212|215:256,1,160,2|0,0:0|0:0,0:0:0:0:
294,255,14980,2,0,P|339:250|390:262,1,80,2|0,0:0|0:0,0:0:0:0:
453,255,15710,1,2,0:0:0:0:
419,327,16075,2,0,L|400:368,2,40
256,192,16622,12,0,19358,0:0:0:0:
68,161,20087,6,8,P|100:217|132:233,1,80,2|0,0:0|0:0,0:0:0:0:
190,239,20816,2,0,P|229:230|280:248,1,80
347,248,21545,2,8,P|424:198|437:134,1,160,2|0,0:0|0:0,0:0:0:0:
300,52,23004,6,0,P|250:44|209:58,1,80,2|0,0:0|0:0,0:0:0:0:
257,124,23734,2,0,P|226:133|178:123,1,80,0|0,0:0|0:0,0:0:0:0:
108,85,24463,2,0,P|100:134|189:207,1,160,2|0,0:0|0:0,0:0:0:0:
280,95,25895,6,0,P|357:82|445:99,1,160,2|0,0:0|0:0,0:0:0:0:
436,255,27353,2,0,P|359:268|271:251,1,160,2|0,0:0|0:0,0:0:0:0:
158,336,28812,6,0,P|110:288|110:250,1,80,2|0,0:0|0:0,0:0:0:0:
108,199,29542,2,0,P|109:190|157:142,1,80,0|0,0:0|0:0,0:0:0:0:
233,119,30271,1,2,0:0:0:0:
331,246,30998,1,2,0:0:0:0:
468,164,31725,6,0,P|416:147|394:127,1,80,4|8,0:0|0:0,0:0:0:0:
325,95,32452,2,0,L|248:65,1,80,2|8,0:0|0:0,0:0:0:0:
176,33,33180,2,0,P|105:106|134:162,1,160,2|2,0:0|0:0,0:0:0:0:
177,205,34271,1,8,0:0:0:0:
253,180,34634,6,0,L|266:258,1,80,2|8,0:0|0:0,0:0:0:0:
245,336,35359,2,0,P|281:339|328:307,1,80,2|8,0:0|0:0,0:0:0:0:
389,280,36084,2,0,P|424:193|392:131,1,160,2|2,0:0|0:0,0:0:0:0:
318,137,37171,1,8,0:0:0:0:
261,80,37534,6,0,P|205:54|118:89,1,160,2|2,0:0|0:0,0:0:0:0:
61,145,38621,2,0,L|72:234,1,80,8|2,0:0|0:0,0:0:0:0:
92,301,39346,1,8,0:0:0:0:
148,357,39709,2,0,P|189:350|239:362,1,80,2|8,0:0|0:0,0:0:0:0:
306,356,40434,6,0,P|347:363|397:351,1,80,2|8,0:0|0:0,0:0:0:0:
441,299,41159,2,0,L|465:223,1,80,2|8,0:0|0:0,0:0:0:0:
481,144,41884,2,0,P|504:88|477:26,2,120,2|0|8,0:0|0:0|0:0,0:0:0:0:
405,169,43334,1,4,0:0:0:0:
267,87,44063,6,0,P|211:54|150:69,1,120,8|0,0:0|0:0,0:0:0:0:
85,93,44975,2,0,P|52:149|67:210,1,120,0|8,0:0|0:0,0:0:0:0:
117,257,45887,1,0,0:0:0:0:
192,281,46251,6,0,P|178:330|191:364,1,80,0|0,0:0|0:0,0:0:0:0:
260,324,46981,2,0,P|322:339|389:319,2,120,8|0|0,0:0|0:0|0:0,0:0:0:0:
260,243,48440,2,0,L|228:158,1,80,8|0,0:0|0:0,0:0:0:0:
238,88,49169,6,0,P|189:97|158:129,1,80,4|0,0:0|0:0,0:0:0:0:
109,172,49899,2,0,B|68:236|119:283|119:283,2,120,8|0|0,0:0|0:0|0:0,0:0:0:0:
172,223,51358,2,0,P|218:214|262:218,1,80,8|2,0:0|0:0,0:0:0:0:
308,158,52089,6,0,P|385:183|466:152,1,160,4|8,0:0|0:0,0:0:0:0:
440,315,53526,2,0,P|385:328|311:309,1,120,0|4,0:0|0:0,0:0:0:0:
256,192,54257,12,8,56072,0:0:0:0:
98,199,56799,5,8,0:0:0:0:
167,240,57164,2,0,P|231:252|283:238,2,120,2|0|8,0:0|0:0|0:0,0:0:0:0:
98,199,58623,2,0,L|108:115,1,80,2|8,0:0|0:0,0:0:0:0:
175,76,59352,6,0,P|246:86|300:151,1,160,2|2,0:0|0:0,0:0:0:0:
328,225,60442,1,8,0:0:0:0:
399,261,60806,2,0,P|410:230|397:184,1,80,2|8,0:0|0:0,0:0:0:0:
419,108,61533,2,0,P|378:107|341:124,1,80,2|8,0:0|0:0,0:0:0:0:
269,90,62261,6,0,P|195:87|144:112,2,120,4|0|8,0:0|0:0|0:0,0:0:0:0:
349,90,63711,2,0,P|423:93|474:68,2,120,2|0|8,0:0|0:0|0:0,0:0:0:0:
286,142,65161,6,0,L|309:235,1,80,2|8,0:0|0:0,0:0:0:0:
385,219,65883,2,0,P|431:262|433:315,1,120,2|4,0:0|0:0,0:0:0:0:
356,294,66788,6,0,L|323:324,1,40,0|0,1:0|1:0,0:0:0:0:
254,354,67334,1,0,0:0:0:0:
175,354,67698,1,0,0:0:0:0:
216,286,68062,6,0,L|217:245|217:187,2,80,4|8|2,0:0|0:0|0:0,0:0:0:0:
135,286,69155,2,0,P|82:275|44:216,2,120,8|0|2,0:0|0:0|0:0,0:0:0:0:
124,207,70612,1,8,0:0:0:0:
204,207,70977,6,0,L|316:207,2,80,2|8|2,0:0|0:0|0:0,0:0:0:0:
161,139,72068,2,0,P|143:83|146:18,2,120,8|0|2,0:0|0:0|0:0,0:0:0:0:
124,207,73525,1,8,0:0:0:0:
203,207,73889,6,0,P|277:210|328:185,2,120,4|0|8,0:0|0:0|0:0,0:0:0:0:
124,207,75346,2,0,P|50:204|-2:225,2,120,2|0|10,0:0|0:0|0:0,0:0:0:0:
138,287,76803,6,0,P|176:293|226:286,1,80,4|8,0:0|0:0,0:0:0:0:
294,267,77530,2,0,P|315:205|285:145,1,120,2|4,0:0|0:0,0:0:0:0:
217,172,78439,6,0,L|170:61,1,120,8|8,0:0|0:0,0:0:0:0:
90,61,79348,1,8,0:0:0:0:
33,117,79712,2,0,L|79:227,1,120,4|4,0:0|0:0,0:0:0:0:
256,192,80439,12,4,82603,0:0:0:0:
69,107,83151,6,0,P|127:87|201:114,1,120,4|4,0:0|0:0,0:0:0:0:
239,157,84066,2,0,L|239:253,2,80,0|0|8,0:0|0:0|0:0,0:0:0:0:
295,100,85163,2,0,L|328:67,1,40,8|4,0:0|0:0,0:0:0:0:
256,192,85529,12,2,87907,0:0:0:0:
